#TITLE:Chronos;
#SUBTITLE:;
#ARTIST:JAGGS & Dropgun;
#TITLETRANSLIT:;
#SUBTITLETRANSLIT:;
#ARTISTTRANSLIT:;
#GENRE:Big Room House;
#CREDIT:Feraligatr;
#BANNER:Chronos-bn.png;
#BACKGROUND:Chronos-bg.png;
#LYRICSPATH:;
#CDTITLE:cdtitle.png;
#MUSIC:Chronos.ogg;
#OFFSET:0.009000;
#SAMPLESTART:59.991001;
#SAMPLELENGTH:15.000000;
#SELECTABLE:YES;
#DISPLAYBPM:128.000000;
#BPMS:0.000000=128.000000
,80.000000=192.000000
,80.750000=64.000000
,81.000000=128.000000
,88.000000=192.000000
,88.750000=64.000000
,89.000000=128.000000
,128.000000=192.000000
,128.750000=64.000000
,129.000000=128.000000
,144.000000=192.000000
,144.750000=64.000000
,145.000000=128.000000
,160.000000=192.000000
,160.750000=64.000000
,161.000000=128.000000
,176.000000=192.000000
,176.750000=64.000000
,177.000000=128.000000
,192.000000=192.000000
,194.000000=128.000000
,208.000000=192.000000
,208.750000=64.000000
,209.000000=192.000000
,209.750000=64.000000
,210.000000=128.000000
;
#STOPS:192.750000=0.157000,
193.750000=0.157000
;
#BGCHANGES:;
#KEYSOUNDS:;
#ATTACKS:;

//---------------dance-single - Feraligatr----------------
#NOTES:
     dance-single:
     Feraligatr:
     Challenge:
     10:
     0.695652,0.676848,0.434783,0.347826,0.600000,470.000000,50.000000,40.000000,10.000000,0.000000,4.000000,0.695652,0.676848,0.434783,0.347826,0.600000,470.000000,50.000000,40.000000,10.000000,0.000000,4.000000:
// measure 0
0000
0000
0000
0000
,  // measure 1
0000
0000
0000
0000
,  // measure 2
0000
0000
0000
0000
,  // measure 3
0000
0000
0000
0000
,  // measure 4
1100
0100
0010
0000
0000
0001
1000
1010
,  // measure 5
0110
0000
1000
0001
0010
0000
0000
0000
0001
0000
0000
0000
0000
0000
0011
0000
,  // measure 6
1001
0000
0001
0000
0100
0000
0000
0000
0110
0000
0010
1000
0001
0000
0011
0000
,  // measure 7
0110
0000
1001
0000
,  // measure 8
0101
0100
0010
0000
0000
0100
0001
1001
,  // measure 9
1100
0000
0001
0010
0100
0000
0000
0000
1000
0000
0000
0000
0000
0000
1001
0000
,  // measure 10
0101
0000
0100
0000
0010
0000
0000
0000
1010
0000
1000
0001
0010
0000
0110
0000
,  // measure 11
1100
0000
0000
0000
0000
0000
0000
0000
1002
0000
0000
0000
0000
0000
0000
0003
,  // measure 12
0101
0100
0020
0000
1030
0001
1000
0100
,  // measure 13
0020
0000
1030
0010
0002
0000
0000
0000
2003
0000
0000
0000
3010
0000
0100
0000
,  // measure 14
0010
0000
1000
0000
0002
0000
0000
0000
0023
0000
0130
0010
0001
0000
1000
0000
,  // measure 15
0020
0100
4030
0000
,  // measure 16
3001
1000
0200
0000
0310
0001
1000
0010
,  // measure 17
0200
0000
1300
0100
0002
0000
0000
0000
2003
0000
0000
0000
3100
0000
0010
0000
,  // measure 18
0001
0000
1000
0000
0020
0000
0000
0000
0032
0000
0013
1000
0001
0000
0010
0000
,  // measure 19
0200
0000
4300
0000
,  // measure 20
3002
0000
0000
0003
0100
0000
0010
0000
1000
0000
0001
0010
0000
0001
0010
0000
,  // measure 21
0100
1000
0001
0000
0100
0000
0010
0000
0100
0001
1000
0100
0000
1000
0100
0000
,  // measure 22
0020
0000
0000
0030
0001
0000
1000
0000
0010
0000
0100
0001
0000
0100
0001
0000
,  // measure 23
1000
0001
0010
0000
0100
0000
1000
0000
0001
0100
0001
1000
0000
0000
0100
0000
,  // measure 24
0020
0000
0031
1000
0001
0100
0010
0000
0200
0000
0301
1000
0000
0000
0000
0000
,  // measure 25
0002
0000
1003
0100
0010
0100
1000
0000
0002
0000
0103
0010
0000
0000
0000
0000
,  // measure 26
0200
0000
0301
1000
0100
1000
0001
0000
2000
0000
3001
0010
0000
0000
0000
0000
,  // measure 27
0200
0000
1300
0001
0100
0001
1000
0000
0020
0000
0130
0001
0000
0000
0000
0000
,  // measure 28
1000
1000
0100
0100
0010
0010
0001
0001
,  // measure 29
1000
1000
0010
0010
0100
0100
0001
0001
,  // measure 30
1000
0001
0100
0001
1000
0100
0010
0100
1000
0001
0100
0010
1000
0001
0010
0100
,  // measure 31
100M
0000
0000
00M0
0000
000M
0000
0000
0M01
0100
0001
0000
1000
0000
0001
0000
,  // measure 32
0021
0000
0000
0030
0110
0000
1000
0000
0001
0000
0100
0010
0000
0100
0010
0000
,  // measure 33
1000
0001
0010
0000
0100
0000
1000
0000
0001
1000
0010
0100
0000
0100
0011
0000
,  // measure 34
1100
0000
0000
0000
0101
0000
0001
0000
1000
0000
0100
1000
0000
0100
1000
0000
,  // measure 35
0100
00M0
0100
0000
0001
0000
0000
0000
0001
0000
0000
0000
0010
0M00
0010
0000
1000
0000
0000
0000
0010
0000
1000
0000
0000
0000
0001
0000
0020
0000
0030
0000
,  // measure 36
0210
0000
0000
0300
1100
0000
0001
0000
0100
0000
0010
1000
0000
0010
1000
0000
,  // measure 37
0001
1000
0100
0000
0010
0000
0001
0000
1000
0001
0100
0010
0000
0010
1100
0000
,  // measure 38
0011
0000
0000
0000
1010
0000
0001
0000
1000
0000
0001
0010
0000
0001
0010
0000
,  // measure 39
0100
0000
1000
0010
0100
0000
0001
1000
0100
0000
0100
0000
0020
0000
0100
0030
,  // measure 40
0012
0000
0000
0003
1001
0000
1000
0000
0010
0000
0100
0001
0000
0100
0001
0000
,  // measure 41
1000
0001
0010
0000
0001
0000
1000
0000
0001
0100
0010
1000
0000
1000
0011
0000
,  // measure 42
1100
0000
0000
0000
0101
0000
1000
0000
0001
0000
0010
0001
0000
0010
0001
0000
,  // measure 43
0100
00M0
0100
0000
1000
0000
0000
0000
1000
0000
0000
0000
0010
0M00
0010
0000
0001
0000
0000
0000
0010
0000
0001
0000
0000
0000
1000
0000
0020
0000
0030
0000
,  // measure 44
0210
0000
0000
0300
0101
0000
1000
0000
0001
0000
0010
0100
0000
0010
0100
0000
,  // measure 45
1000
0001
0100
0000
0010
0000
1000
0000
0001
1000
0100
0010
0000
0010
0101
0000
,  // measure 46
1010
0000
0000
0000
0011
0000
1000
0000
0001
0000
1000
0010
0000
1000
0010
0000
,  // measure 47
0100
0000
0100
0000
0001
0000
0001
0000
1000
0100
0010
0001
2000
0000
0000
0000
,  // measure 48
3020
0000
0000
0030
0200
0000
0000
0300
0101
0000
1000
0001
0000
1000
0001
0000
,  // measure 49
0010
0000
0100
0000
1000
0000
0001
0000
0400
0000
0000
0000
0000
0000
0000
0000
0310
M000
0010
0000
0001
0000
2000
0000
0000
0000
3000
0000
0100
0000
0000
0000
,  // measure 50
0011
0000
0010
0000
0110
0000
0100
0000
1100
0000
1000
0001
0000
0000
0001
0000
,  // measure 51
0100
0010
1000
0010
0100
0000
0100
0000
0001
0000
0001
1000
0000
0000
0100
0000
,  // measure 52
0120
0000
0000
0030
0012
0000
0000
0003
1001
0000
1000
0001
0000
1000
0001
0000
,  // measure 53
0100
0000
0010
0000
1000
0000
0001
0000
0040
0000
0000
0000
0000
0000
0000
0000
0130
M000
0100
0000
0001
0000
2000
0000
0000
0000
3000
0000
0010
0000
0000
0000
,  // measure 54
1010
0000
0010
0000
0110
0000
0100
0000
0101
0000
0001
1000
0000
0000
1000
0000
,  // measure 55
0100
0010
0001
0010
0100
0000
0100
0000
0010
0000
0010
0001
0000
0000
1000
0000
,  // measure 56
1001
0001
1000
0010
0000
0100
0001
1000
0000
0001
1000
0100
0000
0010
0100
1000
,  // measure 57
0000
0001
0100
0010
0000
0100
0001
1000
0000
0100
1000
0001
0000
0100
0001
1000
,  // measure 58
0000
0100
0010
0001
0000
1000
0010
0100
0000
0001
1000
0100
0000
1000
0001
0100
,  // measure 59
0020
0000
1030
0100
0010
0000
0001
0100
0010
0000
0010
0000
1000
0000
0100
0000
;

//---------------dance-single - Feraligatr----------------
#NOTES:
     dance-single:
     Feraligatr SH:
     Hard:
     9:
     0.513043,0.520652,0.165217,0.382609,0.352174,350.000000,19.000000,44.000000,35.000000,0.000000,0.000000,0.513043,0.520652,0.165217,0.382609,0.352174,350.000000,19.000000,44.000000,35.000000,0.000000,0.000000:
// measure 0
0000
0000
0000
0000
,  // measure 1
0000
0000
0000
0000
,  // measure 2
0000
0000
0000
0000
,  // measure 3
0000
0000
0000
0000
,  // measure 4
0001
0100
0010
0000
0000
0100
0001
1000
,  // measure 5
0100
0000
0010
0100
1000
0000
0000
0000
0001
0000
0000
0000
0000
0000
0100
0000
,  // measure 6
0010
0000
1000
0000
0001
0000
0000
0000
0010
0000
0100
1000
0001
0000
0100
0000
,  // measure 7
0010
0000
0000
0000
0000
0000
0000
0000
2000
0000
0000
0000
0000
0000
0000
3000
,  // measure 8
0001
1000
0100
0000
0000
0010
0100
1000
,  // measure 9
0001
0000
0100
0010
1000
0000
0000
0000
0001
0000
0000
0000
0000
0000
0010
0000
,  // measure 10
0100
0000
1000
0000
0001
0000
0000
0000
0100
0000
0010
1000
0001
0000
0010
0000
,  // measure 11
0100
0000
0000
0000
0000
0000
0000
0000
2000
0000
0000
0000
0000
0000
0000
3000
,  // measure 12
1001
1000
0020
0000
1030
0001
0010
0100
,  // measure 13
0020
0000
0031
1000
0020
0000
0000
0000
0230
0000
0000
0000
0301
0000
1000
0000
,  // measure 14
0100
0000
0010
0000
0002
0000
0000
0000
2003
0000
3010
0100
0001
0000
1000
0000
,  // measure 15
0200
0010
2300
0001
,  // measure 16
3010
0100
0002
0000
1003
0100
0010
0100
,  // measure 17
2000
0000
3001
1000
0020
0000
0000
0000
0230
0000
0000
0000
0301
0000
1000
0000
,  // measure 18
0100
0000
0010
0000
0200
0000
0000
0000
0302
0000
0103
0010
0001
0000
1000
0000
,  // measure 19
0020
0000
0230
0000
,  // measure 20
0302
0000
0000
0003
M000
0000
00M0
0000
M000
0000
000M
00M0
0000
000M
00M0
0000
,  // measure 21
0M00
M000
000M
0000
0M00
0000
00M0
0000
0M00
000M
M000
0M00
0000
M000
0M00
0000
,  // measure 22
0002
0000
0000
0003
M000
0000
00M0
0000
0M00
0000
00M0
M000
0000
00M0
M000
0000
,  // measure 23
000M
M000
0M00
0000
00M0
0000
000M
0000
M000
00M0
M000
000M
0000
0000
0000
0000
,  // measure 24
2000
0000
0000
3001
0000
0000
0000
0000
2000
0000
0000
3010
0000
0000
0000
0000
,  // measure 25
2000
0000
0000
3001
0000
0000
0000
0000
2000
0000
0000
3100
0000
0000
0M00
0000
,  // measure 26
0002
0000
0000
1003
0000
0000
0000
0000
0002
0000
0000
0013
0000
0000
0000
0000
,  // measure 27
0002
0000
0000
1003
0000
0000
0000
0000
0002
0000
0000
0103
0000
0000
0000
0000
,  // measure 28
0001
0010
0100
0010
0001
1000
0010
0100
,  // measure 29
0001
1000
0100
1000
0001
0100
0010
1000
,  // measure 30
0001
0010
0001
0010
0100
1000
0100
1000
,  // measure 31
0000
0000
0000
0000
0000
0000
0000
0000
0001
1000
0001
0000
0010
0000
0100
0000
,  // measure 32
2100
0000
0000
3000
0001
0000
0100
0000
0010
0000
0000
0010
0000
0000
0010
0000
,  // measure 33
1000
0001
1000
0000
0100
0000
0010
0000
0001
1000
0001
1000
0000
0000
1001
0000
,  // measure 34
1001
0000
0000
0000
1000
0000
0100
0000
1000
0000
0000
1000
0000
0000
1000
0000
,  // measure 35
0001
1000
0010
0000
0010
0000
0100
0001
0100
0000
0000
0100
0000
0000
0200
0300
,  // measure 36
0020
0000
0000
0030
1000
0000
0001
0000
0010
0000
0000
0010
0000
0000
0010
0000
,  // measure 37
0100
1000
0001
0000
0100
0000
0010
0000
1000
0001
1000
0001
0000
0000
0101
0000
,  // measure 38
0101
0000
0000
0000
0001
0000
1000
0000
0100
0000
0000
0100
0000
0000
0100
0000
,  // measure 39
0010
0000
0001
1000
0001
0000
1000
0001
0100
0000
0100
0000
0020
0000
1000
0030
,  // measure 40
1002
0000
0000
0003
1000
0000
0010
0000
0100
0000
0000
0100
0000
0000
0100
0000
,  // measure 41
0001
1000
0001
0000
0010
0000
0100
0000
1000
0001
1000
0001
0000
0000
0101
0000
,  // measure 42
0101
0000
0000
0000
0001
0000
1000
0000
0001
0000
0000
0001
0000
0000
0001
0000
,  // measure 43
1000
0001
0010
0000
0010
0000
0001
1000
0010
0000
0000
0010
0000
0000
0020
0030
,  // measure 44
0200
0000
0000
0300
0001
0000
1000
0000
0100
0000
0000
0100
0000
0000
0100
0000
,  // measure 45
0010
0001
1000
0000
0010
0000
0100
0000
0001
1000
0001
1000
0000
0000
1100
0000
,  // measure 46
1100
0000
0000
0000
1000
0000
0001
0000
0010
0000
0000
0010
0000
0000
0010
0000
,  // measure 47
0100
0000
0100
0000
1000
0000
1000
0000
0001
0100
0001
0100
0020
0000
0000
0000
,  // measure 48
2030
0000
0000
3000
0200
0000
0000
0300
0110
0000
0000
0001
0000
0000
0001
0000
,  // measure 49
1000
0010
1000
0001
0100
0000
0100
0000
0001
1000
0001
0020
0000
0030
0100
0000
,  // measure 50
1100
0000
0000
0000
1001
0000
0000
0000
0101
0000
0000
0001
0000
0000
0001
0000
,  // measure 51
1000
0100
1000
0100
0010
0000
0010
0000
0001
0000
0000
1000
0000
0000
0010
0000
,  // measure 52
0200
0000
0000
0300
0002
0000
0000
0003
2000
0000
3000
0100
0000
0000
0100
0000
,  // measure 53
0010
0001
1000
0100
0010
0000
0010
0000
0001
1000
0001
0200
0000
0300
0010
0000
,  // measure 54
1010
0000
0000
0000
1001
0000
0000
0000
0011
0000
0000
0010
0000
0000
0010
0000
,  // measure 55
0100
1000
0100
0010
0000
0000
0010
0000
0001
0000
0000
1000
0000
0000
0010
0000
,  // measure 56
0110
0000
0000
0000
0100
0000
0000
0000
0001
0000
1000
0001
0000
0000
0000
0000
,  // measure 57
0010
0000
0000
0000
0100
0000
0000
0000
1000
0000
0001
1000
0000
0000
0000
0000
,  // measure 58
0010
0000
0000
0000
0100
0000
0000
0000
0001
0000
1000
0100
0000
0000
0000
0000
,  // measure 59
0020
0000
0031
1000
0001
0000
1000
0010
0100
0000
0100
0000
0001
0000
1000
0000
;

//---------------dance-single - Feraligatr----------------
#NOTES:
     dance-single:
     Feraligatr SM:
     Medium:
     6:
     0.344099,0.364457,0.017391,0.339130,0.095652,236.000000,2.000000,39.000000,0.000000,0.000000,0.000000,0.344099,0.364457,0.017391,0.339130,0.095652,236.000000,2.000000,39.000000,0.000000,0.000000,0.000000:
// measure 0
0000
0000
0000
0000
,  // measure 1
0000
0000
0000
0000
,  // measure 2
0000
0000
0000
0000
,  // measure 3
0000
0000
0000
0000
,  // measure 4
2000
0000
0000
0000
0000
0000
0000
3001
,  // measure 5
0200
0000
0000
0000
0000
0000
0000
0310
,  // measure 6
2000
0000
0000
0000
3002
0000
0013
0100
,  // measure 7
2000
0000
3001
0000
,  // measure 8
0200
0000
0000
0000
0000
0000
0000
0310
,  // measure 9
2000
0000
0000
0000
0000
0000
0000
3001
,  // measure 10
2000
0000
0000
0000
3200
0000
0310
0001
,  // measure 11
2000
0000
3020
0000
,  // measure 12
0130
0001
2000
0000
0000
3010
0100
0001
,  // measure 13
1000
0100
0020
0000
0032
0000
0000
1003
,  // measure 14
0010
0100
0002
0000
1003
0100
0010
0001
,  // measure 15
2000
0000
3020
0000
,  // measure 16
0130
0001
2000
0000
0000
3100
0010
0100
,  // measure 17
1000
0001
0200
0000
0320
0000
0000
1030
,  // measure 18
0001
0010
0200
0000
0301
0100
0010
0001
,  // measure 19
2000
0000
3200
0000
,  // measure 20
2300
0000
0000
3000
0000
0000
0000
0000
0000
0000
0000
0000
0000
0000
0000
0000
,  // measure 21
0000
0000
0000
0000
,  // measure 22
2000
0000
0000
3000
0000
0000
0000
0000
0000
0000
0000
0000
0000
0000
0000
0000
,  // measure 23
0000
0000
0000
0000
,  // measure 24
0001
0000
0001
0000
,  // measure 25
1000
0000
1000
0000
,  // measure 26
0010
0000
0010
0000
,  // measure 27
0100
0000
0100
0000
,  // measure 28
0001
1000
0100
0010
,  // measure 29
0100
1000
0001
0100
,  // measure 30
0010
1000
0010
1000
0001
0100
0001
0100
,  // measure 31
0000
0000
0000
0000
,  // measure 32
2002
0000
0000
3003
1000
0000
0000
0000
0100
0000
0000
0010
0000
0000
0001
0000
,  // measure 33
1000
0000
0000
0000
0010
0000
0000
0000
0100
0000
0000
0001
0000
0000
1000
0000
,  // measure 34
0001
0000
0000
0000
0010
0000
0000
0000
0100
0000
0000
1000
0000
0000
0001
0000
,  // measure 35
0100
0000
0000
0000
0010
0000
0000
0000
1000
0000
0000
0001
0000
0000
1000
0000
,  // measure 36
0200
0000
0000
0300
0010
0000
0000
0000
0100
0000
0000
1000
0000
0000
0001
0000
,  // measure 37
0100
0000
0000
0000
0010
0000
0000
0000
1000
0000
0000
0001
0000
0000
0010
0000
,  // measure 38
0100
0000
0000
0000
1000
0000
0000
0000
0001
0000
0000
0100
0000
0000
0010
0000
,  // measure 39
1000
0000
0001
0000
0010
0010
0100
1000
,  // measure 40
0002
0000
0000
0003
1000
0000
0000
0000
0100
0000
0000
0010
0000
0000
0001
0000
,  // measure 41
1000
0000
0000
0000
0010
0000
0000
0000
0100
0000
0000
0001
0000
0000
1000
0000
,  // measure 42
0001
0000
0000
0000
0010
0000
0000
0000
0100
0000
0000
1000
0000
0000
0001
0000
,  // measure 43
0100
0000
0000
0000
0010
0000
0000
0000
1000
0000
0000
0001
0000
0000
1000
0000
,  // measure 44
0200
0000
0000
0300
0010
0000
0000
0000
0100
0000
0000
1000
0000
0000
0001
0000
,  // measure 45
0100
0000
0000
0000
0010
0000
0000
0000
1000
0000
0000
0001
0000
0000
0010
0000
,  // measure 46
0100
0000
0000
0000
1000
0000
0000
0000
0001
0000
0000
0100
0000
0000
0010
0000
,  // measure 47
1000
1000
0001
0001
1000
0001
2000
0000
,  // measure 48
3020
0000
0000
0030
0200
0000
0000
0300
0101
0000
0000
1000
0000
0000
1000
0000
,  // measure 49
0001
0000
0000
0000
0010
0000
0010
0000
0100
0000
0000
1000
0000
0000
0001
0000
,  // measure 50
0200
0000
0000
0300
0020
0000
0000
0030
1000
0000
0000
0001
0000
0000
0001
0000
,  // measure 51
0010
0000
0000
0000
0100
0000
0100
0000
1000
0000
0000
0001
0000
0000
0100
0000
,  // measure 52
0020
0000
0000
0030
2000
0000
0000
3000
0001
0000
0000
0010
0000
0000
0010
0000
,  // measure 53
0100
0000
0000
0000
1000
0000
1000
0000
0001
0000
0000
0100
0000
0000
0010
0000
,  // measure 54
2000
0000
0000
3000
0002
0000
0000
0003
0010
0000
0000
0100
0000
0000
0100
0000
,  // measure 55
1000
0000
0000
0000
0001
0000
0001
0000
0100
0000
0000
0010
0000
0000
1000
0000
,  // measure 56
0001
0000
0010
0000
0100
1000
0001
0000
,  // measure 57
1000
0000
0010
0000
1000
0001
1000
0000
,  // measure 58
0100
0000
0010
0000
0100
1000
0001
0000
,  // measure 59
0100
0010
1000
0001
0010
0100
1000
0001
;

//---------------dance-single - Feraligatr----------------
#NOTES:
     dance-single:
     Feraligatr SE:
     Easy:
     3:
     0.211180,0.233804,0.139130,0.078261,0.000000,145.000000,16.000000,9.000000,0.000000,0.000000,0.000000,0.211180,0.233804,0.139130,0.078261,0.000000,145.000000,16.000000,9.000000,0.000000,0.000000,0.000000:
// measure 0
0000
0000
0000
0000
,  // measure 1
0000
0000
0000
0000
,  // measure 2
0000
0000
0000
0000
,  // measure 3
0000
0000
0000
0000
,  // measure 4
1001
0000
0000
0000
,  // measure 5
0011
0000
0000
0000
,  // measure 6
1100
0000
1001
0000
,  // measure 7
0101
0000
0110
0000
,  // measure 8
1001
0000
0000
0000
,  // measure 9
1100
0000
0000
0000
,  // measure 10
1001
0000
0011
0000
,  // measure 11
1100
0000
1001
0000
,  // measure 12
0101
0100
0010
1000
,  // measure 13
0001
0010
0100
0010
,  // measure 14
0001
1000
0010
0100
,  // measure 15
0002
0000
0023
0000
,  // measure 16
0130
1000
0001
0100
,  // measure 17
0010
0100
0001
1000
,  // measure 18
0100
0010
0001
1000
,  // measure 19
0020
0000
0230
0000
,  // measure 20
0302
0000
0000
0003
0000
0000
0000
0000
0000
0000
0000
0000
0000
0000
0000
0000
,  // measure 21
0000
0000
0000
0000
,  // measure 22
0002
0000
0000
0003
0000
0000
0000
0000
0000
0000
0000
0000
0000
0000
0000
0000
,  // measure 23
0000
0000
0000
0000
,  // measure 24
1000
0000
1000
0000
,  // measure 25
0010
0000
0010
0000
,  // measure 26
0100
0000
0100
0000
,  // measure 27
0001
0000
0001
0000
,  // measure 28
1000
0100
0010
0100
,  // measure 29
1000
0001
0100
0010
,  // measure 30
1000
1000
0100
0100
,  // measure 31
0010
0000
0000
0000
,  // measure 32
1001
0000
1000
0000
,  // measure 33
0010
0000
0100
0001
,  // measure 34
1000
0000
0100
0000
,  // measure 35
0010
0000
0100
1000
,  // measure 36
0001
0000
0100
0000
,  // measure 37
0010
0000
1000
0001
,  // measure 38
0010
0000
0100
0000
,  // measure 39
1000
0000
0001
1000
,  // measure 40
1001
0000
0001
0000
,  // measure 41
0100
0000
0010
1000
,  // measure 42
0001
0000
0010
0000
,  // measure 43
0100
0000
0010
0001
,  // measure 44
1000
0000
0010
0000
,  // measure 45
0100
0000
0001
1000
,  // measure 46
0100
0010
0001
1000
,  // measure 47
0001
0001
1000
0020
,  // measure 48
0230
0000
0301
0000
,  // measure 49
1000
0100
0010
0100
,  // measure 50
1000
0001
0100
0010
,  // measure 51
1000
0001
1000
0000
,  // measure 52
0200
0000
0310
0000
,  // measure 53
0001
0000
1000
0000
,  // measure 54
0010
0100
0010
1000
,  // measure 55
0001
0000
0100
0000
,  // measure 56
0110
0100
0001
1000
,  // measure 57
0100
0010
0100
1000
,  // measure 58
0001
0100
0010
1000
,  // measure 59
0001
0001
0010
0010
;

//---------------dance-single - Feraligatr----------------
#NOTES:
     dance-single:
     Feraligatr SN:
     Beginner:
     1:
     0.113043,0.155870,0.086957,0.017391,0.000000,79.000000,10.000000,2.000000,0.000000,0.000000,0.000000,0.113043,0.155870,0.086957,0.017391,0.000000,79.000000,10.000000,2.000000,0.000000,0.000000,0.000000:
// measure 0
0000
0000
0000
0000
,  // measure 1
0000
0000
0000
0000
,  // measure 2
0000
0000
0000
0000
,  // measure 3
0000
0000
0000
0000
,  // measure 4
1000
0000
0000
0000
,  // measure 5
0100
0000
0000
0000
,  // measure 6
0010
0000
0100
0100
,  // measure 7
0100
0000
1000
0000
,  // measure 8
0001
0000
0000
0000
,  // measure 9
0100
0000
0000
0000
,  // measure 10
0010
0000
0100
0100
,  // measure 11
0100
0000
0001
0000
,  // measure 12
1001
0000
0000
0000
,  // measure 13
1000
0000
0000
0000
,  // measure 14
0100
0000
0010
0010
,  // measure 15
0010
0000
0002
0000
,  // measure 16
1003
0000
0000
0000
,  // measure 17
0001
0000
0000
0000
,  // measure 18
0100
0000
0010
0010
,  // measure 19
0010
0000
2000
0000
,  // measure 20
3001
0000
0000
0000
,  // measure 21
0000
0000
0000
0000
,  // measure 22
0001
0000
0000
0000
,  // measure 23
0000
0000
0000
0000
,  // measure 24
1000
0000
1000
0000
,  // measure 25
1000
0000
1000
0000
,  // measure 26
1000
0000
1000
0000
,  // measure 27
1000
0000
1000
0000
,  // measure 28
0001
0000
0100
0000
,  // measure 29
0010
0000
1000
0000
,  // measure 30
0001
0000
0010
0000
,  // measure 31
0100
0000
0000
0000
,  // measure 32
1001
0000
0000
0000
,  // measure 33
1000
0000
0000
0000
,  // measure 34
0110
0000
0000
0000
,  // measure 35
0001
0000
0000
0000
,  // measure 36
1001
0000
0000
0000
,  // measure 37
0001
0000
0000
0000
,  // measure 38
0110
0000
0000
0000
,  // measure 39
1000
0000
1000
0000
,  // measure 40
1001
0000
0000
0000
,  // measure 41
0010
0000
0000
0000
,  // measure 42
0110
0000
0000
0000
,  // measure 43
1000
0000
0000
0000
,  // measure 44
1001
0000
0000
0000
,  // measure 45
0100
0000
0000
0000
,  // measure 46
0110
0000
0000
0000
,  // measure 47
0001
0001
1000
1000
,  // measure 48
0010
0000
0000
0000
,  // measure 49
0100
0000
0000
0000
,  // measure 50
0001
0000
0000
0000
,  // measure 51
1000
0000
0000
0000
,  // measure 52
0100
0000
0000
0000
,  // measure 53
0010
0000
0000
0000
,  // measure 54
0001
0000
0000
0000
,  // measure 55
1000
0000
0000
0000
,  // measure 56
1001
0000
0000
0000
,  // measure 57
1000
0000
0000
0000
,  // measure 58
0001
0000
0000
0000
,  // measure 59
1000
0000
0010
0010
;
