#TITLE:Break It Down;
#SUBTITLE:(feat. Sullivan King);
#ARTIST:JayKode;
#TITLETRANSLIT:;
#SUBTITLETRANSLIT:;
#ARTISTTRANSLIT:;
#GENRE:Trap;
#CREDIT:;
#BANNER:Break it Down (feat. Sullivan King).png;
#BACKGROUND:Break it Down (Feat. Sullivan King)-bg.png;
#LYRICSPATH:;
#CDTITLE:cdtitle.png;
#MUSIC:Break it Down (feat. Sullivan King).ogg;
#OFFSET:0.006000;
#SAMPLESTART:23.993999;
#SAMPLELENGTH:14.400000;
#SELECTABLE:YES;
#DISPLAYBPM:150.000000;
#BPMS:0.000000=150.000000
;
#STOPS:
;
#BGCHANGES:;
#KEYSOUNDS:;
#ATTACKS:;

//---------------dance-single - Feraligatr----------------
#NOTES:
     dance-single:
     Feraligatr:
     Challenge:
     12:
     0.918367,1.000000,0.462585,0.278912,0.802721,834.000000,68.000000,41.000000,3.000000,4.000000,6.000000,0.918367,1.000000,0.462585,0.278912,0.802721,834.000000,68.000000,41.000000,3.000000,4.000000,6.000000:
0000
0000
0000
0000
,
0000
0000
0000
0000
,
0000
0000
0000
0000
,
0000
0000
0000
0000
,
1010
0000
0000
0000
0001
0000
1000
0000
0100
0010
0000
0100
0010
0000
0001
0000
,
0001
0000
1000
0010
1000
0000
0001
0010
0000
0010
0100
0000
1000
0000
0001
1000
,
0010
0000
0000
0000
0100
0000
0001
0000
0001
0010
0000
0001
0010
0000
0100
0000
,
0100
0000
0000
0000
1000
0000
0001
0000
1000
0000
0000
0000
0001
0100
0001
0100
0010
0000
1000
0000
0001
0000
0010
0000
0100
0000
0010
0000
0001
0000
1000
0000
,
0010
0000
1000
0000
0100
0000
0010
0000
0001
1000
0010
0000
0100
0001
1000
0000
,
0001
0000
1000
0000
0100
0000
0010
0000
0001
1000
0010
0000
0100
0001
1000
0100
,
1000
0000
0001
0000
0100
0000
0010
0000
1000
0001
0010
0000
0100
0010
0001
0000
,
1000
0000
0010
0000
0100
0000
0001
0000
1000
0001
0010
0000
0400
0300
1000
0001
,
0100
0100
0010
0010
1000
1000
0001
0001
,
0010
0010
0100
0100
1000
1000
0001
0001
,
0100
0000
0000
0001
0000
0000
1000
0000
0000
0100
0000
0000
0010
0000
0000
0001
0000
0000
1000
0000
0000
0010
0000
0000
0100
0000
0001
0000
1000
0000
0100
0000
0010
0000
0100
0000
1000
0000
0001
0000
0100
0000
0010
0000
1000
0000
0001
0000
,
1000
0100
0010
0001
1000
0100
0010
0001
1000
0000
0010
0000
0200
0000
0000
0300
,
0111
0000
1000
0100
0010
0001
0000
1010
,
0001
0000
1000
0000
0101
0000
1000
0000
1000
0000
0100
0000
1000
0001
0100
0010
,
2100
0000
3001
1000
0100
0010
0100
1010
,
0001
0000
1000
0000
0101
0010
0001
1000
0010
0000
0010
0100
0001
1000
0100
0010
,
0101
0000
1000
0001
0100
0010
0000
1100
,
0001
0000
1000
0000
0011
0000
1000
0000
0002
0000
0000
0000
0103
0001
1000
0100
,
1010
0000
0001
0000
1000
0000
0010
0000
0001
0000
0010
0000
0100
0010
1000
0000
,
1001
1001
0011
0110
,
1001
1000
0010
0001
0410
0300
0004
1003
,
0100
0000
0100
0000
1010
0000
0100
0000
0010
0000
0001
0000
1000
0001
0100
0010
,
4100
0000
3001
1000
0100
0010
0002
1000
,
0103
0000
0001
0000
1000
0000
0100
0000
0010
0001
1000
0010
0200
0000
0000
0300
,
0111
0000
1000
0001
0010
0100
0000
1010
,
0100
0000
0100
0000
1010
0000
0100
0000
0020
0000
0000
0000
0031
1000
0010
0100
,
0011
0000
1000
0000
0001
0010
0100
1000
0010
0100
0001
1000
0100
0010
0001
1000
,
1010
1010
1001
0011
,
1000
0001
1000
0001
0100
0000
0100
0000
0001
0000
0000
0000
0001
0000
0010
0001
,
1000
0010
1000
0010
0100
0000
0001
0000
1000
0100
1000
0100
0010
0000
0001
0000
,
1000
0010
1000
0010
0100
0000
0100
0000
0001
0000
0000
0000
1000
0000
0100
1000
,
0001
0100
0001
0100
0010
0000
1000
0000
0001
0010
0001
0010
0100
0000
1000
0001
,
0100
0000
0010
0000
0100
0000
0001
0000
1000
0100
0010
0000
0001
1000
0010
0000
,
1000
0000
0001
0000
0010
0000
0100
0000
1000
0001
0100
0000
0001
1000
0100
1000
,
0001
0000
0000
0010
0000
0000
0100
0000
0000
1000
0000
0000
0001
0000
0000
0100
0000
0000
0010
0000
0000
0100
0000
0000
0001
0000
1000
0000
0100
0000
1000
0000
0001
0000
0100
0000
0010
0000
0100
0000
0001
0000
1000
0000
0100
0000
0010
0000
,
0000
0000
0000
000M
,
1100
0000
0001
0000
4000
0000
0000
0000
3011
0000
0000
0000
1000
0100
1000
0001
,
0100
0010
0100
0001
1000
0100
1000
0001
0010
0000
0001
0000
0100
0000
0010
0100
,
0012
0000
0000
0000
0000
0000
0000
0000
1003
0000
0001
0000
0010
0000
0100
0000
0000
0000
0100
0000
1000
0000
0001
0000
1000
0010
1000
0000
0001
0000
1000
0000
,
0001
0000
1000
0000
0001
0000
0001
0010
0100
0000
0001
0000
0100
0000
0010
0000
,
0101
1000
0001
1000
0010
0100
0011
1000
,
0001
0010
0100
1000
0001
0100
1000
0100
,
0110
0001
1000
0100
0001
0100
0010
0001
,
1001
1010
0110
0101
,
1001
0000
0001
0000
0100
0100
0010
0000
1010
0000
0000
0000
0001
1000
0100
1000
,
0001
0100
0001
1000
0100
0010
0001
1000
0010
0000
1000
0000
0100
0000
0010
0001
,
2000
0000
0000
0000
0000
0000
0000
0000
3001
0000
1000
0000
0010
0000
0100
0000
0000
0000
0100
0000
0001
0000
1000
0000
0001
0010
0001
0000
1000
0000
0001
0000
,
1000
0000
0001
0000
1000
0000
1000
0001
0100
0000
1000
0000
0100
0000
0010
0000
,
1200
0000
0304
0000
1013
0000
1000
0011
,
1000
0000
0100
0000
1010
0000
0001
0000
1000
0000
0010
0000
0100
0000
0001
1000
,
0200
0000
0300
0000
0020
0000
0030
0000
0011
0000
0001
1000
0010
1000
0100
0010
,
0011
0000
0000
0000
0000
0000
0000
0000
0011
0000
0000
0000
1000
0001
1000
0001
0100
0000
0010
0000
1000
0000
0001
0000
0010
0000
0000
0000
0000
0000
0000
0000
,
1001
1000
0001
0010
0100
0010
0001
1000
,
0001
0000
0100
0000
0010
0000
0100
0000
0001
0000
1000
0000
0100
0000
0010
0100
,
1010
0100
1000
0001
1000
0010
0100
0010
,
1100
0000
0001
0000
1000
0000
0100
0000
1010
0000
0001
0000
1000
0000
0010
0100
,
0011
1000
0001
0010
0100
0010
0001
1000
,
0010
0000
0100
0000
0001
0000
1000
0000
0100
0000
1000
0000
0001
0000
0100
0010
,
1100
0000
0000
0010
0000
0000
0100
0000
0000
0001
0000
0000
1000
0000
0000
0100
0000
0000
0010
0000
0000
0001
0100
0001
,
1000
0100
1000
0001
0100
0010
0100
0001
1000
0001
0010
0100
1000
0000
0000
0010
0000
0000
1000
0000
0000
0000
0000
0000
,
0001
0010
0001
0010
0100
0000
1000
0000
1100
0000
0001
0100
0010
0000
0010
0000
,
0002
0000
0000
0000
0000
0000
0000
0000
0000
0000
0000
0000
0023
0000
0000
0000
0000
0000
0130
0000
0001
0000
0100
0000
0001
0000
0000
1000
0000
0000
0001
0000
0000
0010
0000
0000
0200
0000
0000
0000
0000
0000
0320
0000
0000
0000
0000
0000
,
0031
1000
0001
1000
0010
0000
0000
0000
0110
0000
0100
0001
1000
0100
0010
0001
,
0200
0000
0000
0000
0000
0000
0000
0000
0000
0000
0000
0000
0000
0000
0000
0000
0000
0000
0310
0000
0000
1000
0000
0000
0001
0000
0010
0000
0100
0000
1000
0000
0001
0000
0100
0000
0010
0000
1000
0000
0010
0000
1000
0000
0000
0000
0000
0000
,
0001
0000
0000
0010
0000
0000
0001
0000
0000
1000
0000
0000
0010
0000
0100
0000
0010
0000
2000
0000
0000
0000
0000
0000
3002
0000
0000
0000
0000
0000
1003
0000
0000
0010
0000
0000
0200
0000
0000
0000
0000
0000
0302
0000
0000
0000
0000
0000
,
2003
0000
0000
0000
0000
0000
3200
0000
0000
0000
0000
0000
0320
0000
0000
0000
0000
0000
0130
0000
1000
0000
0100
0000
1000
0000
0000
0001
0000
0000
0100
0000
0000
0001
0000
0000
2000
0000
0000
0000
0000
0000
0000
0000
0000
0000
0000
0000
,
3001
0000
0000
0010
0000
0000
0001
0000
0000
0010
0000
0000
0100
0000
0000
0000
0000
0000
0020
0000
0000
0000
0000
0000
0100
0000
0000
0000
0000
0000
0031
0000
0000
1000
0000
0000
0001
0000
0000
0000
0000
0000
0001
0000
0010
0000
0100
0000
,
2000
0000
0000
0000
0000
0000
0000
0000
0000
0000
0000
0000
0000
0000
0000
0000
0000
0000
3001
0000
1000
0000
0001
0000
1000
0000
0000
0010
0000
0000
0100
0000
0000
0001
0000
0000
1000
0000
0001
0000
1000
0000
0100
0000
0010
0000
0001
0000
,
1000
0100
0010
0100
1000
0001
0100
0010
0100
0001
1000
0100
0010
0001
2000
0000
,
3001
0100
0010
0100
0001
1000
0100
0010
0100
1000
0001
0100
0010
1000
0002
0000
,
0013
0100
0010
0001
1000
0010
1000
0001
0010
0100
0010
0001
1000
0010
0200
0000
,
0301
0000
0010
0000
0100
0000
2000
0000
0000
0000
0000
0000
0000
0000
0000
0000
0000
0000
3001
0000
0000
0100
0000
0000
0020
0000
0000
0000
0000
0000
0130
0000
0000
0001
0000
0000
1000
0000
0000
0001
0000
0000
0010
0000
0000
0001
0000
0000
,
0200
0000
0000
0000
0000
0000
0000
0000
0000
0000
0000
0000
0000
0000
0000
0000
0000
0000
0000
0000
0000
0000
0000
0000
0302
0000
0000
0000
0000
0000
1003
0000
0000
0100
0000
0000
0020
0000
0000
0000
0000
0000
0031
0000
1000
0000
0001
0000
,
0200
0000
0000
0000
0000
0000
0010
0000
0000
0000
0000
0000
0302
0000
0000
0000
0000
0000
1000
0000
0000
1003
0010
1000
,
0002
0023
0230
0010
2300
0001
3020
0100
,
1030
0100
0010
0001
1000
0100
1000
0001
0100
0001
1000
0010
1000
0001
1000
0001
1000
0001
0010
0000
0000
0100
0000
0000
,
1100
1000
0001
0100
0110
0010
1000
0001
,
0000
0100
0001
1000
1001
0001
0010
0100
,
0100
1000
0001
0100
0110
0010
1000
0010
,
0100
0001
0100
0010
1010
1000
0001
1001
,
1100
0100
0010
0001
1001
1000
0001
0100
,
0000
0010
1000
0001
1001
1000
0100
0010
,
0010
0001
1000
0010
0110
0100
0001
0001
,
1001
1001
0011
0110
,
0MM0
0000
0000
0000
,
0000
0000
0000
0000
0000
0000
0000
0000
0000
0000
0000
0000
0000
0000
0000
0000
1000
0100
0010
0001
0000
0000
0000
0000
0000
0000
0000
0000
0000
0000
0000
0000
;

//---------------dance-single - Feraligatr----------------
#NOTES:
     dance-single:
     :
     Hard:
     11:
     0.817298,0.975170,0.217687,0.299320,0.642857,765.000000,32.000000,44.000000,7.000000,0.000000,7.000000,0.817298,0.975170,0.217687,0.299320,0.642857,765.000000,32.000000,44.000000,7.000000,0.000000,7.000000:
0000
0000
0000
0000
,
0000
0000
0000
0000
,
0000
0000
0000
0000
,
0000
0000
0000
0000
,
1001
0000
0000
0000
0001
0000
1000
0000
0001
0010
0000
0001
0010
0000
0100
0000
,
0100
0000
1000
0000
1000
0000
0001
1000
0000
1000
0001
0000
0100
0000
0010
0000
,
0010
0000
0000
0000
1000
0000
0001
0000
0010
0100
0000
0010
0100
0000
1000
0000
,
1000
0000
0000
0000
0000
0000
0001
0000
0000
0000
0000
0000
0001
0000
0000
0000
0000
0000
1000
0000
0001
0000
1000
0000
0001
0000
0000
0100
0000
0000
0001
0000
0000
1000
0000
0000
0100
0000
0000
1000
0000
0000
0001
0000
0000
0100
0000
0000
,
0010
0000
1000
0000
0100
0000
0000
0000
0010
0001
1000
0000
0100
1000
0001
0000
,
1000
0000
0010
0000
0100
0000
0000
0000
0001
1000
0010
0000
0100
0001
1000
0001
,
1000
0000
0001
0000
0100
0000
0000
0000
0001
1000
0010
0000
0100
0010
1000
0000
,
0001
0000
0010
0000
0100
0000
0000
0000
0010
0001
1000
0000
0400
0300
1000
0001
,
0100
0100
0010
0010
1000
1000
0001
0001
,
0010
0010
0100
0100
1000
1000
0001
0001
,
0010
0001
0010
0001
1000
0100
1000
0100
0010
0001
1000
0001
0100
0010
0100
0001
,
1000
0100
0010
0001
1000
0100
0010
0001
1000
0000
0010
0000
0200
0000
0000
0300
,
0110
0000
0010
1000
0001
0010
0000
0100
,
1000
0000
0001
0000
1000
0000
0001
0000
1000
0000
0010
0000
1000
0001
1000
0100
,
0020
0000
0031
1000
0010
0100
0001
1000
,
0001
0000
0010
0000
0100
1000
0001
0100
0010
0000
0010
1000
0001
1000
0001
0010
,
0100
0000
0010
0001
1000
0010
0000
0100
,
0001
0000
1000
0000
0001
0000
1000
0000
0020
0000
0000
0000
0130
0001
1000
0001
,
0010
0000
0100
0000
1000
0000
0100
0000
0001
0000
0100
0000
0010
0001
1000
0000
,
1001
1001
1010
0110
,
0101
0100
0010
1000
0004
0003
0040
0130
,
1000
0000
1000
0000
0001
0000
1000
0000
0010
0000
0100
0000
0001
1000
0100
0010
,
0400
0000
1300
0001
0100
0010
2000
0000
,
3001
0000
1000
0000
0100
0000
0010
0000
0100
1000
0001
0100
0020
0000
0000
0030
,
0110
0000
0100
0001
1000
0100
0000
0010
,
0001
0000
0001
0000
1000
0000
0001
0000
0020
0000
0000
0000
0031
1000
0010
1000
,
0001
0000
1000
0000
0001
0010
0001
1000
0001
0100
0010
0100
0001
1000
0100
1000
,
0001
1001
1010
0110
,
0001
1000
0001
1000
0100
0000
0100
0000
0010
0000
0000
0000
0001
0000
1000
0100
,
1000
0001
1000
0001
0100
0000
0010
0000
1000
0001
1000
0001
0010
0000
0100
0000
,
0010
0001
0010
0001
1000
0000
1000
0000
0001
0000
0000
0000
0100
0000
0010
1000
,
0001
0100
0001
0100
0010
0000
1000
0000
0001
1000
0001
1000
0100
0000
0010
0100
,
1000
0000
0001
0000
0100
0000
0001
0000
1000
0100
1000
0000
0001
0100
0001
0000
,
1000
0000
0001
0000
0010
0000
0001
0000
1000
0010
1000
0000
0001
0100
0001
1000
,
0010
0100
0010
1000
0001
1000
0001
0010
0100
1000
0100
1000
0001
0010
0001
0010
,
0000
0000
0000
000M
,
1001
0000
0001
0000
0400
0000
0000
0000
0310
0000
0000
0000
1000
0010
1000
0010
,
1000
0010
1000
0010
1000
0010
1000
0010
1000
0000
0001
0000
0100
0000
0010
1000
,
0200
0000
0000
0000
0310
0001
0010
0001
0000
0001
0010
0001
0040
0031
0010
0001
,
1000
0000
0010
0000
1000
0000
1000
0010
1000
0000
0001
0000
0010
0000
0100
0000
,
1100
1000
0001
0100
0010
0100
0001
0010
,
0100
1000
0001
0100
0010
0100
1000
0100
,
0110
0010
1000
0100
0001
0100
0010
0001
,
1001
0101
1010
1001
,
0011
0000
0001
0000
1000
0100
1000
0000
1001
0000
0000
0000
0001
0100
0001
0100
,
0001
0100
0001
0100
0001
0100
0001
0100
0010
0000
1000
0000
0100
0000
0010
0001
,
0200
0000
0000
0000
0301
1000
0001
1000
0000
1000
0001
1000
0004
1003
0001
1000
,
0100
0000
0010
0000
0100
0000
0100
1000
0001
0000
0100
0000
0010
0000
1000
0000
,
2001
0000
3200
0000
0310
0000
0001
1000
,
0010
0000
0100
0000
0001
0000
1000
0000
0100
0000
0010
0000
0100
0000
1000
0001
,
0200
0000
0300
0000
0020
0000
0030
0000
1010
0000
1000
0001
1000
0100
0010
0001
,
1000
0000
0000
0000
0000
0000
0000
0000
0000
0000
0000
0000
1001
0000
0000
0000
0000
0000
1000
0000
0001
0000
1000
0000
0001
0000
0000
0010
0000
0000
0100
0000
0000
1000
0000
0000
0001
0000
0000
0000
0000
0000
0000
0000
0000
0000
0000
0000
,
1001
1000
0001
0010
0100
1000
0001
0100
,
0001
0000
1000
0000
0100
0000
0010
0000
0100
0000
1000
0000
0001
0000
0100
0010
,
1000
0001
0010
0100
0010
0001
1000
0010
,
0100
0000
0001
0000
1000
0000
0100
0000
0010
0000
0001
0000
1000
0000
0010
0100
,
0001
0010
0100
1000
0001
0100
0010
1000
,
0001
0000
1000
0000
0100
0000
0010
0000
0100
0000
1000
0000
0001
0000
0100
0001
,
1000
0000
0001
0000
0010
0000
0100
0000
1000
0000
0001
0000
0100
0000
0010
1000
,
0001
0010
0001
0010
0100
1000
0100
1000
0001
0000
0010
0000
0001
0000
0000
0000
,
1000
0001
1000
0001
0100
0000
0010
0000
1010
0000
1000
0001
0100
0000
0100
0000
,
0020
0000
0000
0000
2030
0000
0000
0000
3001
1000
0001
1000
0200
0000
0320
0000
,
0031
1000
0001
1000
0010
0000
0000
0000
0110
0000
0100
0001
1000
0100
1000
0001
,
0200
0000
0000
0000
0000
0000
0310
1000
0001
0100
0001
1000
0020
0000
0000
0000
,
1030
0001
1000
0001
0010
0100
2000
0000
3002
0000
1003
0001
0200
0000
0320
0000
,
2030
0000
3002
0000
0023
0000
0230
0000
1300
0001
1000
0001
0200
0000
0000
0000
,
0310
1000
0010
1000
0010
0000
0200
0000
0000
0000
0301
1000
0001
0000
1000
0100
,
0020
0000
0000
0000
0000
0000
0000
0000
0031
1000
0010
1000
0001
0010
0001
0010
,
0001
1000
0010
0100
0010
1000
0001
0100
0001
1000
0001
1000
0100
0010
0002
0000
,
1003
0001
1000
0010
0100
0001
1000
0001
1000
0100
0010
0100
1000
0001
0200
0000
,
0310
1000
0001
1000
0010
0100
0001
1000
0001
0010
0001
1000
0100
1000
0002
0000
,
0023
0000
0000
0000
0000
0000
0130
1000
0002
0000
0000
0000
0103
0001
0100
0001
,
2000
0000
0000
0000
0000
0000
0000
0000
3200
0000
0310
0001
2000
0000
0000
0000
,
3020
0000
0230
0000
,
0302
0023
0230
0000
2300
0000
3002
0000
,
0013
0001
0010
0001
1000
0001
1000
0001
1000
0010
1000
0010
0100
0000
0001
0000
,
0101
0001
1000
0100
0010
0100
1000
0001
,
0000
0100
0010
1000
0001
1000
0100
0010
,
0001
1000
0010
0100
0001
1000
0100
0010
,
0100
1000
0001
0100
1000
0100
0010
1000
,
1001
0001
0010
0100
0010
0001
1000
0010
,
0000
0100
0001
1000
0001
1000
0100
0010
,
0001
1000
0001
0100
0010
1000
0001
0010
,
0110
0110
1100
1001
,
0MM0
0000
0000
0000
,
0000
0000
0000
0000
0000
0000
0000
0000
0000
0000
0000
0000
0000
0000
0000
0000
M000
0M00
00M0
000M
0000
0000
0000
0000
0000
0000
0000
0000
0000
0000
0000
0000
;

//---------------dance-single - Feraligatr----------------
#NOTES:
     dance-single:
     :
     Medium:
     9:
     0.574344,0.609481,0.251701,0.285714,0.040816,512.000000,37.000000,42.000000,5.000000,0.000000,5.000000,0.574344,0.609481,0.251701,0.285714,0.040816,512.000000,37.000000,42.000000,5.000000,0.000000,5.000000:
0000
0000
0000
0000
,
0000
0000
0000
0000
,
0000
0000
0000
0000
,
0000
0000
0000
0000
,
1001
0000
0001
1000
0010
0000
0010
0100
,
0100
0001
0001
1000
0100
0010
0001
1000
,
1000
0000
0001
0010
0100
0000
0100
1000
,
1000
0001
0001
1000
0001
0010
0100
0000
,
1000
0001
0100
0000
0010
1000
0100
0000
,
0010
0000
0001
0000
0100
0000
0000
0000
0001
0000
1000
0000
0100
0000
1000
0001
,
1000
0001
0100
0000
0010
1000
0100
0000
,
1000
0001
0100
0000
0010
1000
0100
0000
,
1000
1000
0001
0001
0100
0100
0001
0001
,
1000
1000
0100
0100
0010
0010
0001
0001
,
1000
0001
1000
0001
0400
0000
0000
0000
,
0300
0000
0000
0000
,
1001
0000
0001
1000
0001
0010
0000
0000
,
0001
1000
0001
1000
0001
0010
0100
1000
,
0002
0000
1003
0001
1000
0010
0000
0000
,
0100
0000
0001
0000
1000
0000
0100
0000
0020
0000
0000
0000
0032
0000
0000
0003
,
1001
0000
1000
0001
1000
0010
0000
0000
,
1000
0001
1000
0001
0020
0000
0130
1000
,
0001
0100
0010
1000
0001
0010
0100
1000
,
1001
1001
1010
0110
,
0101
0100
0010
1000
0002
0003
0020
0030
,
0100
0000
0100
0000
1000
0000
0100
0000
0010
0000
0001
0000
1000
0001
1000
0000
,
0020
0000
0130
0001
0100
0010
2000
0000
,
3001
0000
1000
0000
0100
0000
0010
0000
0002
0000
0000
0000
2003
0000
0000
3000
,
1001
0000
1000
0001
1000
0100
0000
0000
,
0010
0010
0001
0010
0200
0000
1300
0001
,
0100
0010
1000
0001
0010
0100
1000
1000
,
1001
1001
1010
0110
,
1001
0001
1000
1000
0100
0000
0000
0000
,
0010
0010
0001
1000
0001
0001
1000
0010
,
0100
0100
0001
0001
1000
0000
0100
0000
,
0010
0010
0001
1000
0001
0001
0100
0010
,
1000
0000
0001
0000
0100
0000
0001
0000
1000
0100
1000
0000
0001
0100
0001
0000
,
1000
0000
0001
0000
0010
0000
0001
0000
1000
0010
1000
0000
0001
0100
0001
0000
,
1000
0100
0010
0100
1000
0001
0100
0010
,
0000
0000
0000
000M
,
1001
1000
0200
0000
0310
0000
0004
0000
,
0000
0000
0000
0000
1003
0010
0100
0000
,
0201
0304
0000
0000
,
1003
0010
1000
1000
0100
0010
0100
1000
,
1001
1000
0001
0100
0010
0100
0001
0010
,
0100
1000
0001
0100
0010
0100
1000
0100
,
0110
0010
1000
0100
0001
0100
0010
0001
,
1001
0101
1010
1001
,
0011
0000
1001
4000
,
0000
0000
0000
0000
3010
1000
0100
0010
,
0002
4003
0000
0000
,
3100
0010
0100
0100
1000
0001
0100
0010
,
2010
0000
3002
0000
1003
0000
0001
1000
,
0010
0100
0001
1000
0100
0010
0100
2000
,
0000
0000
0000
0000
3001
0010
0100
0010
,
0011
1001
1010
0110
,
1001
1000
0001
0010
0100
1000
0001
0100
,
0001
0000
1000
0000
0100
0000
0010
0000
0100
0000
1000
0000
0001
0000
1000
0001
,
1000
0001
0010
0001
1000
0010
0100
0001
,
1000
0000
0100
0000
0010
0000
0100
0000
1000
0000
0001
0000
1000
0000
0010
1000
,
0010
0100
0001
1000
0001
0010
0100
0010
,
0001
0000
1000
0000
0010
0000
0100
0000
0001
0000
1000
0000
0001
0000
1000
0001
,
1000
0100
0010
0100
1000
0001
0100
0010
,
1000
0001
1000
0001
0010
0100
0010
0000
,
0001
1000
0010
0100
0001
1000
0100
0010
,
0002
0000
0203
0000
0000
0310
1000
0001
,
0020
0000
0000
0000
0100
0000
0031
1000
,
0002
0000
0000
0000
0103
0001
2000
0000
,
3001
0010
0100
0010
0001
0100
0010
1000
,
0001
1000
0200
0310
0020
0000
0032
0000
,
2003
0000
0000
3020
0000
0000
0000
0130
,
0002
0000
2003
3200
,
0310
0001
1000
0001
0100
0010
0001
0010
,
0100
0001
1000
0100
0010
0100
1000
0001
,
0100
0010
1000
0001
0010
0100
0001
0100
,
0020
0000
0000
0000
0000
0000
0000
0000
0032
0000
0000
0000
0000
0000
0000
0003
,
2001
0000
3200
0320
,
0032
0000
2003
0000
,
3010
0100
0002
0000
0023
0000
0230
0000
,
2300
0000
0000
0000
0000
0000
0000
0000
3002
0000
0000
0000
0000
0000
0000
0003
,
1001
1000
0001
0010
0000
0100
1000
0001
,
0000
1000
0010
0100
0010
1000
0001
0010
,
0100
0010
0001
1000
0000
0010
1000
0001
,
0010
0001
1000
0010
0001
0010
0100
0001
,
1001
1000
0100
0010
0000
0001
1000
0010
,
0000
0100
0001
1000
0100
0010
0100
1000
,
0001
0100
0010
0100
0001
1000
0100
0010
,
0011
0011
1001
1010
,
0000
0000
0000
0000
,
0000
0000
0000
0000
0000
0000
0000
0000
0000
0000
0000
0000
0000
0000
0000
0000
M000
0M00
00M0
000M
0000
0000
0000
0000
0000
0000
0000
0000
0000
0000
0000
0000
;

//---------------dance-single - Feraligatr----------------
#NOTES:
     dance-single:
     :
     Easy:
     5:
     0.291545,0.365689,0.251701,0.183673,0.010204,236.000000,37.000000,27.000000,4.000000,0.000000,0.000000,0.291545,0.365689,0.251701,0.183673,0.010204,236.000000,37.000000,27.000000,4.000000,0.000000,0.000000:
// measure 0
0000
0000
0000
0000
,  // measure 1
0000
0000
0000
0000
,  // measure 2
0000
0000
0000
0000
,  // measure 3
0000
0000
0000
0000
,  // measure 4
1000
0010
0100
0010
,  // measure 5
1000
0001
0010
0100
,  // measure 6
0010
0001
1000
0010
,  // measure 7
0100
0001
1000
0200
,  // measure 8
1300
0100
0010
0100
,  // measure 9
1000
0000
0100
0000
0010
0000
0100
1000
,  // measure 10
0001
0100
0010
0100
,  // measure 11
0001
0100
0010
0100
,  // measure 12
0001
0001
1000
1000
,  // measure 13
0100
0100
0010
0010
,  // measure 14
0002
0000
0000
0000
,  // measure 15
0003
0000
0000
0000
,  // measure 16
1001
1000
0010
0000
,  // measure 17
0100
0001
0100
0001
,  // measure 18
1000
0001
0010
0000
,  // measure 19
0100
0010
0100
0010
,  // measure 20
0001
1000
0010
0000
,  // measure 21
0100
0001
0100
0001
,  // measure 22
1000
0100
0010
0001
,  // measure 23
1001
1001
1001
1001
,  // measure 24
1001
0000
0101
0002
,  // measure 25
1003
0100
1000
0001
,  // measure 26
0200
0310
0100
0000
,  // measure 27
0001
1000
0100
1000
,  // measure 28
0001
0100
0010
0000
,  // measure 29
1000
0001
0010
0100
,  // measure 30
0010
0001
1000
0001
,  // measure 31
0101
0101
0101
0101
,  // measure 32
0101
0000
0100
0000
,  // measure 33
0000
0000
0010
0000
,  // measure 34
0000
0000
1000
0000
,  // measure 35
0000
0000
0001
0000
,  // measure 36
0010
0000
0100
0000
,  // measure 37
0010
0000
0001
0000
,  // measure 38
2000
0000
0001
0000
,  // measure 39
3000
0000
0000
0000
,  // measure 40
1001
0002
0013
0200
,  // measure 41
0000
0000
1300
0100
,  // measure 42
2000
3002
0000
0000
,  // measure 43
1003
1000
0100
0100
,  // measure 44
0100
0000
0000
0011
,  // measure 45
0000
0001
1000
0000
,  // measure 46
1010
0000
0001
1000
,  // measure 47
1100
1100
1100
1100
,  // measure 48
1100
0000
1001
2000
,  // measure 49
0000
0000
3010
0100
,  // measure 50
0002
2003
0000
0000
,  // measure 51
3001
0001
0100
0100
,  // measure 52
0100
0020
1030
0000
,  // measure 53
0001
1000
0100
1000
,  // measure 54
0001
0100
0010
0100
,  // measure 55
0001
1000
0100
0010
,  // measure 56
0011
0000
0000
0000
,  // measure 57
0000
0000
0000
0000
,  // measure 58
1001
0000
0000
0000
,  // measure 59
1010
0000
1001
0000
,  // measure 60
0011
0000
0000
0000
,  // measure 61
0000
0000
0000
0000
,  // measure 62
0110
0000
0000
0000
,  // measure 63
1000
0001
1000
0001
,  // measure 64
0100
0100
0010
1000
,  // measure 65
0002
0023
0000
0030
,  // measure 66
0200
0000
0000
0000
,  // measure 67
2300
0000
3001
0001
,  // measure 68
0100
0010
1000
0001
,  // measure 69
0010
0100
1000
0001
,  // measure 70
0100
0000
0010
1000
,  // measure 71
0002
0000
0000
0003
,  // measure 72
1001
1000
1000
1000
,  // measure 73
0001
0001
0001
0001
,  // measure 74
0100
0100
0100
0100
,  // measure 75
0020
0000
2030
0000
,  // measure 76
3002
0000
0023
0230
,  // measure 77
2300
0000
3002
0000
,  // measure 78
0103
0010
1000
0001
,  // measure 79
0020
0000
0000
0000
0000
0000
0000
0000
0230
0000
0000
0000
0000
0000
0000
0300
,  // measure 80
1100
0000
0001
0000
,  // measure 81
1000
0000
0010
0000
,  // measure 82
0101
0000
1000
0000
,  // measure 83
0001
0000
0010
0000
,  // measure 84
1100
0000
0001
0000
,  // measure 85
1000
0000
0010
0000
,  // measure 86
0101
0000
1000
0000
,  // measure 87
1001
1001
1001
1001
,  // measure 88
1001
0000
0000
0000
,  // measure 89
0000
0000
0000
0000
0000
0000
0000
0000
0000
0000
0000
0000
0000
0000
0000
0000
M000
0M00
00M0
000M
0000
0000
0000
0000
0000
0000
0000
0000
0000
0000
0000
0000
;

//---------------dance-single - Feraligatr----------------
#NOTES:
     dance-single:
     :
     Beginner:
     1:
     0.097182,0.118367,0.034014,0.061224,0.000000,86.000000,5.000000,9.000000,0.000000,0.000000,0.000000,0.097182,0.118367,0.034014,0.061224,0.000000,86.000000,5.000000,9.000000,0.000000,0.000000,0.000000:
// measure 0
0000
0000
0000
0000
,  // measure 1
0000
0000
0000
0000
,  // measure 2
0000
0000
0000
0000
,  // measure 3
0000
0000
0000
0000
,  // measure 4
1000
0000
0000
0000
,  // measure 5
0001
0000
0000
0000
,  // measure 6
1000
0000
0000
0000
,  // measure 7
0010
0000
0000
0100
,  // measure 8
0000
0100
0000
0100
,  // measure 9
0000
0100
0000
0100
,  // measure 10
0000
0100
0000
0100
,  // measure 11
0000
0100
0000
0100
,  // measure 12
0001
0000
0001
0000
,  // measure 13
1000
0000
1000
0000
,  // measure 14
0200
0000
0000
0000
,  // measure 15
0300
0000
0000
0000
,  // measure 16
1001
0000
0000
0000
,  // measure 17
1000
0000
0000
0000
,  // measure 18
0010
0000
0000
0000
,  // measure 19
0100
0000
0000
0000
,  // measure 20
0001
0000
0000
0000
,  // measure 21
1000
0000
0000
0000
,  // measure 22
0100
0000
0000
0000
,  // measure 23
0010
0000
0000
0000
,  // measure 24
0100
0000
0000
0000
,  // measure 25
1000
0000
0000
0000
,  // measure 26
0001
0000
0000
0000
,  // measure 27
0100
0000
0000
0000
,  // measure 28
0010
0000
0000
0000
,  // measure 29
0100
0000
0000
0000
,  // measure 30
0001
0000
0000
0000
,  // measure 31
1000
0000
0000
0000
,  // measure 32
0100
0000
0000
0000
,  // measure 33
0010
0000
0000
0000
,  // measure 34
0001
0000
0000
0000
,  // measure 35
0100
0000
0000
0000
,  // measure 36
0010
0000
0000
0000
,  // measure 37
1000
0000
0000
0000
,  // measure 38
0001
0000
0000
0000
,  // measure 39
0010
0000
0000
0000
,  // measure 40
0100
0000
0000
0000
,  // measure 41
0010
0000
0000
0000
,  // measure 42
0001
0000
0000
0000
,  // measure 43
1000
0000
0000
0000
,  // measure 44
0010
0000
0000
0000
,  // measure 45
0100
0000
0000
0000
,  // measure 46
0001
0000
0000
0000
,  // measure 47
1000
0000
0000
0000
,  // measure 48
0100
0000
0000
0000
,  // measure 49
1000
0000
0000
0000
,  // measure 50
0001
0000
0000
0000
,  // measure 51
0100
0000
0000
0000
,  // measure 52
0010
0000
0000
0000
,  // measure 53
1000
0000
0000
0000
,  // measure 54
0001
0000
0000
0000
,  // measure 55
0010
0000
0000
0000
,  // measure 56
0100
0000
0000
0000
,  // measure 57
1000
0000
0000
0000
,  // measure 58
0001
0000
0000
0000
,  // measure 59
0100
0000
0000
0000
,  // measure 60
1000
0000
0000
0000
,  // measure 61
0100
0000
0000
0000
,  // measure 62
0001
0000
0000
0000
,  // measure 63
1000
0000
0000
0000
,  // measure 64
1001
0000
0000
0000
,  // measure 65
0000
0000
0000
0000
,  // measure 66
0110
0000
0000
0000
,  // measure 67
0000
0000
0000
0000
,  // measure 68
1001
0000
0000
0000
,  // measure 69
0000
0000
0000
0000
,  // measure 70
0110
0000
0000
0000
,  // measure 71
0000
0000
0000
0000
,  // measure 72
2000
0000
0000
0000
,  // measure 73
3200
0000
0000
0000
,  // measure 74
0320
0000
0000
0000
,  // measure 75
0032
0000
0000
0000
,  // measure 76
2003
0000
0000
0000
,  // measure 77
3020
0000
0000
0000
,  // measure 78
0230
0000
0000
0000
,  // measure 79
0302
0000
0000
0000
,  // measure 80
1003
0000
0000
0000
,  // measure 81
0001
0000
0000
0000
,  // measure 82
0010
0000
0000
0000
,  // measure 83
0100
0000
0000
0000
,  // measure 84
1000
0000
0000
0000
,  // measure 85
0001
0000
0000
0000
,  // measure 86
0100
0000
0000
0000
,  // measure 87
0010
0000
0000
0000
;
