#VERSION:0.83;
#TITLE:Arcade;
#SUBTITLE:;
#ARTIST:Matt Harper;
#TITLETRANSLIT:;
#SUBTITLETRANSLIT:;
#ARTISTTRANSLIT:;
#GENRE:EDM;
#ORIGIN:;
#CREDIT:;
#BANNER:Arcade-bn.png;
#BACKGROUND:Arcade-bg-wide.png;
#PREVIEWVID:;
#JACKET:Arcade-jacket.png;
#CDIMAGE:;
#DISCIMAGE:;
#LYRICSPATH:;
#CDTITLE:cd-title-Benpai.png;
#MUSIC:Arcade.ogg;
#OFFSET:0.009000;
#SAMPLESTART:59.595200;
#SAMPLELENGTH:13.241380;
#SELECTABLE:YES;
#DISPLAYBPM:145.000000;
#BPMS:0.000=145.000,
272.000=108.750,
273.000=217.500,
274.000=145.000,
276.000=108.750,
277.000=217.500,
278.000=145.000,
288.000=108.750,
289.000=217.500,
290.000=145.000,
292.000=108.750,
292.500=217.500,
293.000=108.750,
293.500=217.500,
294.000=145.000;
#STOPS:;
#DELAYS:;
#WARPS:;
#TIMESIGNATURES:0.000=4=4;
#TICKCOUNTS:0.000=4;
#COMBOS:0.000=1;
#SPEEDS:0.000=1.000=0.000=0;
#SCROLLS:0.000=1.000;
#FAKES:;
#LABELS:0.000=Song Start;
#BGCHANGES:;
#KEYSOUNDS:;
#ATTACKS:
;

//---------------dance-single - Benpai----------------
#NOTEDATA:;
#CHARTNAME:Benpai;
#STEPSTYPE:dance-single;
#DESCRIPTION:Benpai;
#CHARTSTYLE:;
#DIFFICULTY:Challenge;
#METER:10;
#RADARVALUES:0.606083,0.755124,0.479113,0.340240,0.263860,611.000000,542.000000,69.000000,49.000000,40.000000,0.000000,24.000000,0.000000,0.000000,0.606083,0.755124,0.479113,0.340240,0.263860,611.000000,542.000000,69.000000,49.000000,40.000000,0.000000,24.000000,0.000000,0.000000;
#CREDIT:Benpai;
#DISPLAYBPM:145.000000;
#NOTES:
0000
0000
0000
0000
,
0000
0000
0000
0000
,
0000
0000
0000
0000
,
0000
0000
0000
0000
,
0101
0000
0000
0001
0000
0000
0001
0000
,
0010
0000
0000
0010
0000
0000
0010
0000
,
0110
0000
0000
0000
0000
0000
0100
0000
0000
0100
0000
0000
1100
0000
0000
0000
,
1000
0000
0000
1000
0000
0000
1000
0000
,
1001
0000
M000
1000
0000
0000
1000
0000
,
0010
0000
0000
0000
00M0
0000
0010
0000
0100
0000
0100
0001
0100
0000
0001
1000
,
0100
0000
0000
0000
0M00
0000
0100
0000
1000
0100
0000
0000
1100
0000
0000
0000
,
0001
0000
0000
0000
000M
0000
0001
0000
1000
0001
0000
0000
1001
0000
0000
0000
,
0101
0000
0M00
0100
0000
0000
0100
0000
,
0010
0000
0000
0000
00M0
0000
0010
0000
1000
0000
1000
0001
1000
0000
0001
0010
,
0100
0000
0000
0000
0M00
0000
0100
0000
1000
0100
0000
0000
1100
0000
0000
0000
,
1000
0000
0000
0000
M000
0000
1000
0000
0001
0000
0001
0000
0100
0001
0100
0010
,
1000
0001
0010
0100
1000
0001
0010
0001
,
0100
0000
0010
0000
1000
0000
0001
0000
0010
0000
0100
1000
0100
0000
0010
0001
,
1000
0000
0001
0000
0100
0000
0010
0000
1000
0100
0000
M00M
0100
0000
0010
0000
,
1000
0000
0100
0000
1000
0000
0001
0000
1000
0010
0000
M00M
0010
0000
0100
0000
,
1000
0000
0001
0000
1000
0000
0100
0010
0100
0000
1000
0000
0001
0000
0100
0000
,
0010
0000
0100
0000
0001
0000
1000
0000
0100
0000
0010
0100
1000
0000
0001
0100
,
0010
0000
0100
0000
0001
0000
1000
0000
0001
0010
0000
M00M
0010
0000
0100
0000
,
0001
1000
0100
1000
0040
0000
0130
0001
,
1002
0000
0000
0000
,
0203
0000
0000
0000
,
0310
0000
0000
0000
0000
0000
0010
0000
0000
0000
0010
0000
001M
000M
000M
000M
,
100M
000M
000M
000M
000M
000M
100M
000M
000M
000M
100M
000M
100M
0000
0000
0000
,
1002
0000
0000
0000
,
0013
0100
1000
0100
0010
0001
1000
0010
,
0110
0100
0001
1000
0100
0010
0100
1000
,
0001
0100
0010
1000
0001
0010
0100
1000
,
1001
0001
1000
0010
0100
0001
1000
0001
,
0011
0010
0100
1000
0010
0100
0001
1000
,
1100
0100
1000
0001
0100
0010
1000
0010
,
0100
0001
0010
0100
000M
M000
000M
M000
,
2010
0000
0000
3001
0000
0000
0001
0000
0100
0000
0010
0000
1000
0000
0100
0000
,
1200
0000
0000
0310
0000
0000
0010
0000
0001
1000
0001
1000
0010
0000
0100
0000
,
0201
0000
0000
0301
0000
0000
1001
0000
1000
0000
1100
0000
0220
0000
0000
0330
,
2002
0000
3003
0101
0100
0010
1001
0000
,
2100
0000
0000
3001
0000
0000
0001
0000
0100
0010
1000
0100
1000
0100
0010
0001
,
2000
0000
3000
0000
2002
0000
3003
0000
1000
0010
0100
0001
1000
0100
0010
0100
,
1000
1001
0000
1010
0010
0110
1001
0000
,
1010
0011
0000
0001
1000
0010
0020
0000
,
0130
0001
1000
0001
0020
0100
0130
1000
,
0001
0000
0100
0000
0010
0000
1000
0000
0200
0000
1300
0001
0100
0000
0010
0100
,
0001
0010
0100
1000
0002
0100
0103
0010
,
1000
0001
0010
0100
2000
0001
3001
1000
,
0100
0010
0001
1000
0020
0100
0130
0001
,
1000
0100
0010
0001
0200
0010
0310
1000
,
0100
0010
0100
1000
0020
1000
1030
0001
,
1000
0100
0010
0100
2000
0001
3001
0100
,
0012
0000
0000
0000
,
1003
0100
1000
0001
0100
0010
1000
0100
,
1100
1000
0001
0100
0010
0100
0001
1000
,
0100
1000
0001
1000
0010
0100
0010
1000
,
1001
0001
0010
0100
0010
0001
1000
0010
,
1010
1000
0001
0100
0010
0100
0001
1000
,
1100
0100
0010
0100
1000
0010
0100
0010
,
1000
0001
0010
0100
M000
000M
M000
000M
,
0102
0000
0000
1003
0000
0000
1000
0000
0010
0000
0100
0000
0001
0000
0010
0000
,
0021
0000
0000
0130
0000
0000
0100
0000
1000
0001
1000
0001
0100
0000
0010
0000
,
1020
0000
0000
1030
0000
0000
1001
0000
0001
0000
0011
0000
0220
0000
0000
0330
,
2002
0000
0000
3003
0000
0000
1010
0000
0010
0000
0100
0000
0101
0000
0000
0000
,
0012
0000
0000
1003
0000
0000
1000
0000
0010
0100
0001
0010
0100
1000
0001
0100
,
0020
0000
0030
0000
2020
0000
3030
0000
0001
0100
0010
1000
0100
0010
0001
1000
,
0100
1100
0000
0011
0010
0110
1100
0000
,
1001
0000
1010
0000
0000
0000
1000
0000
0001
0000
0100
0000
0200
0000
0000
0300
,
1020
0000
0000
0000
0130
0001
1000
0010
,
0210
0000
0000
0000
0000
0000
0000
0000
0301
1000
0001
1000
0100
0000
0010
0000
,
0021
0000
0000
0031
0000
0000
1001
0000
1000
0000
1010
0000
0220
0000
0000
0330
,
2002
0000
0000
3003
0000
0000
1100
0000
0100
0000
0010
0000
0011
0000
0000
0000
,
1002
0000
0000
0000
0000
0000
0000
0000
0103
0010
1000
0001
0010
0100
1000
0001
,
0200
0000
0000
0000
0320
0000
0000
0000
0130
0010
1000
0100
1000
0001
0100
0010
,
1000
1001
0000
1100
0100
0110
0011
0000
,
1001
0101
0000
0001
0100
0010
0020
0000
,
4030
3001
0040
0130
2000
0000
3000
0000
,
0040
0000
0000
0030
0000
0100
0004
0000
0000
1003
0000
0001
0100
0000
0000
0100
0000
0000
0010
0000
0000
0010
0000
0000
,
4000
3001
0040
0130
4000
3001
0400
0301
,
4000
3100
0040
0130
4000
3001
4000
3010
,
0400
0000
0000
0301
0000
0000
4000
0000
0000
3100
0000
1000
0002
0000
0000
0000
0000
0000
0003
0000
0000
0000
0000
0000
,
4000
3010
0400
0301
1000
0000
0100
1000
,
0001
1000
0000
0000
0000
0001
0400
0000
0000
0301
0000
0000
4000
0000
0000
3100
0000
0000
0010
0000
0000
0400
0000
0000
,
1300
0000
0000
0000
0004
0000
0403
0000
0000
0340
0000
0000
1030
0000
0000
0001
0000
0000
4000
0000
0000
0000
0000
0000
,
3100
0000
0000
0000
,
0000
0000
0000
0000
,
0000
0000
0000
0000
,
000M
0000
0000
0000
;

//---------------dance-single - Crossovers----------------
#NOTEDATA:;
#CHARTNAME:Crossovers;
#STEPSTYPE:dance-single;
#DESCRIPTION:Crossovers;
#CHARTSTYLE:;
#DIFFICULTY:Edit;
#METER:10;
#RADARVALUES:0.614019,0.815534,0.513832,0.347184,0.270803,619.000000,545.000000,74.000000,50.000000,40.000000,0.000000,22.000000,0.000000,0.000000,0.614019,0.815534,0.513832,0.347184,0.270803,619.000000,545.000000,74.000000,50.000000,40.000000,0.000000,22.000000,0.000000,0.000000;
#CREDIT:Crossovers;
#DISPLAYBPM:145.000000;
#NOTES:
0000
0000
0000
0000
,
0000
0000
0000
0000
,
0000
0000
0000
0000
,
0000
0000
0000
0000
,
0101
0000
0000
0001
0000
0000
0001
0000
,
0010
0000
0000
0010
0000
0000
0010
0000
,
0110
0000
0000
0000
0000
0000
0100
0000
0000
0100
0000
0000
1100
0000
0000
0000
,
1000
0000
0000
1000
0000
0000
1000
0000
,
1001
0000
M000
1000
0000
0000
1000
0000
,
0010
0000
0000
0000
00M0
0000
0010
0000
0100
0000
0100
0001
0100
0000
0001
1000
,
0100
0000
0000
0000
0M00
0000
0100
0000
1000
0100
0000
0000
1100
0000
0000
0000
,
0001
0000
0000
0000
000M
0000
0001
0000
1000
0001
0000
0000
1001
0000
0000
0000
,
0101
0000
0M00
0100
0000
0000
0100
0000
,
0010
0000
0000
0000
00M0
0000
0010
0000
1000
0000
1000
0001
1000
0000
0001
0010
,
0100
0000
0000
0000
0M00
0000
0100
0000
1000
0100
0000
0000
1100
0000
0000
0000
,
1000
0000
0000
0000
M000
0000
1000
0000
0001
0000
0001
0000
0100
0001
0100
0010
,
1000
0001
0010
0100
1000
0001
0010
0001
,
0100
0000
0010
0000
1000
0000
0001
0000
0010
0000
0100
1000
0100
0000
0010
0001
,
1000
0000
0001
0000
0100
0000
0010
0000
1000
0100
0000
M00M
0100
0000
0010
0000
,
1000
0000
0100
0000
1000
0000
0001
0000
1000
0010
0000
M00M
0010
0000
0100
0000
,
1000
0000
0001
0000
1000
0000
0100
0010
0100
0000
1000
0000
0001
0000
0100
0000
,
0010
0000
0100
0000
0001
0000
1000
0000
0100
0000
0010
0100
1000
0000
0001
0100
,
0010
0000
0100
0000
0001
0000
1000
0000
0001
0010
0000
M00M
0010
0000
0100
0000
,
0001
1000
0100
1000
0040
0000
0130
0001
,
1002
0000
0000
0000
,
0203
0000
0000
0000
,
0310
0000
0000
0000
0000
0000
0010
0000
0000
0000
0010
0000
001M
000M
000M
000M
,
100M
000M
000M
000M
000M
000M
100M
000M
000M
000M
100M
000M
100M
0000
0000
0000
,
1002
0000
0000
0000
,
0013
0100
1000
0100
0010
0001
1000
0010
,
0110
0100
0001
1000
0100
0010
0100
1000
,
0001
0100
0010
1000
0001
0010
0100
1000
,
1001
0001
1000
0010
0100
0001
1000
0001
,
0011
0010
0100
1000
0010
0100
0001
1000
,
1100
0100
1000
0001
0100
0010
1000
0010
,
0100
0001
0010
0100
000M
M000
000M
M000
,
2010
0000
0000
3001
0000
0000
0001
0000
0100
0000
0010
0000
1000
0000
0100
0000
,
1200
0000
0000
0310
0000
0000
0010
0000
0001
1000
0001
1000
0010
0000
0100
0000
,
0201
0000
0000
0301
0000
0000
1001
0000
1000
0000
1100
0000
0220
0000
0000
0330
,
2002
0000
3003
0101
0100
0010
1001
0000
,
2100
0000
0000
3001
0000
0000
0001
0000
0100
0010
1000
0100
0001
0100
0010
0001
,
2001
0000
3000
0000
2002
0000
3003
0000
1000
0010
0100
1000
0100
0010
1000
0001
,
1001
1001
0000
1100
0100
0110
1001
0000
,
1010
0011
0000
0001
1000
0010
0020
0000
,
0130
0001
1000
0001
0020
0100
0130
1000
,
0001
0000
0100
0000
0010
0000
1000
0000
0200
0000
1300
0001
0100
0000
0010
0100
,
0001
0010
0100
1000
0002
0100
0103
0010
,
1000
0001
0010
0100
2000
0001
3001
1000
,
0100
0010
0001
1000
0020
0100
0130
0001
,
1000
0100
0010
0001
0200
0010
0310
1000
,
0100
0010
0100
1000
0020
1000
1030
0001
,
1000
0100
0010
0100
2000
0001
3001
0100
,
0012
0000
0000
0000
,
1003
0100
1000
0001
0100
0010
1000
0100
,
1100
1000
0001
0100
0010
0100
0001
1000
,
0100
1000
0001
1000
0010
0100
0010
1000
,
1001
0001
0010
0100
0010
0001
1000
0010
,
1010
1000
0001
0100
0010
0100
0001
1000
,
1100
0100
0010
0100
1000
0010
0100
0010
,
1000
0001
0010
0100
M000
000M
M000
000M
,
0102
0000
0000
1003
0000
0000
1000
0000
0010
0000
0100
0000
0001
0000
0010
0000
,
0021
0000
0000
0130
0000
0000
0100
0000
1000
0001
1000
0001
0100
0000
0010
0000
,
1020
0000
0000
1030
0000
0000
1001
0000
0001
0000
0011
0000
0220
0000
0000
0330
,
2002
0000
0000
3003
0000
0000
1010
0000
0010
0000
0100
0000
0101
0000
0000
0000
,
0012
0000
0000
1003
0000
0000
1000
0000
0010
0100
0001
0010
1000
0010
0100
1000
,
2002
0000
3003
0000
2002
0000
3003
0000
0001
0100
0010
0001
0010
0100
0001
1000
,
1010
1010
0000
0011
0010
0110
1100
0000
,
1001
0000
1010
0000
0000
0000
1000
0000
0001
0000
0100
0000
0200
0000
0000
0300
,
1020
0000
0000
0000
0130
0001
1000
0010
,
0210
0000
0000
0000
0000
0000
0000
0000
0301
1000
0001
1000
0100
0000
0010
0000
,
0021
0000
0000
0031
0000
0000
1001
0000
1000
0000
1010
0000
0220
0000
0000
0330
,
2002
0000
0000
3003
0000
0000
1100
0000
0100
0000
0010
0000
0011
0000
0000
0000
,
1002
0000
0000
0000
0000
0000
0000
0000
0103
0010
1000
0100
0001
0100
0010
0001
,
0200
0000
0000
0000
0320
0000
0000
0000
0130
0010
1000
0100
0001
0100
0010
0001
,
1001
1001
0000
1100
0100
0110
0011
0000
,
1001
0101
0000
0001
0100
0010
0020
0000
,
4030
3001
0040
0130
2000
0000
3000
0000
,
0040
0000
0000
0030
0000
0100
0001
0000
0000
1000
0000
0001
0100
0000
0000
0100
0000
0000
0010
0000
0000
0010
0000
0000
,
4000
3001
0040
0130
4000
3001
0400
0301
,
4000
3100
0040
0130
4000
3001
4000
3010
,
0400
0000
0000
0301
0000
0000
4000
0000
0000
3100
0000
1000
0002
0000
0000
0000
0000
0000
0003
0000
0000
0000
0000
0000
,
4000
3010
0400
0301
1000
0000
0100
1000
,
0001
1000
0000
0000
0000
0001
0400
0000
0000
0301
0000
0000
4000
0000
0000
3100
0000
0000
0010
0000
0000
0400
0000
0000
,
1300
0000
0000
0000
0000
0000
0000
0000
0004
0000
0000
0000
0403
0000
0000
0000
0000
0000
0340
0000
0000
0000
0000
0000
1030
0000
0000
0000
0000
0000
0001
0000
0000
0000
0000
0000
0001
0000
0000
0010
0000
0000
0100
0000
0000
0000
1000
0000
,
0001
0000
0000
0000
,
0000
0000
0000
0000
,
0000
0000
0000
0000
,
000M
0000
0000
0000
;

//---------------dance-single - Benpai----------------
#NOTEDATA:;
#CHARTNAME:;
#STEPSTYPE:dance-single;
#DESCRIPTION:Benpai;
#CHARTSTYLE:;
#DIFFICULTY:Hard;
#METER:8;
#RADARVALUES:0.488041,0.513485,0.069437,0.354127,0.093740,492.000000,482.000000,10.000000,51.000000,37.000000,0.000000,23.000000,0.000000,0.000000,0.488041,0.513485,0.069437,0.354127,0.093740,492.000000,482.000000,10.000000,51.000000,37.000000,0.000000,23.000000,0.000000,0.000000;
#CREDIT:Benpai;
#DISPLAYBPM:145.000000;
#NOTES:
// measure 0
0000
0000
0000
0000
,  // measure 1
0000
0000
0000
0000
,  // measure 2
0000
0000
0000
0000
,  // measure 3
0000
0000
0000
0000
,  // measure 4
1000
0000
0000
1000
0000
0000
1000
0000
,  // measure 5
0010
0000
0000
0010
0000
0000
0010
0000
,  // measure 6
0100
0000
0000
0000
0000
0000
0001
0000
0000
0001
0000
0000
0001
0000
0000
0000
,  // measure 7
1000
0000
0000
1000
0000
0000
1000
0000
,  // measure 8
1001
0000
000M
0001
0000
0000
0001
0000
,  // measure 9
0010
0000
00M0
0010
0000
0000
0100
1000
,  // measure 10
0001
0000
0000
0000
000M
0000
0001
0000
0000
1000
0000
0000
1000
0000
0000
0000
,  // measure 11
0010
0000
0000
0000
00M0
0000
0010
0000
0000
0100
0000
0000
0100
0000
0000
0000
,  // measure 12
0001
0000
000M
0001
0000
0000
0001
0000
,  // measure 13
0010
0000
00M0
0010
0000
0000
0010
0001
,  // measure 14
1000
0000
0000
0000
M000
0000
1000
0000
0000
0010
0000
0000
0010
0000
0000
0000
,  // measure 15
0100
0000
0M00
0100
0001
1000
0001
0010
,  // measure 16
0100
1000
0001
0100
0001
0010
0100
0M00
,  // measure 17
0100
1000
0001
0100
0010
0100
0001
1000
,  // measure 18
0100
0000
0010
0000
0001
0000
0100
0000
0000
0100
0000
0000
0100
0000
0M00
0000
,  // measure 19
1000
0000
0000
0000
0001
0000
0010
0000
0000
0010
0000
0000
0010
0000
0100
0000
,  // measure 20
1000
0001
0100
0010
1000
0001
0010
0100
,  // measure 21
0010
0001
1000
0010
0100
0010
1000
0001
,  // measure 22
0100
0000
0001
0000
1000
0000
0100
0000
0000
0100
0000
0000
0100
0000
0M00
0000
,  // measure 23
0001
1000
0100
0010
0400
0000
1300
0001
,  // measure 24
0200
0000
0000
0000
,  // measure 25
0302
0000
0000
0000
,  // measure 26
1003
0000
0000
0000
0000
0000
1000
0000
0000
0000
1000
0000
10M0
00M0
00M0
00M0
,  // measure 27
00M1
00M0
00M0
00M0
00M0
00M0
00M1
00M0
00M0
00M0
00M1
00M0
00M1
0000
0000
0000
,  // measure 28
1002
0000
0000
0000
,  // measure 29
0013
0100
1000
0100
0010
0001
1000
0010
,  // measure 30
010M
0001
1000
0100
0010
0100
1000
0001
,  // measure 31
0100
0010
1000
0001
0010
0100
1000
0001
,  // measure 32
01M0
0001
1000
0010
0100
0001
1000
0100
,  // measure 33
001M
0100
1000
0001
0010
0100
1000
0001
,  // measure 34
01M0
0001
1000
0001
0010
0100
1000
0001
,  // measure 35
0100
0001
1000
0100
0000
0000
0000
0000
,  // measure 36
2001
0000
0000
3001
0000
0000
0001
0000
0100
0000
0010
0000
1000
0000
0100
0000
,  // measure 37
0010
0000
0000
0010
0000
0000
0010
0000
0001
1000
0001
0000
1000
0000
0010
0000
,  // measure 38
0100
0000
0000
0100
0000
0000
0001
0000
1000
0000
1000
0000
0200
0000
0000
0300
,  // measure 39
0200
0000
0000
0310
0001
1000
1001
0000
,  // measure 40
2010
0000
0000
3010
0000
0000
0010
0000
0100
0000
0001
0000
1000
0000
0100
0000
,  // measure 41
0020
0030
0020
0000
0130
1000
0001
0100
,  // measure 42
0001
0002
0000
1003
0100
0010
0020
0000
,  // measure 43
0130
0200
0000
1300
0001
0100
0200
0000
,  // measure 44
0310
0000
1000
0000
0200
0300
0010
0000
0001
0000
1000
0000
1000
0000
0100
0000
,  // measure 45
1000
0000
0001
0000
0200
0300
0010
0000
1000
0000
0001
0000
0002
0003
0020
0030
,  // measure 46
0100
0000
1000
0000
0002
0003
0100
0000
0010
0000
1000
0000
1000
0000
0100
0000
,  // measure 47
0010
0000
0001
0000
0200
0300
0001
0000
1000
0000
0010
0000
0020
0030
0200
0300
,  // measure 48
0001
0000
1000
0000
0200
0300
0010
0000
0001
0000
0010
0000
0010
0000
0100
0000
,  // measure 49
1000
0000
0001
0000
0200
0300
0010
0000
1000
0000
0001
0000
0002
0003
0020
0030
,  // measure 50
0100
0000
1000
0000
0002
0003
0100
0000
0010
0000
1000
0000
1000
0000
0010
0000
,  // measure 51
0100
0000
0001
0000
0020
0030
0100
0000
1000
0000
0001
0000
0002
0003
0100
0000
,  // measure 52
0020
0000
0000
0000
,  // measure 53
1030
0100
1000
0001
0100
0010
1000
0100
,  // measure 54
100M
0001
0100
0010
0100
0001
1000
0100
,  // measure 55
0010
0100
1000
0001
0010
0001
1000
0010
,  // measure 56
010M
0001
1000
0100
0010
0100
1000
0001
,  // measure 57
01M0
0001
1000
0010
0100
0001
0010
0100
,  // measure 58
100M
0100
0010
0001
1000
0010
0100
0010
,  // measure 59
1000
0001
0010
0100
0000
0000
0000
0000
,  // measure 60
2100
0000
0000
3100
0000
0000
0100
0000
0010
0000
0001
0000
1000
0000
0010
0000
,  // measure 61
1000
0000
0000
1000
0000
0000
1000
0000
0001
1000
0001
0000
0010
0000
0100
0000
,  // measure 62
1000
0000
0000
1000
0000
0000
0010
0000
0100
0000
0100
0000
0002
0000
0003
0000
,  // measure 63
0002
0000
0000
1003
0100
1000
1001
0000
,  // measure 64
0102
0000
0000
0103
0000
0000
0100
0000
0010
0000
1000
0000
0100
0000
0010
0000
,  // measure 65
0002
0003
0002
0000
0103
0010
1000
0100
,  // measure 66
0010
0020
0000
0130
1000
0001
0002
0000
,  // measure 67
0103
0200
0000
0310
1000
0001
0002
0000
,  // measure 68
0023
0000
0000
0000
0130
1000
0001
0100
,  // measure 69
0020
0000
0000
0000
0000
0000
0000
0000
1030
0001
1000
0000
0100
0000
0010
0000
,  // measure 70
0001
0000
0000
0001
0000
0000
1000
0000
0010
0000
0100
0000
0200
0000
0000
0000
,  // measure 71
0302
0000
0000
1003
0100
1000
1001
0000
,  // measure 72
0102
0000
0000
0000
0103
0010
1000
0100
,  // measure 73
0020
0030
0020
0030
0001
1000
0010
1000
,  // measure 74
0001
0002
0000
0013
0100
1000
0001
0000
,  // measure 75
0100
0200
0000
0301
0010
0100
0200
0000
,  // measure 76
4300
3001
0040
0130
2000
0000
3000
0000
,  // measure 77
0040
0030
0400
0301
1000
1000
0100
0100
,  // measure 78
4000
3001
0040
0130
0040
0031
4000
3001
,  // measure 79
0400
0310
0400
0301
4000
3001
4000
3100
,  // measure 80
0040
0031
4000
3010
0200
0000
0300
0000
,  // measure 81
0004
0013
0400
1300
0001
0000
0100
0010
,  // measure 82
1000
0000
0400
1300
0004
1003
0010
0400
,  // measure 83
0301
0000
4000
3400
0310
0001
4000
0000
,  // measure 84
3001
0000
0000
0000
,  // measure 85
0000
0000
0000
0000
,  // measure 86
0000
0000
0000
0000
,  // measure 87
000M
0000
0000
0000
;

//---------------dance-single - Benpai----------------
#NOTEDATA:;
#CHARTNAME:;
#STEPSTYPE:dance-single;
#DESCRIPTION:Benpai;
#CHARTSTYLE:;
#DIFFICULTY:Beginner;
#METER:2;
#RADARVALUES:0.080348,0.174981,0.111099,0.027775,0.000000,81.000000,65.000000,16.000000,4.000000,0.000000,0.000000,0.000000,0.000000,0.000000,0.080348,0.174981,0.111099,0.027775,0.000000,81.000000,65.000000,16.000000,4.000000,0.000000,0.000000,0.000000,0.000000,0.000000;
#CREDIT:Benpai;
#DISPLAYBPM:145.000000;
#NOTES:
// measure 0
0000
0000
0000
0000
,  // measure 1
0000
0000
0000
0000
,  // measure 2
0000
0000
0000
0000
,  // measure 3
0000
0000
0000
0000
,  // measure 4
0000
0000
0000
0000
,  // measure 5
0000
0000
0000
0000
,  // measure 6
0000
0000
0000
0000
,  // measure 7
0000
0000
0000
0000
,  // measure 8
0001
0000
0000
0000
,  // measure 9
0001
0000
0000
0000
,  // measure 10
1000
0000
0000
0000
,  // measure 11
1000
0000
0000
0000
,  // measure 12
0100
0000
0000
0000
,  // measure 13
0100
0000
0000
0000
,  // measure 14
0010
0000
0000
0000
,  // measure 15
0010
0000
0000
0000
,  // measure 16
0001
0000
0000
0000
,  // measure 17
1000
0000
0000
0000
,  // measure 18
0001
0000
0000
0000
,  // measure 19
1000
0000
0000
0000
,  // measure 20
0010
0000
0000
0000
,  // measure 21
0100
0000
0000
0000
,  // measure 22
0010
0000
0000
0000
,  // measure 23
0100
0000
0000
0000
,  // measure 24
1001
0000
0000
0000
,  // measure 25
0000
0000
0000
0000
,  // measure 26
1000
0000
0000
0000
,  // measure 27
1000
0000
0000
0000
,  // measure 28
0110
0000
0000
0000
,  // measure 29
0001
0000
0000
0000
,  // measure 30
1000
0000
0000
0000
,  // measure 31
0000
0000
0000
0000
,  // measure 32
0100
0000
0000
0000
,  // measure 33
0010
0000
0000
0000
,  // measure 34
0100
0000
0000
0000
,  // measure 35
0000
0000
0000
0000
,  // measure 36
1001
0000
0000
0000
,  // measure 37
1001
0000
0000
0000
,  // measure 38
0110
0000
0000
0000
,  // measure 39
0000
0000
0000
0000
,  // measure 40
1001
0000
0000
0000
,  // measure 41
1001
0000
0000
0000
,  // measure 42
0110
0000
0000
0000
,  // measure 43
0000
0000
0000
0000
,  // measure 44
1000
0000
0000
0000
,  // measure 45
1000
0000
0000
0000
,  // measure 46
0100
0000
0000
0000
,  // measure 47
0100
0000
0000
0000
,  // measure 48
1000
0000
0000
0000
,  // measure 49
1000
0000
0000
0000
,  // measure 50
0001
0000
0000
0000
,  // measure 51
0001
0000
0000
0000
,  // measure 52
0100
0000
0000
0000
,  // measure 53
0010
0000
0000
0000
,  // measure 54
0100
0000
0000
0000
,  // measure 55
0000
0000
0000
0000
,  // measure 56
0001
0000
0000
0000
,  // measure 57
1000
0000
0000
0000
,  // measure 58
0001
0000
0000
0000
,  // measure 59
0000
0000
0000
0000
,  // measure 60
1001
0000
0000
0000
,  // measure 61
1001
0000
0000
0000
,  // measure 62
0110
0000
0000
0000
,  // measure 63
0000
0000
0000
0000
,  // measure 64
1001
0000
0000
0000
,  // measure 65
1001
0000
0000
0000
,  // measure 66
0110
0000
0000
0000
,  // measure 67
0000
0000
0000
0000
,  // measure 68
2000
0000
3000
0000
,  // measure 69
0002
0000
0003
0000
,  // measure 70
1001
0000
0000
0000
,  // measure 71
0000
0000
0000
0000
,  // measure 72
2000
0000
3000
0000
,  // measure 73
0002
0000
0003
0000
,  // measure 74
1001
0000
0000
0000
,  // measure 75
0000
0000
0000
0000
,  // measure 76
0100
0000
0000
0000
,  // measure 77
0010
0000
0000
0000
,  // measure 78
0100
0000
0000
0000
,  // measure 79
0000
0000
0000
0000
,  // measure 80
0001
0000
0000
0000
,  // measure 81
1000
0000
0000
0000
,  // measure 82
0001
0000
0000
0000
,  // measure 83
1000
0000
0000
0000
,  // measure 84
1000
0000
0000
0000
;

//---------------dance-single - Benpai----------------
#NOTEDATA:;
#CHARTNAME:;
#STEPSTYPE:dance-single;
#DESCRIPTION:Benpai;
#CHARTSTYLE:;
#DIFFICULTY:Easy;
#METER:3;
#RADARVALUES:0.131930,0.233307,0.138873,0.020831,0.000000,133.000000,113.000000,20.000000,3.000000,0.000000,0.000000,0.000000,0.000000,0.000000,0.131930,0.233307,0.138873,0.020831,0.000000,133.000000,113.000000,20.000000,3.000000,0.000000,0.000000,0.000000,0.000000,0.000000;
#CREDIT:Benpai;
#DISPLAYBPM:145.000000;
#NOTES:
// measure 0
0000
0000
0000
0000
,  // measure 1
0000
0000
0000
0000
,  // measure 2
0000
0000
0000
0000
,  // measure 3
0000
0000
0000
0000
,  // measure 4
0000
0000
0000
0000
,  // measure 5
0000
0000
0000
0000
,  // measure 6
0000
0000
0000
0000
,  // measure 7
0000
0000
0000
0000
,  // measure 8
0001
0000
0000
0000
,  // measure 9
0010
0000
0000
0000
,  // measure 10
0001
0000
0000
1000
,  // measure 11
1000
0000
0000
1000
,  // measure 12
0010
0000
0000
0000
,  // measure 13
0100
0000
0000
0000
,  // measure 14
0001
0000
0000
0001
,  // measure 15
0001
0000
0000
1000
,  // measure 16
0001
0000
0000
1000
,  // measure 17
0010
0000
0000
0010
,  // measure 18
0100
0000
0000
0100
,  // measure 19
0001
0000
0000
1000
,  // measure 20
0100
0000
0000
1000
,  // measure 21
0010
0000
0000
0100
,  // measure 22
0010
0000
0000
1000
,  // measure 23
0001
0000
0000
1000
,  // measure 24
1001
0000
0000
0000
,  // measure 25
0001
0000
0000
0000
,  // measure 26
0010
0000
0000
1000
,  // measure 27
0100
0000
0000
0000
,  // measure 28
0110
0000
0000
0000
,  // measure 29
0001
0000
0000
0000
,  // measure 30
1000
0000
0000
0000
,  // measure 31
0000
0000
0000
0000
,  // measure 32
0100
0000
0000
0000
,  // measure 33
0010
0000
0000
0000
,  // measure 34
0100
0000
0000
0000
,  // measure 35
0000
0000
0000
0000
,  // measure 36
1001
0000
0001
0000
,  // measure 37
0011
0000
0100
0000
,  // measure 38
1100
0000
0000
0000
,  // measure 39
1100
0000
0000
0000
,  // measure 40
1001
0000
0010
0000
,  // measure 41
0110
0000
1000
0000
,  // measure 42
1010
0000
0000
0000
,  // measure 43
1010
0000
0000
0000
,  // measure 44
0001
0000
0010
0000
,  // measure 45
0001
0000
0010
0000
,  // measure 46
0100
0000
0010
0000
,  // measure 47
0100
0000
0010
0000
,  // measure 48
0001
0000
1000
0000
,  // measure 49
0001
0000
1000
0000
,  // measure 50
0100
0000
1000
0000
,  // measure 51
0100
0000
1000
0000
,  // measure 52
1001
0000
0000
0000
,  // measure 53
0010
0000
0000
0000
,  // measure 54
0100
0000
0000
0000
,  // measure 55
0000
0000
0000
0000
,  // measure 56
0001
0000
0000
0000
,  // measure 57
1000
0000
0000
0000
,  // measure 58
0001
0000
0000
0000
,  // measure 59
0000
0000
0000
0000
,  // measure 60
1001
0000
1000
0000
,  // measure 61
1010
0000
0010
0000
,  // measure 62
0101
0000
0000
0000
,  // measure 63
0101
0000
0000
0000
,  // measure 64
1001
0000
0100
0000
,  // measure 65
1010
0000
0001
0000
,  // measure 66
0110
0000
0000
0000
,  // measure 67
0000
0000
0000
0000
,  // measure 68
2000
0000
3001
0000
,  // measure 69
0002
0000
0103
0000
,  // measure 70
0010
0000
0000
0000
,  // measure 71
0100
0000
0000
0000
,  // measure 72
0002
0000
1003
0000
,  // measure 73
0100
0100
0100
0000
,  // measure 74
1001
0000
0000
0000
,  // measure 75
1001
0000
0000
0000
,  // measure 76
1000
0000
0000
0000
,  // measure 77
0010
0000
0010
0000
,  // measure 78
0100
0000
0100
0000
,  // measure 79
0001
0000
0001
0000
,  // measure 80
1000
0000
1000
0000
,  // measure 81
0100
0000
0100
0000
,  // measure 82
1000
0000
1000
0000
,  // measure 83
0001
0000
0001
0000
,  // measure 84
0010
0000
0000
0000
;

//---------------dance-single - Benpai----------------
#NOTEDATA:;
#CHARTNAME:;
#STEPSTYPE:dance-single;
#DESCRIPTION:Benpai;
#CHARTSTYLE:;
#DIFFICULTY:Medium;
#METER:5;
#RADARVALUES:0.267827,0.271845,0.020831,0.236085,0.000000,270.000000,267.000000,3.000000,34.000000,4.000000,0.000000,21.000000,0.000000,0.000000,0.267827,0.271845,0.020831,0.236085,0.000000,270.000000,267.000000,3.000000,34.000000,4.000000,0.000000,21.000000,0.000000,0.000000;
#CREDIT:Benpai;
#DISPLAYBPM:145.000000;
#NOTES:
// measure 0
0000
0000
0000
0000
,  // measure 1
0000
0000
0000
0000
,  // measure 2
0000
0000
0000
0000
,  // measure 3
0000
0000
0000
0000
,  // measure 4
0000
0000
0000
0000
,  // measure 5
0000
0000
0000
0000
,  // measure 6
0000
0000
0000
0000
,  // measure 7
0000
0000
0000
0000
,  // measure 8
1000
0000
0000
1000
0000
0000
1000
0000
,  // measure 9
0010
0000
0000
0010
0000
0000
0010
0000
,  // measure 10
0100
0000
0000
0100
0000
0000
0100
0000
,  // measure 11
0001
0000
0000
0001
0000
0000
0001
0000
,  // measure 12
1000
0000
0000
1000
0000
0000
1000
0000
,  // measure 13
0100
0000
0000
0100
0000
0000
0100
0000
,  // measure 14
0010
0000
M000
0010
0000
0000
0010
0000
,  // measure 15
0001
0000
0000
0001
0000
0000
0001
0000
,  // measure 16
0100
0010
1000
0100
,  // measure 17
0010
0100
0010
0001
,  // measure 18
0100
0000
0000
0100
0000
0000
0100
0000
,  // measure 19
0010
0000
0000
0010
0000
0000
0010
0000
,  // measure 20
1000
0001
1000
0100
,  // measure 21
0010
0100
1000
0001
,  // measure 22
0100
0000
0000
0100
0000
0000
0100
0000
,  // measure 23
0001
0000
0000
0001
4000
0000
3100
0000
,  // measure 24
0020
0000
0000
0000
,  // measure 25
0032
0000
0000
0000
,  // measure 26
1003
0000
0000
1000
0000
0000
1000
0000
,  // measure 27
0001
0000
0000
0001
0000
0000
0001
0000
,  // measure 28
1002
0000
0000
0000
,  // measure 29
0103
0001
0010
0100
,  // measure 30
1000
0001
0100
0001
,  // measure 31
1000
0100
0010
0100
,  // measure 32
1000
0001
1000
0100
,  // measure 33
0010
0001
1000
0010
,  // measure 34
0100
0010
1000
0001
,  // measure 35
1000
0100
0010
0000
,  // measure 36
1002
0000
0013
0100
,  // measure 37
2000
0000
3001
1000
,  // measure 38
0020
0000
0000
0130
0001
0000
0001
0000
,  // measure 39
2000
0000
0000
3100
0010
0000
0100
0000
,  // measure 40
2000
0000
3001
0100
,  // measure 41
0020
0030
0020
0000
1030
0000
0001
0000
,  // measure 42
0200
0000
0000
0301
1000
0000
1000
0000
,  // measure 43
0200
0000
0000
1300
0001
0000
0001
0000
,  // measure 44
0100
0010
100M
0001
,  // measure 45
1000
0100
0010
0100
,  // measure 46
1000
0001
0100
0001
,  // measure 47
1000
0010
0100
0010
,  // measure 48
1000
0100
001M
0001
,  // measure 49
0100
0001
1000
0010
,  // measure 50
0100
0010
1000
0100
,  // measure 51
0010
0001
0010
0100
,  // measure 52
2000
0000
0000
0000
,  // measure 53
3010
0100
0001
0100
,  // measure 54
0010
1000
0010
1000
,  // measure 55
0001
1000
0100
0010
,  // measure 56
0100
1000
0010
0100
,  // measure 57
0001
1000
0100
0010
,  // measure 58
0001
0100
0010
0100
,  // measure 59
0001
1000
0100
0000
,  // measure 60
2001
0000
3100
0010
,  // measure 61
0002
0000
1003
0001
,  // measure 62
0200
0000
0000
0310
1000
0000
1000
0000
,  // measure 63
0002
0000
0000
0013
0100
0000
0010
0000
,  // measure 64
0002
0000
1003
0010
,  // measure 65
0200
0300
0200
0000
0301
0000
1000
0000
,  // measure 66
0020
0000
0000
1030
0001
0000
0001
0000
,  // measure 67
0020
0000
0000
0031
1000
0000
1000
0000
,  // measure 68
0200
0000
0310
0001
,  // measure 69
0200
0000
0310
1000
,  // measure 70
0002
0000
0000
1003
0100
0000
0100
0000
,  // measure 71
2000
0000
0000
3001
0010
0000
0010
0000
,  // measure 72
0200
0000
1300
0001
,  // measure 73
0200
0300
0020
0030
1000
0000
0001
0000
,  // measure 74
0020
0000
0000
0130
1000
0000
1000
0000
,  // measure 75
0002
0000
0000
0103
0010
0000
0200
0000
,  // measure 76
0304
0003
0040
0030
0200
0000
0300
0000
,  // measure 77
0040
0030
0004
0003
1000
0000
1000
0000
,  // measure 78
0040
0030
0400
0300
0040
0030
4000
3000
,  // measure 79
0400
0300
4000
3000
0004
0003
4000
3000
,  // measure 80
0040
0030
0400
0300
0002
0000
0003
0000
,  // measure 81
4000
3000
0004
0003
0010
0000
0100
0000
,  // measure 82
1000
0000
0400
0300
4000
3000
0010
0000
,  // measure 83
0100
0000
0004
0003
0010
0000
0004
0003
,  // measure 84
1000
0000
0000
0000
,  // measure 85
0000
0000
0000
0000
,  // measure 86
0000
0000
0000
0000
,  // measure 87
000M
0000
0000
0000
;
