#VERSION:0.83;
#TITLE:Across the Ocean;
#SUBTITLE:;
#ARTIST:zircon;
#TITLETRANSLIT:;
#SUBTITLETRANSLIT:;
#ARTISTTRANSLIT:;
#GENRE:;
#ORIGIN:;
#CREDIT:Loodee;
#BANNER:Across the Ocean-bn.png;
#BACKGROUND:Across the Ocean-bg-wide.png;
#PREVIEWVID:;
#JACKET:Across the Ocean-jacket.png;
#CDIMAGE:;
#DISCIMAGE:;
#LYRICSPATH:;
#CDTITLE:loodeecdtitle.png;
#MUSIC:Across the Ocean.ogg;
#OFFSET:0.005000;
#SAMPLESTART:97.849998;
#SAMPLELENGTH:22.000000;
#SELECTABLE:YES;
#DISPLAYBPM:130.000000;
#BPMS:0.000=130.000,
45.000=195.000,
46.000=130.000,
49.000=195.000,
49.750=130.000,
56.500=195.000,
57.500=130.000,
58.000=195.000,
58.500=130.000,
61.000=195.000,
62.000=130.000,
64.000=195.000,
66.000=130.000,
68.500=195.000,
71.500=130.000,
77.000=195.000,
78.000=130.000,
81.000=195.000,
81.750=130.000,
88.500=195.000,
89.500=130.000,
96.000=195.000,
98.000=130.000,
100.500=195.000,
103.750=130.000,
106.000=195.000,
107.000=130.000,
107.500=195.000,
109.000=130.000,
109.500=195.000,
110.000=130.000,
110.500=195.000,
111.000=130.000,
114.500=195.000,
117.000=130.000,
117.750=195.000,
117.875=130.000,
120.500=195.000,
120.750=130.000,
121.500=195.000,
121.750=130.000,
123.500=195.000,
124.750=130.000,
125.000=195.000,
126.500=130.000,
208.000=195.000,
212.000=130.000,
217.000=195.000,
218.000=130.000,
221.000=195.000,
221.750=130.000,
228.500=195.000,
229.500=130.000,
230.000=195.000,
230.500=130.000,
233.000=195.000,
234.000=130.000,
236.000=195.000,
238.000=130.000,
240.500=195.000,
243.500=130.000,
249.000=195.000,
250.000=130.000,
253.000=195.000,
253.750=130.000,
260.500=195.000,
261.500=130.000,
268.000=195.000,
270.000=130.000;
#STOPS:45.000=0.019,
45.125=0.019,
45.250=0.019,
45.375=0.019,
45.500=0.039,
45.750=0.039,
49.000=0.038,
49.250=0.039,
49.500=0.038,
56.500=0.077,
57.000=0.038,
57.250=0.039,
58.000=0.077,
61.000=0.077,
61.500=0.076,
64.000=0.038,
64.250=0.039,
64.500=0.038,
64.750=0.077,
65.250=0.039,
65.500=0.077,
68.500=0.038,
68.750=0.077,
69.250=0.038,
69.500=0.039,
69.750=0.038,
70.000=0.077,
70.500=0.039,
70.750=0.038,
71.000=0.039,
71.250=0.038,
77.000=0.019,
77.125=0.019,
77.250=0.019,
77.375=0.019,
77.500=0.039,
77.750=0.039,
81.000=0.038,
81.250=0.039,
81.500=0.038,
88.500=0.077,
89.000=0.038,
89.250=0.039,
96.000=0.038,
96.250=0.039,
96.500=0.038,
96.750=0.077,
97.250=0.039,
97.500=0.077,
100.500=0.038,
100.750=0.077,
101.250=0.039,
101.500=0.038,
101.750=0.039,
102.000=0.077,
102.500=0.038,
102.750=0.038,
103.000=0.039,
103.250=0.038,
103.500=0.039,
106.000=0.077,
106.500=0.077,
107.500=0.038,
107.750=0.039,
108.000=0.077,
108.500=0.077,
109.500=0.077,
110.500=0.077,
114.500=0.077,
115.000=0.076,
115.500=0.019,
115.625=0.019,
115.750=0.019,
115.875=0.019,
116.000=0.039,
116.250=0.039,
116.500=0.077,
117.750=0.020,
120.500=0.038,
121.500=0.039,
123.500=0.038,
123.750=0.077,
124.250=0.077,
125.000=0.077,
125.500=0.076,
126.000=0.077,
208.000=0.154,
209.000=0.155,
210.000=0.153,
211.000=0.154,
217.000=0.019,
217.125=0.019,
217.250=0.019,
217.375=0.019,
217.500=0.039,
217.750=0.039,
221.000=0.038,
221.250=0.039,
221.500=0.038,
228.500=0.077,
229.000=0.038,
229.250=0.039,
230.000=0.077,
233.000=0.077,
233.500=0.076,
236.000=0.038,
236.250=0.039,
236.500=0.038,
236.750=0.077,
237.250=0.039,
237.500=0.077,
240.500=0.038,
240.750=0.077,
241.250=0.039,
241.500=0.038,
241.750=0.039,
242.000=0.077,
242.500=0.038,
242.750=0.039,
243.000=0.038,
243.250=0.039,
249.000=0.019,
249.125=0.019,
249.250=0.019,
249.375=0.019,
249.500=0.039,
249.750=0.039,
253.000=0.038,
253.250=0.039,
253.500=0.038,
260.500=0.077,
261.000=0.038,
261.250=0.038,
268.000=0.038,
268.250=0.039,
268.500=0.038,
268.750=0.077,
269.250=0.039,
269.500=0.077;
#DELAYS:;
#WARPS:;
#TIMESIGNATURES:0.000=4=4;
#TICKCOUNTS:0.000=4;
#COMBOS:0.000=1;
#SPEEDS:0.000=1.000=0.000=0;
#SCROLLS:0.000=1.000;
#FAKES:;
#LABELS:0.000=Song Start;
#BGCHANGES:;
#KEYSOUNDS:;
#ATTACKS:
;

//---------------dance-single - Loodee----------------
#NOTEDATA:;
#CHARTNAME:Loodee;
#STEPSTYPE:dance-single;
#DESCRIPTION:Loodee;
#CHARTSTYLE:;
#DIFFICULTY:Challenge;
#METER:11;
#RADARVALUES:0.711824,0.973770,0.244553,0.473821,0.813903,652.000000,620.000000,32.000000,62.000000,12.000000,0.000000,2.000000,0.000000,0.000000,0.711824,0.973770,0.244553,0.473821,0.813903,652.000000,620.000000,32.000000,62.000000,12.000000,0.000000,2.000000,0.000000,0.000000;
#CREDIT:Loodee;
#DISPLAYBPM:130.000000;
#NOTES:
// measure 0
0000
0000
0000
0000
,  // measure 1
0000
0000
0000
0000
,  // measure 2
0000
0000
0000
0000
,  // measure 3
0000
0000
0000
0000
,  // measure 4
1002
0000
0000
0003
0100
0000
0001
0000
0010
0000
0100
0000
1000
0000
0020
0000
,  // measure 5
0130
0010
0000
1000
0001
1000
0100
0010
,  // measure 6
0200
1300
0001
1000
0010
0100
0001
0020
,  // measure 7
0100
0000
0000
0030
1100
0000
0100
0000
2000
0000
0000
3000
1010
0000
0020
0000
,  // measure 8
0100
0000
0000
0030
0101
0000
0002
0000
0010
0000
0000
0003
0110
0000
0200
0000
,  // measure 9
1300
0001
0000
0001
1000
0100
0010
0001
1000
0010
0000
0010
0100
0001
1000
0001
,  // measure 10
0010
0000
0100
0000
4100
0000
0000
0000
3001
0001
0200
0000
0310
0000
0100
0000
,  // measure 11
0002
0000
0000
0000
0000
0000
0000
0000
0000
0000
0000
0000
0000
0000
0000
0000
0000
0000
0000
0000
0000
0000
0000
0000
0023
0000
0000
0000
0000
0000
0000
0000
0000
0000
0000
0000
0000
0000
0000
0000
0000
0000
0000
0000
0000
0000
0000
0000
0031
0000
0000
0000
0000
0000
1000
0000
0000
0000
0000
0000
0001
0000
0000
0000
0000
0000
1000
0000
0000
0000
0000
0000
0001
0000
0000
0000
0000
0000
0000
0000
0000
0000
0000
0000
1000
0000
0000
0000
0000
0000
0000
0000
0000
0000
0000
0000
0010
0000
0000
0000
0000
0000
0000
0000
0100
0000
0000
0000
0000
0000
0000
0000
0001
0000
0000
0000
0000
0000
0000
0000
1000
0000
0000
0000
0000
0000
0000
0000
0100
0000
0000
0000
0000
0000
0000
0000
0010
0000
0000
0000
0000
0000
0000
0000
0001
0000
0000
0000
0000
0000
0000
0000
1000
0000
0000
0000
0000
0000
0000
0000
0010
0000
0000
0000
0000
0000
0000
0000
1000
0000
0000
0000
0000
0000
0000
0000
0001
0000
0000
0000
0000
0000
0000
0000
0010
0000
0000
0000
0000
0000
0000
0000
,  // measure 12
0200
0000
1300
0000
0001
0001
0100
0000
0010
0000
1000
0000
1000
0000
0100
0000
,  // measure 13
0010
0001
0010
0001
1000
0010
1000
0010
0100
0001
0100
0010
1000
0100
0010
0100
,  // measure 14
2000
0000
3001
0000
0010
0010
0100
0000
0002
0000
0103
1000
0001
0000
2000
0000
,  // measure 15
3010
0000
0000
0100
0000
0000
0101
0000
0000
0001
0000
0000
1000
0001
0010
0001
1000
0001
0010
0100
1000
0010
0100
0001
,  // measure 16
1000
0010
0100
0010
0000
1000
0001
0000
0010
0000
0001
0000
0101
0000
0100
0000
,  // measure 17
0010
0000
1000
0010
0000
0010
0100
0010
0001
0000
0010
0100
0001
1000
0001
1000
,  // measure 18
0100
0000
0010
0000
0011
0000
0001
1000
0010
0000
0100
0000
0001
0000
0020
0000
,  // measure 19
0100
0000
0000
0000
0031
0000
0000
0000
1000
0010
1000
0010
1000
0000
0001
0000
0010
0000
0000
0000
0100
0000
1000
0000
0100
0000
0010
0000
0001
0000
0000
0000
,  // measure 20
0100
0000
0000
0000
0010
0000
0000
0000
1000
0000
0000
0000
0010
0000
0000
0010
0000
0000
0100
0000
0000
0000
0000
0000
0002
0000
0000
0000
0000
0000
0023
0000
0000
0000
0000
0000
0130
0000
0000
0000
0000
0000
1000
0000
0000
0000
0000
0000
,  // measure 21
0010
0100
0010
0100
0001
1000
0100
1000
0100
0010
0001
0100
0010
1000
0001
0010
,  // measure 22
0001
0000
0100
0000
0010
0010
1000
0000
0001
0000
0010
0100
1000
0000
0010
0000
,  // measure 23
0200
0000
0000
0300
1001
0000
0002
0000
0013
0100
0000
0000
1100
0000
1000
0001
,  // measure 24
0010
0100
0010
0001
0000
1000
0010
0000
0100
0000
0001
0000
0011
0000
0020
0000
,  // measure 25
0000
0000
0130
1000
0000
0010
1000
0100
0010
0000
0010
0100
1000
0001
1000
0000
,  // measure 26
1010
0000
0000
0000
0101
0000
0001
0000
0010
0000
0010
0000
0001
0000
0100
0010
,  // measure 27
0100
0001
1000
0100
1000
0010
1000
0100
,  // measure 28
0010
0000
0000
0000
0001
0000
0000
0000
0011
0000
0000
0000
0000
0000
0000
0000
0010
0000
0000
0000
0001
0000
0000
0000
1000
0000
0000
0000
0001
0100
0001
0100
,  // measure 29
0001
0000
0000
1000
0000
0000
0001
0000
0000
0000
0000
0000
0010
0000
0000
0000
0000
0000
0100
0000
0000
1000
0000
0000
0001
0000
1000
0000
0010
0000
1000
0000
0001
0000
0100
0000
0001
0000
1000
0000
0100
0000
0010
0000
0001
0000
0010
0000
,  // measure 30
0100
0000
1000
0000
1001
0000
0001
0000
0100
0000
0000
0000
0001
0000
1000
0100
,  // measure 31
0000
0100
0000
0000
1000
0000
0001
0000
0100
0000
0000
0000
0110
0000
0020
0000
,  // measure 32
0000
0000
0000
1030
0001
1000
0100
0010
,  // measure 33
0000
0100
0000
1000
0010
0100
0001
0010
,  // measure 34
0011
0000
0000
1000
0010
1000
0100
1000
,  // measure 35
0002
0000
0000
0000
,  // measure 36
0003
0000
0000
0100
0010
0100
0001
1000
,  // measure 37
0200
0000
0000
0000
,  // measure 38
0300
0000
0000
0010
0100
1000
0010
1000
,  // measure 39
0002
0000
0000
0000
,  // measure 40
0003
0000
0100
0010
1000
0001
0010
0200
,  // measure 41
0000
0000
0000
0000
0000
0000
0000
0000
0000
0000
0000
0000
0000
0000
0000
0000
0000
0000
1300
0000
0000
0001
0000
0000
1000
0000
0000
0010
0000
0000
0100
0000
0000
0001
0000
1000
0001
0000
0000
0010
0000
0000
0100
0000
0000
1000
0000
0000
,  // measure 42
1200
0000
0000
0000
0320
0032
2003
3002
,  // measure 43
0000
0000
0000
0003
,  // measure 44
2010
0000
0000
0000
0000
0000
0000
0000
0000
0000
0000
0000
0000
0000
0000
0000
0000
0000
0000
0000
0000
3000
0001
0000
0020
0000
0000
0000
0000
0000
0230
0000
0000
0000
0000
0000
0320
0000
0000
0000
0000
0000
0032
0000
0000
0000
0000
0000
,  // measure 45
0000
0000
1003
0020
0000
0000
0000
0000
0000
0000
0000
0000
0000
0030
0100
0001
,  // measure 46
0020
0000
0000
0000
0230
0320
0230
2300
,  // measure 47
0000
0000
0000
0000
3020
0000
0000
0000
0000
0000
0230
0000
0000
0000
0000
0300
,  // measure 48
1002
0000
0000
0003
2000
3200
0320
0031
,  // measure 49
1000
0010
1000
0010
0100
0001
0100
0001
1000
0100
1000
0100
0010
0001
0010
0001
,  // measure 50
1000
0010
0100
0001
1000
0100
0010
0001
0010
0100
1000
0010
0100
0001
1000
0010
,  // measure 51
1000
0000
0000
0100
0000
0000
0010
0000
0000
0001
0000
0000
0010
0000
0000
0001
0000
0000
0100
0000
0000
0001
0000
0000
1000
0000
0001
0000
1000
0000
0001
0000
1000
0000
0001
0000
1000
0000
0001
0000
1000
0000
0001
0000
1000
0000
0001
0000
,  // measure 52
0100
0110
0110
0110
,  // measure 53
1001
0000
0000
0000
0001
0000
0000
0000
0041
0000
0000
0000
0000
0000
0000
0000
0130
M00M
0100
0000
0002
0000
0000
0000
1003
0000
0000
0000
0010
0000
0000
0000
,  // measure 54
0200
0000
0000
0000
0000
0000
0000
0000
0000
0000
0000
0000
0000
0000
0000
0000
0000
0000
0000
0000
0000
0000
0000
0000
0302
0000
0000
0000
0000
0000
0000
0000
0000
0000
0000
0000
0000
0000
0000
0000
0000
0000
0000
0000
0000
0000
0000
0000
1003
0000
0000
0000
0000
0000
0010
0000
0000
0000
0000
0000
1000
0000
0000
0000
0000
0000
0010
0000
0000
0000
0000
0000
1000
0000
0000
0000
0000
0000
0000
0000
0000
0000
0000
0000
0001
0000
0000
0000
0000
0000
0000
0000
0000
0000
0000
0000
0010
0000
0000
0000
0000
0000
0000
0000
0100
0000
0000
0000
0000
0000
0000
0000
1000
0000
0000
0000
0000
0000
0000
0000
0100
0000
0000
0000
0000
0000
0000
0000
0010
0000
0000
0000
0000
0000
0000
0000
0001
0000
0000
0000
0000
0000
0000
0000
1000
0000
0000
0000
0000
0000
0000
0000
0010
0000
0000
0000
0000
0000
0000
0000
0100
0000
0000
0000
0000
0000
0000
0000
0010
0000
0000
0000
0000
0000
0000
0000
1000
0000
0000
0000
0000
0000
0000
0000
0001
0000
0000
0000
0000
0000
0000
0000
,  // measure 55
0020
0000
0000
0000
0031
0000
0000
0000
0100
M00M
0100
0000
1000
0000
0000
0000
0001
0000
0000
0000
0010
0000
M00M
0000
0010
0000
0000
0000
0100
0000
0000
0000
,  // measure 56
0001
1000
0001
1000
0010
0100
0001
1000
0100
0010
0001
1000
0100
0010
0100
1000
,  // measure 57
0002
0000
0000
0000
0103
0000
0000
0000
0010
M00M
0010
0000
0001
0000
0000
0000
2000
0000
0000
0000
3100
0000
1000
0000
0001
0000
0000
0000
0200
0000
0000
0000
,  // measure 58
0310
0000
0000
1000
0000
0000
1100
0000
0000
0100
0000
0000
0010
0001
0010
0100
1000
0001
1000
0010
0100
0001
1000
0001
,  // measure 59
1000
0100
0010
0100
0000
0010
1000
0000
0010
0000
0001
0000
0101
0000
0100
0000
,  // measure 60
0001
0000
0010
0100
0000
0100
1000
0100
0001
0000
0100
0010
0001
0010
0001
1000
,  // measure 61
0010
0000
0100
0000
0110
0000
0010
1000
0001
0000
0010
0000
0100
0000
0200
0000
,  // measure 62
1000
0000
0000
0000
0310
0000
0000
0000
0001
0010
0001
0010
0001
0000
1000
0000
0010
0000
0000
0000
0100
0000
0010
0000
1000
0000
0001
0000
0010
0000
0000
0000
,  // measure 63
0001
0000
0000
0000
0000
0000
0000
0000
0000
0000
0000
0000
0000
0000
0000
0000
1000
0000
0000
0000
0000
0000
0000
0000
0000
0000
0000
0000
0000
0000
0000
0000
0001
0000
0000
0000
0000
0000
0000
0000
0000
0000
0000
0000
0000
0000
0000
0000
0100
0000
0000
0000
0000
0000
M00M
0000
0000
0000
0000
0000
0100
0000
0000
0000
0000
0000
0000
0000
0000
0000
0000
0000
0010
0000
0000
0000
0000
0000
0000
0000
0000
0000
0000
0000
0000
0000
0000
0000
0000
0000
0000
0000
0000
0000
0000
0000
0200
0000
0000
0000
0000
0000
0000
0000
0000
0000
0000
0000
0000
0000
0000
0000
0000
0000
0000
0000
0000
0000
0000
0000
2300
0000
0000
0000
0000
0000
0000
0000
0000
0000
0000
0000
0000
0000
0000
0000
0000
0000
0000
0000
0000
0000
0000
0000
3020
0000
0000
0000
0000
0000
0000
0000
0000
0000
0000
0000
0000
0000
0000
0000
0000
0000
0000
0000
0000
0000
0000
0000
0130
0000
0000
0000
0000
0000
0000
0000
0000
0000
0000
0000
0000
0000
0000
0000
0000
0000
0000
0000
0000
0000
0000
0000
,  // measure 64
0001
0000
0000
0100
0000
0000
0001
0000
0000
0100
0000
0000
0010
0000
0000
1000
0000
0000
0100
0000
0000
1000
0000
0000
0001
0000
0010
0000
0001
0000
1000
0000
0010
0000
0100
0000
0001
0000
1000
0000
0001
0000
0010
0000
0100
0000
1000
0000
,  // measure 65
0010
0000
0000
0000
0100
0000
0000
0000
0010
M00M
0010
0000
0001
0000
0000
0000
0010
0000
0000
0000
0100
0000
1000
0000
0001
0000
0000
0000
1000
0000
0000
0000
,  // measure 66
0020
0000
0000
0030
0110
0000
0200
0000
0310
1000
0000
0000
1010
0000
0010
0100
,  // measure 67
0001
0010
0100
1000
0000
1000
0100
0000
0010
0000
0100
0000
1100
0000
2000
0000
,  // measure 68
0000
0000
3001
0100
0000
0100
0010
0100
1000
0000
0100
0001
0010
0100
0010
0000
;

//---------------dance-single - Loodee----------------
#NOTEDATA:;
#CHARTNAME:Loodee;
#STEPSTYPE:dance-single;
#DESCRIPTION:Loodee;
#CHARTSTYLE:;
#DIFFICULTY:Hard;
#METER:8;
#RADARVALUES:0.442161,0.500044,0.091707,0.557886,0.179594,405.000000,393.000000,12.000000,73.000000,0.000000,0.000000,1.000000,0.000000,0.000000,0.442161,0.500044,0.091707,0.557886,0.179594,405.000000,393.000000,12.000000,73.000000,0.000000,0.000000,1.000000,0.000000,0.000000;
#CREDIT:Loodee;
#DISPLAYBPM:130.000000;
#NOTES:
0000
0000
0000
0000
,
0000
0000
0000
0000
,
0000
0000
0000
0000
,
0000
0000
0000
0000
,
0002
0000
0013
0100
1000
0001
1000
0020
,
0000
1030
0000
0001
1000
0100
0010
0001
,
0200
0000
0310
1000
0001
1000
0100
0020
,
0000
0000
0031
2000
0000
0000
3001
0200
,
0000
0000
0301
0020
0000
0000
0130
2000
,
0001
0000
0000
0000
0001
0000
0000
3000
,
1001
0000
0001
0000
0200
0000
0000
0000
0310
1000
0010
0000
0100
0000
0001
0000
,
2000
0000
0000
0000
3100
0010
0100
0010
0002
0000
0000
0000
0203
0000
0000
0000
,
0310
0000
1000
0000
0001
1000
0001
0000
0010
0000
0100
0000
0100
0000
0010
0000
,
0020
0000
0000
0001
0000
0000
0031
0000
1000
0000
0010
0000
0100
0000
0001
0000
,
0010
0000
0100
0000
1000
0100
1000
0000
0001
0000
0000
0100
0000
0000
0010
0000
,
0100
0000
0001
0000
1001
0000
1000
0000
0000
1000
0000
0000
1000
0000
0000
0000
,
0100
1000
0001
1000
0000
0000
0010
0000
0000
0000
0100
0000
0001
0000
0010
0000
,
0000
0000
0100
1000
0000
0000
0001
0000
1000
0000
0001
0100
0001
0100
0001
0000
,
0010
0100
1000
0001
0200
0320
0230
0302
,
0000
0000
0000
0000
1003
0100
1000
0100
0020
0000
0230
0000
2300
0000
3020
0000
,
0000
0000
0100
0000
0230
0302
0013
0200
,
1300
0000
0000
1000
0000
0000
1000
0000
0002
0000
0000
0000
0203
0000
0000
0000
,
0310
0000
1000
0000
0001
0010
0001
0000
2000
0000
3020
0000
0230
0000
0302
0000
,
0000
0000
0000
0000
1003
0000
0100
0000
0000
0100
0000
0000
0100
0000
0000
0000
,
0010
0001
1000
0001
0000
0000
0100
0000
0000
0000
0010
0000
0100
0000
0020
0000
,
1000
0000
0000
0000
1030
0000
0100
0000
0010
0000
0010
0000
0001
1000
0001
0000
,
0100
0000
0000
0000
0101
0000
0000
0000
0001
0000
0001
0000
1000
0000
0100
0010
,
0100
1000
0001
0100
0001
1000
0001
0000
,
0010
0000
0100
0000
1100
0000
0000
0000
1000
0000
0001
0000
0100
0000
0001
0100
,
0001
1000
0100
0010
0002
0000
1000
0000
,
0103
0000
0110
0000
0010
1000
0001
0010
,
0000
0010
0000
0000
0010
0000
0100
0000
1000
0000
0000
0000
0010
0000
0200
0000
,
0000
0000
0000
0302
0000
0000
1003
0100
,
0000
0010
0000
0001
0100
0010
1000
0001
,
1001
0000
0000
0001
1000
0001
0100
0001
,
0010
0000
0000
0000
,
0000
0000
0000
0100
1000
0100
0010
0100
,
1000
0000
0000
0000
,
0000
0000
0000
0010
1000
0010
0100
0001
,
0010
0000
0000
0000
,
0000
0000
0001
0100
0010
1000
0001
0010
,
0000
0000
0000
0000
0000
0000
0010
0100
0010
0000
0000
0000
0010
0000
0000
0000
,
0012
0000
1000
0000
1003
0001
0100
0020
,
1000
1000
1000
1030
,
0002
0000
0010
0000
0013
0100
1000
0020
,
0000
0000
1030
0002
0000
0000
0000
0000
0100
0000
0000
0000
0103
0000
0010
0000
,
2000
0000
0100
0000
3100
0010
0001
0020
,
0000
0000
0032
0000
0000
0203
0000
0000
,
0320
0000
0000
0030
1000
0100
0000
0020
,
0000
0230
0000
1300
0002
0000
1003
0200
,
0010
0000
0310
0002
1000
0000
1003
0020
,
0100
0100
0430
0000
,
0301
1001
1001
1001
,
1001
0000
1000
0000
0200
0000
0000
0000
0310
0001
0010
0000
0100
0000
1000
0000
,
0020
0000
0000
0000
0130
0001
0100
0001
2000
0000
0000
0000
3020
0000
0000
0000
,
0130
0000
0001
0000
0010
0100
0010
0000
0001
0000
1000
0000
1000
0000
0010
0000
,
0020
0000
0000
0100
0000
0000
0130
0000
0001
0000
0010
0000
0100
0000
1000
0000
,
0100
0000
0010
0000
0001
1000
0001
0000
0100
0000
0000
0010
0000
0000
1000
0000
,
0001
0000
0010
0000
0110
0000
0100
0000
0000
0100
0000
0000
0100
0000
0000
0000
,
1000
0010
0100
0001
0000
0000
0010
0000
0000
0000
0100
0000
1000
0000
0010
0000
,
0000
0000
0100
0001
0000
0000
0001
0000
1000
0000
0100
0010
0100
0010
0100
0000
,
1000
0001
0100
0010
2000
3020
0230
0302
,
0000
0000
0000
0000
0013
0100
0010
0100
2000
0000
3002
0000
0203
0000
0320
0000
,
0000
0000
0100
0000
0230
0302
0013
0200
,
0310
0000
0000
0010
0000
0000
0010
0000
0002
0000
0000
0000
2003
0000
0000
0000
,
3100
0000
1000
0000
0001
0100
0001
0000
2000
0000
3002
0000
0203
0000
0320
0000
,
0000
0000
0000
0000
1030
0000
0100
0000
0000
0100
0000
0000
0100
0000
0000
0000
,
1000
0100
0010
0001
0000
0000
0100
0000
0000
0000
0001
0000
0100
0000
0002
0000
,
0010
0000
0000
0000
0013
0000
0100
0000
1000
0000
1000
0000
0100
0010
0100
0000
;

//---------------dance-single - Loodee----------------
#NOTEDATA:;
#CHARTNAME:Loodee;
#STEPSTYPE:dance-single;
#DESCRIPTION:Loodee;
#CHARTSTYLE:;
#DIFFICULTY:Medium;
#METER:6;
#RADARVALUES:0.352637,0.421090,0.030569,0.405041,0.026748,323.000000,319.000000,4.000000,53.000000,0.000000,0.000000,2.000000,0.000000,0.000000,0.352637,0.421090,0.030569,0.405041,0.026748,323.000000,319.000000,4.000000,53.000000,0.000000,0.000000,2.000000,0.000000,0.000000;
#CREDIT:Loodee;
#DISPLAYBPM:130.000000;
#NOTES:
0000
0000
0000
0000
,
0000
0000
0000
0000
,
0000
0000
0000
0000
,
0000
0000
0000
0000
,
0002
0000
1003
0010
1000
0001
0010
0200
,
0000
1300
0000
1000
0001
0100
0010
1000
,
0002
0000
0013
0100
1000
0100
0010
0002
,
0000
0000
1003
0020
0000
0000
0130
0002
,
0000
0000
0013
0200
0000
0000
1300
0040
,
0000
0000
0000
0000
,
0130
0001
2000
0000
3100
0010
0001
0010
,
0200
0000
0310
0010
0001
1000
0010
0100
,
0020
0030
0100
1000
0000
0100
0100
0001
,
0001
0000
0000
1000
0000
0000
0001
0000
0010
0000
0100
0000
1000
0000
0001
0000
,
0100
0010
1000
0000
0002
0013
0000
0100
,
0010
0000
0001
0000
1000
0000
0010
0000
0000
0100
0000
0000
0010
0000
0000
0000
,
1000
0100
0010
1000
0000
0010
0001
0200
,
0000
0010
0300
0010
1000
0001
1000
0001
,
0010
0100
2000
0000
3010
0100
0001
0020
,
0000
0000
0000
0000
0031
0100
0010
0002
,
0000
0000
0000
0000
0013
0100
0010
2000
,
0001
0000
0000
0001
0000
0000
3001
0000
0010
0000
0100
0000
1000
0000
0100
0000
,
0020
0000
0001
0000
0031
1000
0010
0200
,
0000
0000
0000
0000
0000
0301
0000
0020
,
0000
0000
0000
0000
0000
0130
0100
0002
,
0000
0000
0000
0000
0103
1000
0100
1000
,
0001
0000
0101
0000
0100
0100
0010
1000
,
0001
0010
0001
1000
0001
0100
0001
0000
,
1000
0000
1100
0000
0100
0010
0001
1000
,
0010
0010
0100
0000
0001
0100
0010
1000
,
0001
0010
0001
0010
0001
0000
1001
0000
,
1000
0010
0100
0001
1000
0000
0100
0020
,
0000
0000
0000
0031
1000
0100
0010
0001
,
0000
0100
0000
0001
1000
0100
1000
0001
,
0010
0000
0000
0001
1000
0001
0100
0001
,
0020
0000
0000
0000
,
0030
0000
0000
0100
1000
0100
0010
0100
,
2000
0000
0000
0000
,
3000
0000
0000
0010
0100
0010
1000
0001
,
0020
0000
0000
0000
,
0030
0000
0100
0010
0001
1000
0010
0200
,
0000
0000
0001
0301
,
2001
0000
0000
0000
3100
0010
0001
0200
,
0010
0000
0000
0000
0010
0000
0000
0300
,
0002
0000
0000
0000
0013
0100
1000
0200
,
0000
0000
0000
2300
0000
0000
0000
0000
0000
0000
0000
0000
0000
3000
0000
0000
,
0002
0000
0000
0000
0103
0010
1000
0200
,
0000
0000
0320
0000
0000
0032
0000
0000
,
0203
0000
0000
0000
0310
1000
0000
0200
,
0000
0320
0000
0032
0000
0003
1000
0020
,
0000
0000
1030
0200
0000
0000
1300
0004
,
0000
0000
0000
0000
,
0103
0100
0100
0100
,
0010
1000
0200
0000
0310
0100
1000
0001
,
0020
0000
0031
0001
1000
0010
0100
0001
,
0200
0300
0010
0001
0000
0010
0010
1000
,
1000
0000
0000
0001
0000
0000
1000
0000
0100
0000
0010
0000
0001
0000
0010
0000
,
0001
0100
0010
0000
2000
3100
0000
0010
,
0100
0000
1000
0000
0001
0000
0100
0000
0000
0010
0000
0000
0100
0000
0000
0000
,
0001
0010
0100
0001
0000
0100
1000
0002
,
0000
0100
0003
0100
0010
1000
0010
1000
,
0100
0010
0002
0000
0103
0010
1000
0200
,
0000
0000
0000
0000
1300
0010
0100
2000
,
0000
0000
0000
0000
3100
0010
0100
0002
,
1000
0000
0000
1000
0000
0000
1003
0000
0100
0000
0010
0000
0001
0000
0010
0000
,
0200
0000
1000
0000
1300
0001
0100
0020
,
0000
0000
0000
0000
0000
1030
0000
0200
,
0000
0000
0000
0000
0000
0310
0010
2000
,
0000
0000
0000
0000
3010
0001
0010
0001
;

//---------------dance-single - Loodee----------------
#NOTEDATA:;
#CHARTNAME:Loodee;
#STEPSTYPE:dance-single;
#DESCRIPTION:Loodee;
#CHARTSTYLE:;
#DIFFICULTY:Easy;
#METER:4;
#RADARVALUES:0.256562,0.342135,0.015285,0.366829,0.000000,235.000000,233.000000,2.000000,48.000000,0.000000,0.000000,0.000000,0.000000,0.000000,0.256562,0.342135,0.015285,0.366829,0.000000,235.000000,233.000000,2.000000,48.000000,0.000000,0.000000,0.000000,0.000000,0.000000;
#CREDIT:Loodee;
#DISPLAYBPM:130.000000;
#NOTES:
0000
0000
0000
0000
,
0000
0000
0000
0000
,
0000
0000
0000
0000
,
0000
0000
0000
0000
,
2000
0000
3001
0000
1000
0000
0100
0020
,
0000
0031
0000
0001
1000
0000
0010
0000
,
0200
0000
0301
0000
0100
0000
0010
2000
,
0000
0000
3000
0200
0000
0000
0300
0020
,
0000
0000
0030
0002
0000
0000
0003
0200
,
0000
0000
0000
0000
0000
0000
0000
0300
,
1001
0000
0002
0000
0013
0100
0010
0000
,
0001
0000
1000
1000
0010
0000
1000
0000
,
0100
0010
0001
0001
0000
1000
1000
0000
,
0010
0000
0100
0000
0001
0010
0001
0010
,
0001
0000
1000
0000
0010
0100
0000
0100
,
0001
0000
1000
1000
0100
0000
0010
0000
,
0001
1000
0010
0100
0000
0000
0001
0000
,
1000
0000
0100
0000
1000
0001
1000
0001
,
1000
0000
0020
0000
0130
0001
0000
0020
,
0000
0000
0000
0000
0130
1000
0100
2000
,
0000
0000
0000
0000
3001
0100
0000
0020
,
0000
0000
0230
0001
,
0301
0000
1000
0000
0100
0010
0100
0020
,
0000
0000
0000
0000
0000
0031
0000
2000
,
0000
0000
0000
0000
0000
3001
0001
0020
,
0000
0000
0000
0000
,
0130
0000
1000
0000
0010
0010
1000
0000
,
0001
0010
0000
0100
0000
0010
0000
0000
,
0001
0000
1000
0000
0001
0100
0100
0000
,
0010
1000
0001
0000
2000
0000
3200
0000
,
0310
0000
0001
0000
1000
0000
0010
0100
,
0010
0000
0010
0000
1000
0000
0000
0002
,
0000
0000
0000
0023
0000
0000
0000
0030
,
0100
1000
0001
1000
,
1001
0000
0001
0010
,
0100
0000
0000
0000
,
0000
0000
1000
0001
,
0100
0000
0000
0000
,
0000
0000
0010
0100
,
0001
0000
0000
0000
,
0000
0000
0000
1000
0000
0100
0000
0010
,
0000
0000
0001
0001
,
0002
0000
0000
0000
0103
0010
0100
0020
,
0000
0000
0000
0000
0000
0000
0000
0030
,
2000
0000
0000
0000
3001
0010
0001
0020
,
0000
0230
0000
0300
,
2000
0000
0000
0000
3001
0100
0001
2000
,
0000
0000
3200
0000
0000
0320
0000
0000
,
0230
0000
0000
0300
1000
0001
0000
0200
,
0000
0320
0000
2030
0000
0000
3000
0002
,
0000
0000
0003
0020
0000
0000
0030
0200
,
0000
0000
0000
0000
,
1300
1000
0001
0001
,
0001
0000
2000
0000
3100
0010
0100
0000
,
1000
0000
0001
0001
0100
0000
0001
0000
,
0010
0100
1000
1000
0000
0001
0001
0000
,
0100
0000
0010
0000
1000
0100
1000
0100
,
1000
0000
0001
0000
0100
0010
0000
0010
,
1000
0000
0001
0001
0010
0000
0100
0000
,
1000
0001
0100
0010
0000
0000
1000
0000
,
0001
0000
0010
0000
0001
1000
0001
1000
,
0001
0000
0200
0000
0310
1000
0000
0200
,
0000
0000
0000
0000
0310
0001
0010
0002
,
0000
0000
0000
0000
1003
0010
0000
0200
,
0000
0000
0320
1000
,
1030
0000
0001
0000
0010
0100
0010
0200
,
0000
0000
0000
0000
0000
1300
0000
0002
,
0000
0000
0000
0203
0000
0000
0000
0320
,
0000
0000
0000
2030
0000
0000
0000
3000
;

//---------------dance-single - Loodee----------------
#NOTEDATA:;
#CHARTNAME:Loodee;
#STEPSTYPE:dance-single;
#DESCRIPTION:Loodee;
#CHARTSTYLE:;
#DIFFICULTY:Beginner;
#METER:1;
#RADARVALUES:0.065505,0.105463,0.007642,0.076423,0.000000,60.000000,59.000000,1.000000,10.000000,0.000000,0.000000,0.000000,0.000000,0.000000,0.065505,0.105463,0.007642,0.076423,0.000000,60.000000,59.000000,1.000000,10.000000,0.000000,0.000000,0.000000,0.000000,0.000000;
#CREDIT:Loodee;
#DISPLAYBPM:130.000000;
#NOTES:
0000
0000
0000
0000
,
0000
0000
0000
0000
,
0000
0000
0000
0000
,
0000
0000
0000
0000
,
0001
0000
0000
0000
,
1000
0000
0000
0000
,
0100
0000
0000
0000
,
0010
0000
0000
0000
,
0010
0000
0000
0000
,
0020
0000
0000
0000
,
0031
0000
0000
0000
,
0100
0000
0000
0000
,
0001
0000
0000
0000
,
1000
0000
0000
0000
,
0100
0000
0000
0000
,
1000
0000
0000
0000
,
1000
0000
0000
0000
,
0020
0000
0000
0000
,
0030
0000
0000
0000
,
0100
0000
0000
0000
,
0001
0000
0000
0000
,
0010
0000
0000
0000
,
0100
0000
0000
0000
,
1000
0000
0000
0000
,
0001
0000
0000
0000
,
0200
0000
0000
0000
,
0300
0000
0000
0000
,
0001
0000
0000
0000
,
0001
0000
0000
0000
,
1000
0000
0000
0000
,
1000
0000
0000
0000
,
0100
0000
0000
0000
,
0010
0000
0000
0000
,
0000
0000
0000
0000
,
2002
0000
0000
0000
,
3003
0000
0000
0000
,
0000
0000
2000
0000
,
3000
0000
0000
0000
,
0000
0000
0002
0000
,
0003
0000
0000
0000
,
0000
0000
0000
0100
0000
0000
0000
0000
,
0000
0000
0001
0000
,
0001
0000
0000
0000
,
1000
0000
0000
0000
,
0100
0000
0000
0000
,
0010
0000
0000
0000
,
0100
0000
0000
0000
,
1000
0000
0000
0000
,
0010
0000
0000
0000
,
0100
0000
0000
0000
,
0100
0000
0000
0000
,
0200
0000
0000
0000
,
0301
0000
0001
0000
,
0001
0000
0000
0000
,
1000
0000
0000
0000
,
0100
0000
0000
0000
,
0010
0000
0000
0000
,
0001
0000
0000
0000
,
0100
0000
0000
0000
,
0100
0000
0000
0000
,
0002
0000
0000
0000
,
0003
0000
0000
0000
,
0010
0000
0000
0000
,
0100
0000
0000
0000
,
1000
0000
0000
0000
,
0100
0000
0000
0000
,
1000
0000
0000
0000
,
0001
0000
0000
0000
,
0200
0000
0000
0000
,
0300
0000
0000
0000
;
