#TITLE:99plus;
#SUBTITLE:;
#ARTIST:VITICZ & Usica;
#TITLETRANSLIT:;
#SUBTITLETRANSLIT:;
#ARTISTTRANSLIT:;
#GENRE:Bass House;
#CREDIT:Feraligatr;
#BANNER:99-bn.png;
#BACKGROUND:99-bg.png;
#LYRICSPATH:;
#CDTITLE:FeraligatrV4-cd.png;
#MUSIC:Viticz & Usica - 99plus.ogg;
#OFFSET:0.009000;
#SAMPLESTART:29.990999;
#SAMPLELENGTH:15.000000;
#SELECTABLE:YES;
#DISPLAYBPM:128.000000;
#BPMS:0.000000=128.000015
;
#STOPS:
;
#BGCHANGES:;
#KEYSOUNDS:;
#ATTACKS:;

//---------------dance-single - Feraligatr----------------
#NOTES:
     dance-single:
     Feraligatr:
     Challenge:
     11:
     0.820153,0.925000,0.508929,0.312500,1.000000,551.000000,57.000000,35.000000,3.000000,3.000000,77.000000,0.820153,0.925000,0.508929,0.312500,1.000000,551.000000,57.000000,35.000000,3.000000,3.000000,77.000000:
0000
0000
0000
0000
,
0000
0000
0000
0000
,
0000
0000
0000
0000
,
0000
0000
0000
0000
,
2001
0000
3001
1000
0010
0100
0001
1000
0000
0400
0310
0001
1000
0010
0400
0300
,
0000
0001
1000
0100
1000
0001
0100
0010
0000
4000
3001
0010
0100
0010
0001
1000
,
0020
0000
0130
0001
1000
0001
0010
0100
0000
4000
3001
0100
0010
0100
0004
0003
,
0000
1000
0100
0010
0001
1000
0010
0100
0000
0004
1003
0100
0020
0000
0000
0030
,
0012
0000
1003
0001
0100
0010
0100
0001
0000
4000
3100
0010
0100
1000
0004
0003
,
0000
0100
0010
1000
0001
0010
0100
1000
0000
0004
1003
0010
0100
0010
1000
0001
,
0020
0000
0130
0010
0001
1000
0010
0100
0000
0004
1003
0100
0010
0100
4000
3000
,
0000
0010
0100
0001
1000
0100
0010
0100
0000
4000
3001
0100
0020
0000
0000
0030
,
2010
0000
0000
0000
3001
0100
0000
0001
0100
0040
1030
0001
0000
1000
0004
0003
,
2001
0000
0000
3010
0100
0000
0001
1000
0000
0400
1300
0000
0001
1000
0000
0001
,
1002
0000
0000
0000
1003
0010
0000
1000
2001
0004
0003
0000
3000
0000
0004
0003
,
0012
0000
0000
0003
2001
0000
0000
3000
1020
4000
3000
0000
0130
0000
0010
0000
,
0401
0000
0000
0000
0301
1000
0100
1010
0000
0100
1010
0000
0001
1000
0040
0030
,
0410
0300
0004
0003
1000
0100
0010
0101
0000
0010
0004
0003
0400
0300
0040
0030
,
4010
0000
0000
3000
0001
0010
0100
1010
0000
0100
1010
0000
0001
1000
0040
0030
,
0410
0300
0001
0001
1000
0100
0010
0101
0000
0010
0400
0300
4000
3000
0004
0003
,
0401
0000
0000
0000
0301
1000
0010
1100
0000
0010
1100
0000
0001
1000
0004
0003
,
0401
0300
0040
0030
1000
0001
0010
0101
0000
0010
0400
0300
4000
3000
0040
0030
,
0104
0000
0000
0003
1000
0001
0010
0101
0000
0010
0101
0000
1000
0001
0400
0300
,
0140
0030
1000
1000
0001
0010
0100
1010
0000
0100
0040
0030
0004
0003
4000
3000
,
4010
0000
0000
0000
3004
0000
0000
0013
0000
0100
0000
4000
0000
0000
3004
0003
,
1000
0100
0010
0001
1000
0010
0100
0011
0000
0100
0011
0000
0100
0001
1100
0000
,
1004
0000
0000
0000
0043
0000
0000
0130
0000
0010
0000
0004
0000
0000
0043
0030
,
0410
0000
0000
0300
0000
0000
0400
0000
0000
0300
0000
0000
1000
0000
0000
0004
0000
0000
0003
0000
0000
0100
0000
0000
0000
0000
0000
0010
0000
0000
0000
0000
0000
4000
0000
0000
3001
0000
0000
0000
0001
0000
0000
0000
0001
0000
0000
0000
,
1002
0000
0000
0013
0100
0010
0001
1000
0010
0100
0001
1000
0001
0010
0100
0010
,
0001
0100
0010
1000
0001
1000
0100
1010
0000
0100
1010
0000
0100
0010
0101
0000
,
4001
0000
0000
0000
3040
0000
0000
0130
0000
0010
0000
4000
0000
0000
3004
0003
,
0401
0300
0400
0300
0001
4000
3000
0100
0000
0010
0000
0004
0003
0001
0400
0300
,
0120
0000
0000
0130
0001
1000
0001
0100
0010
0100
0001
1000
,
0100
0010
0100
1000
0001
0100
0010
1000
0001
1000
0100
0010
,
0021
0000
0000
0130
1000
0001
0100
0010
0100
0001
1000
0100
,
1000
0001
0100
0010
1000
0001
0010
0100
1000
0010
0100
0001
,
1000
0000
0000
0010
0000
0000
1000
0000
0000
0010
0000
0000
0100
0000
0000
0000
0001
0000
0000
0000
0010
0000
0000
0000
0001
0000
0000
0000
0100
0000
0000
0000
0010
0000
0000
0000
1000
0000
0000
0000
0100
0000
0000
0000
1000
0000
0001
0000
,
1000
0000
0100
0000
0010
0000
0001
0000
0100
0000
0010
0000
1000
0000
0100
0000
1000
0000
0001
0000
1000
0000
0001
0100
,
0010
0000
0000
1000
0000
0000
0010
0000
0000
1000
0000
0000
0001
0000
0000
0000
0010
0000
0000
0000
0100
0000
0000
0000
1000
0000
0000
0000
0010
0000
0000
0000
0100
0000
0000
0000
0010
0000
0000
0000
1000
0000
0000
0000
0001
0000
0000
0000
,
0010
0001
1000
0001
0100
0010
1000
0001
1000
0100
0010
0100
1000
0001
1000
0010
0100
0001
1000
0100
1000
0100
1000
0100
,
0020
0000
0000
0000
0031
0000
1000
0000
0010
0100
0001
1000
0001
0010
0100
1000
,
0002
0000
1003
0000
0200
0000
0000
0000
1300
0001
0100
0010
0100
0001
1000
0100
,
0020
0000
0000
0000
0031
0000
1000
0000
0010
0100
0001
1000
0100
0010
0101
0010
,
0001
0000
0000
1000
0000
0000
0020
0000
0000
0000
0000
0000
1130
0000
0000
0001
0000
0000
1000
0000
0000
0100
0000
0000
0020
0000
0000
0000
0000
0000
0032
0000
0000
0000
0000
0000
1003
0000
0000
0000
1000
0000
0000
0000
1000
0000
0000
0000
,
1002
0000
0000
0000
0103
0000
0010
0000
1000
0001
0010
0001
1000
0010
0100
0001
,
2000
0000
0000
3100
0000
0000
0020
0000
0000
0000
0000
0000
0031
0000
0001
0000
0001
0000
1000
0000
1000
0000
1000
0000
,
2100
0000
0000
0000
3001
0000
0100
0000
0010
1000
0001
0100
0010
1000
0011
1000
,
0001
1000
0200
0000
1320
0000
0000
0000
0M32
0000
0000
0000
00M0
0000
M000
0003
,
0401
0000
0000
0000
4300
3000
0100
0000
0010
0000
0004
0003
0010
0000
0100
0000
,
4000
3000
0100
0000
0010
0000
0004
0003
0020
0000
0000
0000
2030
0000
0000
3000
,
1004
0000
0013
0001
1000
0010
0100
0011
,
1000
0000
0000
0000
0000
0000
0010
0000
0000
0000
0000
0000
1100
0000
0000
0000
0000
0000
0001
0000
0000
0000
0000
0000
1000
0000
0000
0000
0000
0000
0400
0000
0000
0300
0000
0000
0010
0000
0000
0000
0010
0000
0000
0000
0010
0000
0000
0000
,
0041
0000
0000
0000
4030
3000
0010
0000
0100
0000
0004
0003
0100
0000
0010
0000
,
4000
0000
0000
3000
0000
0000
0010
0000
0000
0000
0000
0000
0200
0000
0000
0000
0000
0000
0000
0000
0000
0000
0000
0000
1300
0000
0000
0000
1000
0000
0000
0000
1000
0000
0000
0000
0001
0000
0000
0000
0001
0000
0000
0000
0001
0000
0000
0000
,
0104
0000
0000
0000
0003
0000
0100
0000
0010
1000
0001
1000
0100
0010
0101
1000
,
0001
0100
0020
0000
1130
0001
1000
0100
1000
0001
0100
0010
2000
0000
0000
0000
,
3001
0000
0000
0000
;

//---------------dance-single - Feraligatr----------------
#NOTES:
     dance-single:
     :
     Hard:
     9:
     0.621173,0.600000,0.285714,0.598214,0.580357,388.000000,32.000000,67.000000,0.000000,0.000000,2.000000,0.621173,0.600000,0.285714,0.598214,0.580357,388.000000,32.000000,67.000000,0.000000,0.000000,2.000000:
0000
0000
0000
0000
,
0000
0000
0000
0000
,
0000
0000
0000
0000
,
0000
0000
0000
0000
,
2001
0000
0000
0000
3010
0000
0100
0000
0001
1000
0000
0000
0100
0000
1000
0000
,
0001
0000
0100
0000
0010
0000
0100
0000
0001
1000
0000
0001
0010
0000
0010
0000
,
0210
0000
0000
0000
1300
0000
0001
0000
0100
0010
0000
0000
1000
0000
0010
0000
,
0100
0000
0001
0000
1000
0000
0100
0000
0010
0001
0000
0000
0200
0000
0000
0300
,
0102
0000
0000
0000
1003
0000
0001
0000
0010
0100
0000
0000
1000
0000
0100
0000
,
1000
0000
0001
0000
0100
0000
0010
0000
1000
0001
0000
1000
0100
0000
0100
0000
,
0120
0000
0000
0000
0031
0000
1000
0000
0001
0100
0000
0000
0010
0000
0100
0000
,
0001
0000
1000
0000
0100
0000
0010
0000
0100
1000
0000
0000
0002
0000
0000
0003
,
0201
0000
0000
0000
0300
0000
0000
0000
0000
0001
0000
0000
0000
0000
0001
0000
,
2001
0000
0000
0000
3000
0000
0000
0000
0000
1000
0100
0000
0010
0000
0010
0000
,
0012
0000
0000
0000
1003
0000
0000
0000
1000
0010
0000
0000
0000
0000
0010
0000
,
0110
0000
0000
0000
0101
0000
0000
0000
0001
1000
0000
0000
0100
0000
0010
0000
,
0012
0000
0000
0000
1003
0001
0100
0010
0000
0100
0010
0000
1000
0000
0001
0000
,
0020
0000
0230
0000
1300
0100
1000
0001
0000
1000
0010
0000
1000
0000
0001
0000
,
0102
0000
0000
0000
1003
0001
0010
0001
0000
0010
0001
0000
1000
0000
0010
0000
,
0200
0000
0301
1000
0001
0010
0001
1000
0000
0001
0100
0000
0001
0000
1000
0000
,
1200
0000
0000
0000
0310
0001
1000
0001
0000
1000
0001
0000
0100
0000
0001
0000
,
0020
0000
0230
0000
0310
0001
1000
0100
0000
1000
0001
0000
0100
0000
0010
0000
,
2010
0000
0000
0000
3010
1000
0001
1000
0000
0001
1000
0000
0100
0000
0010
0000
,
0200
0000
1300
0001
0100
0010
0100
0001
0000
1000
0001
0000
1000
0000
0100
0000
,
0120
0000
0000
0000
0032
0000
0000
1003
0000
0010
0000
0200
0000
0000
0301
0000
,
0102
0000
1003
0001
1000
0100
0010
0001
0000
0010
0001
0000
0000
0010
0001
0000
,
2001
0000
0000
0000
3020
0000
0000
0130
0000
0001
0000
2000
0000
0000
3100
0000
,
0010
0000
0000
0000
0000
0000
0010
0000
0000
0000
0000
0000
0001
0000
0000
1000
0000
0000
0000
0000
0000
0010
0000
0000
0000
0000
0000
0100
0000
0000
0000
0000
0000
0001
0000
0000
1000
0000
0000
0000
0010
0000
0000
0000
1000
0000
0000
0000
,
0002
0000
0000
0000
0000
0000
0100
0100
,
0103
0000
0001
1000
0001
0010
0100
1000
0000
0100
1000
0000
0000
0100
1000
0000
,
1002
0000
0000
0000
0203
0000
0000
0310
0000
1000
0000
0002
0000
0000
0013
0000
,
0100
0000
0100
0000
1000
0001
0000
0100
0000
0010
0000
1000
0000
1000
0001
0000
,
2001
0000
0000
3001
0010
0001
0010
0100
0010
0100
1000
0100
,
1000
0001
1000
0001
0100
0001
0100
0010
0100
0010
1000
0010
,
2000
0000
0000
3001
0100
0001
0100
0010
0100
0010
1000
0010
,
1000
0001
1000
0001
0010
0001
0010
0100
0010
0001
0100
0010
,
2000
0000
0000
3001
0100
0010
1000
0001
0010
0100
0010
0001
,
1000
0010
0100
0010
1000
0001
0010
0100
1000
0001
0100
0010
,
2000
0000
0000
3001
0010
0001
1000
0010
0100
0001
1000
0100
,
0040
0000
0000
0000
0000
0000
0000
0000
0000
0004
0000
0033
,
2002
0000
3003
0001
0200
0000
0000
0000
,
0310
0000
1000
0000
0002
0000
0000
0000
0023
0000
0000
0000
0000
0000
0000
0030
,
0220
0000
0000
0000
0330
0000
1000
0000
0002
0000
0000
0000
0000
0003
1002
0000
,
0000
0000
0000
0103
0000
0000
1002
0000
0000
0000
0000
0000
0013
0000
0000
0100
0000
0000
1000
0000
0001
0000
1000
0000
,
2002
0000
3003
1000
0020
0000
0000
0000
,
0130
0000
0000
0001
0000
0000
2000
0000
0000
0000
0000
0000
3100
0000
1000
0000
0100
0000
1000
0000
0100
0000
1000
0000
,
2002
0000
0000
0000
3003
0000
0001
0000
0200
0000
0000
0000
0000
0300
0210
0000
,
0000
0000
0301
0000
0102
0000
0000
0000
2003
0000
0000
0000
0000
0000
0000
3000
,
1002
0000
0013
0100
1000
0010
0100
0001
,
0010
0000
0100
0000
1000
0000
0010
0000
0200
0000
0000
0000
0302
0000
0000
0003
,
2001
0000
3001
1000
0010
1000
0001
0010
,
0001
0000
0000
1000
0000
0000
0010
0000
0000
1000
0000
0000
0001
0000
0000
0100
0000
0000
0001
0000
1000
0000
0001
0000
,
2001
0000
3010
0100
0001
0010
0100
1000
,
0010
0000
0000
0100
0000
0000
0002
0000
0000
0000
0000
0000
1003
0000
0100
0000
1000
0000
0100
0000
1000
0000
0100
0000
,
0220
0000
0000
0000
0330
0000
0001
0000
2000
0000
0000
0000
0000
3000
2001
0000
,
0000
3100
0210
0000
2300
0000
3002
0000
,
0103
0000
0000
0000
;

//---------------dance-single - Feraligatr----------------
#NOTES:
     dance-single:
     :
     Medium:
     8:
     0.419643,0.425000,0.151786,0.544643,0.178571,251.000000,17.000000,61.000000,0.000000,0.000000,0.000000,0.419643,0.425000,0.151786,0.544643,0.178571,251.000000,17.000000,61.000000,0.000000,0.000000,0.000000:
0000
0000
0000
0000
,
0000
0000
0000
0000
,
0000
0000
0000
0000
,
0000
0000
0000
0000
,
2001
0000
0000
0000
3010
0000
0000
0000
0100
0001
0000
0000
1000
0000
0001
0000
,
0010
0000
0000
0000
0100
0000
0000
0000
1000
0001
0000
0000
0100
0000
0100
0000
,
0200
0000
0000
0000
0310
0000
0000
0000
1000
0001
0000
0000
0010
0000
0001
0000
,
0100
0000
0000
0000
0010
0000
0000
0000
0100
0001
0000
0000
2000
0000
0000
3000
,
1002
0000
0000
0000
0013
0000
0000
0000
0100
1000
0000
0000
0001
0000
1000
0000
,
0010
0000
0000
0000
0100
0000
0000
0000
0001
1000
0000
0000
0100
0000
0100
0000
,
0200
0000
0000
0000
0310
0000
0000
0000
0001
1000
0000
0000
0010
0000
1000
0000
,
0001
0000
0000
0000
0010
0000
0000
0000
0100
1000
0000
0000
0002
0000
0000
0003
,
2001
0000
0000
0000
3000
0000
0000
0000
0000
0010
0000
0000
0000
0000
0010
0000
,
1020
0000
0000
0000
0030
0000
0000
0000
0000
0100
0000
0000
0000
0000
0000
0000
,
0102
0003
1001
0000
,
1100
0000
1100
0000
1100
0000
1000
0010
,
0200
0000
0000
0000
0301
0000
0000
0001
0000
0000
0001
0000
1000
0000
0100
0000
,
0020
0000
0000
0000
0031
0000
0000
0001
0000
0000
1000
0000
0010
0000
0100
0000
,
0002
0000
0000
0000
1003
0000
0000
1000
0000
0000
1000
0000
0001
0000
0010
0000
,
0200
0000
0000
0000
1300
0000
0000
1000
0000
0000
0001
0000
0100
0000
0010
0000
,
2000
0000
0000
0000
3100
0000
0000
0100
0000
0000
0100
0000
0010
0000
0001
0000
,
2000
0000
0000
0000
3100
0000
0000
0100
0000
0000
0010
0000
0001
0000
1000
0000
,
0200
0000
0000
0000
0310
0000
0000
0010
0000
0000
0010
0000
0001
0000
1000
0000
,
0200
0000
0310
0100
0010
0000
0000
0010
0000
0000
0010
0000
0001
0000
1000
0000
,
0020
0000
0000
0000
0230
0000
0000
0301
0000
1000
0000
0200
0000
0000
0310
0000
,
0020
0000
0000
0000
0031
0000
0000
0001
0000
0000
0001
0000
0000
0000
1000
0000
,
0020
0000
0000
0000
0230
0000
0000
0301
0000
1000
0000
0200
0000
0000
0310
0000
,
0001
0000
0001
0000
0000
0100
0000
0010
0000
1000
0001
0000
0001
0000
0000
0000
,
2001
0000
0000
0000
0000
0000
0100
0100
,
3100
0000
0000
0000
1000
0000
0000
1000
0000
0000
1000
0000
0000
0000
0001
0000
,
0200
0000
0000
0000
0320
0000
0000
1030
0000
0001
0000
0020
0000
0000
0130
0000
,
1000
0000
1000
0000
0000
0001
0000
0100
0000
0010
1000
0000
1000
0000
0000
0000
,
1002
0003
0100
0000
,
0000
0000
0100
0000
,
2001
3000
0100
0000
,
0000
0000
0100
0000
,
2001
3010
0100
0001
,
1000
0100
0010
0100
,
2000
3001
0100
0010
,
2000
0000
0000
3000
,
1002
0000
0003
0001
0020
0000
0000
0000
,
0130
1000
0002
0000
0203
0000
0000
0000
,
0320
0000
0000
0000
0030
0000
1000
0000
0002
0000
0000
0000
0000
0003
0002
0000
,
0000
0000
0000
0103
0000
0000
0002
0000
0000
0000
0000
0000
1003
0000
0000
0100
0000
0000
1000
0000
0001
0000
1000
0000
,
0002
0000
0003
1000
0020
0000
0000
0000
,
0130
0001
2000
0000
3000
0000
0000
0000
,
1002
0000
0000
0000
0003
0000
1000
0000
0200
0000
0000
0000
0000
0300
0200
0000
,
0000
0000
0310
0000
0200
0000
0000
0000
2300
0000
0000
0000
0000
0000
0000
3000
,
1002
0000
0103
0001
0100
0010
0100
0001
,
1000
0001
0100
0010
2000
0000
3200
0000
,
0320
0000
0031
1000
0010
1000
0001
0010
,
0001
0000
0000
1000
0000
0000
0010
0000
0000
1000
0000
0000
0001
0000
0000
0100
0000
0000
0010
0000
1000
0000
0010
0000
,
2000
0000
3001
0010
0001
1000
0001
0010
,
0100
0010
0002
0000
0003
0000
0000
0000
,
2001
0000
0000
0000
3000
0000
0001
0000
0200
0000
0000
0000
0000
0300
0200
0000
,
0000
0310
0200
0000
0302
0000
2003
0000
,
3100
0000
0000
0000
;

//---------------dance-single - Feraligatr----------------
#NOTES:
     dance-single:
     :
     Easy:
     4:
     0.264031,0.325000,0.187500,0.491071,0.000000,131.000000,21.000000,55.000000,0.000000,0.000000,0.000000,0.264031,0.325000,0.187500,0.491071,0.000000,131.000000,21.000000,55.000000,0.000000,0.000000,0.000000:
// measure 0
0000
0000
0000
0000
,  // measure 1
0000
0000
0000
0000
,  // measure 2
0000
0000
0000
0000
,  // measure 3
0000
0000
0000
0000
,  // measure 4
2100
3001
0000
1000
,  // measure 5
0000
0010
0000
0100
,  // measure 6
0102
1003
0000
0100
,  // measure 7
0000
0010
0000
0100
,  // measure 8
2100
3001
0000
1000
,  // measure 9
0000
0010
0000
0100
,  // measure 10
0102
1003
0000
0001
,  // measure 11
0000
0010
0000
0100
,  // measure 12
2100
3000
0000
0000
,  // measure 13
1002
0003
0000
0000
,  // measure 14
2010
3000
1001
0000
,  // measure 15
0011
0011
0011
0000
,  // measure 16
2001
3010
0000
0010
,  // measure 17
2000
3001
0000
0001
,  // measure 18
0020
0130
0000
0100
,  // measure 19
2000
3001
0000
0001
,  // measure 20
0200
0310
0000
0010
,  // measure 21
2000
3001
0000
0001
,  // measure 22
0020
0130
0000
0100
,  // measure 23
2000
3001
0000
0001
,  // measure 24
1002
0013
0000
0010
,  // measure 25
0200
1300
0000
1000
,  // measure 26
0002
0103
0000
0100
,  // measure 27
0020
1030
0000
1000
,  // measure 28
0002
0000
0000
0103
,  // measure 29
0020
1030
0000
1000
,  // measure 30
0002
0013
0000
0010
,  // measure 31
0200
1300
0000
1000
,  // measure 32
1002
0003
0100
0000
,  // measure 33
0000
0000
0100
0000
,  // measure 34
2001
3000
0010
0000
,  // measure 35
0000
0000
0010
0000
,  // measure 36
2001
3100
0010
0100
,  // measure 37
1000
0001
0100
0010
,  // measure 38
0200
0301
1000
0100
,  // measure 39
0020
0000
0000
0030
,  // measure 40
2001
3000
0020
0000
,  // measure 41
1030
0002
0023
0000
,  // measure 42
0230
0000
0000
0000
0300
0000
0000
0000
2000
0000
0000
0000
0000
3000
2000
0000
,  // measure 43
0000
3000
2000
0000
3000
0000
0000
0000
,  // measure 44
1002
0003
0200
0000
,  // measure 45
0301
2000
3200
0000
,  // measure 46
0320
0000
0000
0000
0030
0000
0000
0000
0002
0000
0000
0000
0000
0003
0002
0000
,  // measure 47
0000
0003
0002
0000
0003
0000
0000
0000
,  // measure 48
2001
3000
0100
0000
,  // measure 49
0010
0000
0002
2003
,  // measure 50
3020
0030
0100
0000
,  // measure 51
0001
0000
1000
0000
,  // measure 52
2001
3000
0100
0000
,  // measure 53
0010
0000
0001
0000
,  // measure 54
1002
0000
0000
0000
0003
0000
0000
0000
0200
0000
0000
0000
0000
0300
0200
0000
,  // measure 55
0000
0300
0200
0000
0320
0000
2030
0000
,  // measure 56
3001
0000
0000
0000
;

//---------------dance-single - Feraligatr----------------
#NOTES:
     dance-single:
     :
     Beginner:
     1:
     0.094388,0.150000,0.160714,0.000000,0.000000,56.000000,18.000000,0.000000,0.000000,0.000000,0.000000,0.094388,0.150000,0.160714,0.000000,0.000000,56.000000,18.000000,0.000000,0.000000,0.000000,0.000000:
// measure 0
0000
0000
0000
0000
,  // measure 1
0000
0000
0000
0000
,  // measure 2
0000
0000
0000
0000
,  // measure 3
0000
0000
0000
0000
,  // measure 4
1001
0000
0000
0000
,  // measure 5
1000
0000
0000
0000
,  // measure 6
0100
0000
0000
0000
,  // measure 7
0010
0000
0000
0000
,  // measure 8
0100
0000
0000
0000
,  // measure 9
1000
0000
0000
0000
,  // measure 10
0001
0000
0000
0000
,  // measure 11
1000
0000
0000
0000
,  // measure 12
1001
0000
0000
0000
,  // measure 13
0000
0000
0000
0000
,  // measure 14
1001
0000
0000
0000
,  // measure 15
0000
0000
0000
0000
,  // measure 16
1001
0000
0000
0000
,  // measure 17
1000
0000
0000
0000
,  // measure 18
0100
0000
0000
0000
,  // measure 19
0010
0000
0000
0000
,  // measure 20
0100
0000
0000
0000
,  // measure 21
1000
0000
0000
0000
,  // measure 22
0001
0000
0000
0000
,  // measure 23
1000
0000
0000
0000
,  // measure 24
1001
0000
0000
0000
,  // measure 25
0001
0000
0000
0000
,  // measure 26
0100
0000
0000
0000
,  // measure 27
0010
0000
0000
0000
,  // measure 28
1000
0000
0000
0000
,  // measure 29
0001
0000
0000
0000
,  // measure 30
0010
0000
0000
0000
,  // measure 31
0100
0000
0000
0000
,  // measure 32
1001
0000
0000
0000
,  // measure 33
0000
0000
0000
0000
,  // measure 34
0110
0000
0000
0000
,  // measure 35
0000
0000
0000
0000
,  // measure 36
1001
0000
0000
0000
,  // measure 37
0000
0000
0000
0000
,  // measure 38
0110
0000
0000
0000
,  // measure 39
0000
0000
0000
0000
,  // measure 40
1001
0000
0100
0000
,  // measure 41
1001
0000
0010
0000
,  // measure 42
1001
0000
0100
0000
,  // measure 43
0000
0000
0000
0000
,  // measure 44
1001
0000
0010
0000
,  // measure 45
1001
0000
0100
0000
,  // measure 46
1001
0000
0010
0000
,  // measure 47
0000
0000
0000
0000
,  // measure 48
1001
0000
1000
0000
,  // measure 49
0000
0000
0001
1000
,  // measure 50
0001
0000
1000
0000
,  // measure 51
0000
0000
1000
0000
,  // measure 52
0110
0000
0100
0000
,  // measure 53
0000
0000
0000
0000
,  // measure 54
1001
0000
0001
0000
,  // measure 55
0000
0000
0010
0100
,  // measure 56
1000
0000
0000
0000
;
