#TITLE:666!;
#SUBTITLE:;
#ARTIST:Getter & Ghastly;
#TITLETRANSLIT:;
#SUBTITLETRANSLIT:;
#ARTISTTRANSLIT:;
#GENRE:Electro Breaks;
#CREDIT:Feraligatr;
#BANNER:666!.png;
#BACKGROUND:666!-bg.png;
#LYRICSPATH:;
#CDTITLE:cdtitle.png;
#MUSIC:666!.ogg;
#OFFSET:0.009000;
#SAMPLESTART:30.959000;
#SAMPLELENGTH:15.484000;
#SELECTABLE:YES;
#DISPLAYBPM:124.000000;
#BPMS:0.000000=124.000000
;
#STOPS:
;
#BGCHANGES:;
#KEYSOUNDS:;
#ATTACKS:;

//---------------dance-single - Feraligatr----------------
#NOTES:
     dance-single:
     Feraligatr:
     Challenge:
     11:
     0.729384,0.780488,0.097561,0.040650,1.000000,611.000000,12.000000,5.000000,39.000000,0.000000,5.000000,0.729384,0.780488,0.097561,0.040650,1.000000,611.000000,12.000000,5.000000,39.000000,0.000000,5.000000:
0000
0000
0000
0000
,
0000
0000
0000
0000
,
0000
0000
0000
0000
,
0000
0000
0000
0000
,
1000
0000
0001
1000
0100
0000
0100
0010
0000
0000
0001
0000
0001
0000
1000
0000
,
1000
0000
0000
0000
0010
0000
0100
0000
0001
0000
0000
0000
0001
0000
0010
0000
0000
0000
0000
0000
0001
0000
0010
0000
0000
0000
0000
0000
0001
1000
0001
1000
,
0010
0000
0100
0001
1000
0000
1000
0100
0000
0000
0010
0000
0010
0000
0001
0000
,
0001
0000
0000
0000
1000
0000
0001
0000
0100
00M0
0100
0000
1000
0000
0001
0000
0100
0000
0000
0000
0001
0000
0020
0000
0000
0000
0000
0000
0000
0000
0030
0000
,
1100
0000
0001
1000
0000
1000
0010
0000
0100
0001
0000
0001
1000
0000
1000
0100
,
1000
0000
0100
0000
0010
0000
0001
0000
0000
0000
0001
0000
1000
0000
0000
0000
0010
0000
0100
0000
0000
0000
0100
0000
0001
0000
1000
0001
1000
0000
0100
0000
,
0110
0000
0010
0001
0000
0001
0010
0000
0100
0010
0000
0010
0001
0000
0001
1000
,
0001
0000
1000
0000
0010
0000
0100
0000
0000
0000
0100
0000
0001
0000
0000
0000
1000
0000
0100
0000
0000
0000
0100
0000
0010
0001
0010
0000
0100
0000
1000
0000
,
0001
0000
1000
0010
0000
0010
0100
0000
0001
1000
0000
1000
0100
0000
0100
0000
,
0100
0000
0010
0001
0000
0001
1000
0000
0001
0100
0000
0100
0010
0000
0010
0000
,
001M
000M
000M
0000
1000
0000
0001
0000
0000
0000
0001
0000
0010
0000
0000
0000
010M
000M
1000
0000
0000
0000
1000
0000
0010
0000
0000
0000
0010
0000
0000
0000
,
001M
0000
1000
0001
0000
0001
0100
0000
0001
1000
0000
1000
01MM
0000
0010
0000
,
0011
0000
0000
0000
0001
1000
0010
0000
0100
0000
0000
0001
0100
0001
1000
0001
,
0010
0000
0000
0000
0100
0000
1000
0000
0001
0000
0100
0000
0010
0000
0000
0000
1000
0000
0000
0000
0100
0000
0010
0000
1000
0M00
1000
0000
0100
00M0
0100
0000
,
0001
0000
1000
0000
0001
1000
0100
0000
0010
0000
0000
0001
1000
0001
0100
0001
,
1000
0000
0000
0000
0000
0000
0001
0000
0000
1000
0000
0000
0100
0000
0000
0010
0000
0000
0100
0000
0000
0000
0000
0000
1000
0000
0001
0000
1000
0000
0001
0000
0000
0100
0000
0000
0010
0000
0000
0000
0000
0000
1000
0000
0000
0000
0000
0000
,
1001
0000
0000
0000
1000
0010
0100
0000
0001
0000
0000
1000
0100
1000
0001
1000
,
0010
0000
0000
0000
0100
0000
0001
0000
1000
0000
0001
0000
0010
0000
0000
0000
0001
0000
0000
0000
0010
0000
0100
0000
0001
00M0
0001
0000
0010
0M00
0010
0000
,
1000
0000
0001
0000
1000
0010
0100
0000
0001
0000
0000
1000
0001
1000
0100
1000
,
0001
0000
0000
0000
0000
0000
0100
0000
0000
0010
0000
0000
1000
0000
0001
0000
1000
0000
0001
0000
0000
0100
0000
0000
0010
0000
1000
0000
0010
0000
1000
0000
0000
0001
0000
0000
0010
0000
0000
0000
0000
0000
0100
0000
0000
0000
0000
0000
,
1100
0000
0000
0000
0000
0000
0000
0000
1000
0000
0010
0000
0100
0000
0000
0000
0010
0000
0000
0000
0000
0000
1000
0000
0001
0000
1000
0000
0100
00M0
0100
0000
,
0001
0000
0000
0000
1000
0000
0100
0000
0010
0000
0001
0000
1000
0000
0000
0000
0010
0000
0000
0000
0100
0000
0010
0000
0001
0M00
0001
0000
0100
00M0
0100
0000
,
1000
0000
0000
0000
0001
0000
0000
0000
1000
0000
0010
0000
0100
0000
0000
0000
0001
0000
0000
0000
0000
0000
0100
0000
0001
0000
0010
0000
0100
M000
0100
0000
,
0001
0000
0000
0000
0000
0000
1000
0000
0000
0001
0000
0000
0010
0000
0000
0001
0000
0000
1000
0000
0000
0000
0000
0000
0001
0000
0100
0000
0001
0000
0100
0000
0000
0010
0000
0000
1000
0000
0000
0000
0000
0000
0001
0000
0000
0000
0000
0000
,
0011
0000
0010
0010
0001
1000
0010
0000
1000
0000
0001
0001
0010
0100
1000
0001
,
0100
0000
0000
0000
0010
0000
0010
0000
1000
0000
0001
0000
1000
0000
0000
0000
0010
0000
0000
0000
0100
0000
0010
0000
0001
0M00
0001
0000
0100
00M0
0100
0000
,
1000
0000
0001
0000
1000
0100
0010
0000
0001
0000
0000
1000
0010
1000
0001
1000
,
0100
0000
0010
0001
1000
0010
0100
0000
0001
0000
1000
0001
0010
0000
0100
0000
,
4100
0000
0000
0000
,
0000
0000
0000
0000
,
0000
0000
0000
0000
,
0000
0000
0000
0000
,
3001
0100
0001
1000
0100
0010
0100
1000
0001
0100
0001
1000
0100
1000
0001
0100
,
0010
1000
0001
0010
0100
0010
0001
1000
0001
0100
0010
1000
0001
0010
0001
1000
,
001M
000M
010M
0000
0001
0000
1000
0000
0100
0000
0010
0000
0001
0000
1000
0000
001M
000M
1000
0000
0001
0000
0010
0000
0001
0000
1000
0000
0100
0000
0010
0000
,
040M
4000
0000
0000
0000
0000
0000
0000
0000
0000
0000
0000
0000
0000
0000
0000
0000
0000
0000
0000
0000
0000
0000
0000
33MM
0000
0000
0000
0010
0000
0000
0000
,
1001
0000
0000
0000
0000
0000
0000
0000
0000
0000
0000
0000
0000
0000
0000
0000
0000
0000
0000
0000
0000
0000
0000
0000
0000
0000
0000
0000
0000
0000
0000
0000
0000
0000
0000
0000
0000
0000
0000
0000
0000
0000
0000
0000
0000
0000
0000
0000
0001
0000
0000
0000
0000
0000
0000
0000
0000
0000
0000
0000
0000
0000
0000
0000
0000
0000
0000
0000
0000
0000
0000
0000
0100
0000
0000
0000
0000
0000
0000
0000
0000
0000
0000
0000
0010
0000
0000
0000
0000
0000
0000
0000
0000
0000
0000
0000
1000
0000
0000
0000
0000
0000
0000
0000
0001
0000
0000
0000
0000
0000
0000
0000
1000
0000
0000
0000
0000
0000
0000
0000
0100
0000
0000
0000
0000
0000
00M0
0000
0000
0000
0000
0000
0100
0000
0000
0000
0000
0000
0000
0000
0000
0000
0000
0000
0001
0000
0000
0000
0000
0000
0000
0000
0000
0000
0000
0000
0000
0000
0000
0000
0000
0000
0000
0000
0000
0000
0000
0000
0000
0000
0000
0000
0000
0000
0000
0000
0000
0000
0000
0000
1000
0000
0000
0000
0000
0000
0000
0000
0000
0000
0000
0000
,
0100
0000
0000
0000
0000
0000
0000
0000
0000
0000
0000
0000
0000
0000
0000
0000
0000
0000
0000
0000
0000
0000
0000
0000
0100
0000
0000
0000
0000
0000
0000
0000
0000
0000
0000
0000
0000
0000
0000
0000
0000
0000
0000
0000
0000
0000
0000
0000
1000
0000
0000
0000
0000
0000
0000
0000
0000
0000
0000
0000
0001
0000
0000
0000
0000
0000
0000
0000
0000
0000
0000
0000
0100
0000
0000
0000
0000
0000
0000
0000
0000
0000
0000
0000
0010
0000
0000
0000
0000
0000
0000
0000
0000
0000
0000
0000
1000
0000
0000
0000
0000
0000
0000
0000
0001
0000
0000
0000
0000
0000
0000
0000
1000
0000
0000
0000
0000
0000
0000
0000
0100
0000
0000
0000
0000
0000
0000
0000
0000
0000
0000
0000
0000
0000
0000
0000
0000
0000
0000
0000
0000
0000
0000
0000
1000
0000
0000
0000
0000
0000
0000
0000
0000
0000
0000
0000
0010
0000
0000
0000
0000
0000
0000
0000
0000
0000
0000
0000
0100
0000
0000
0000
0000
0000
000M
0000
0000
0000
0000
0000
0100
0000
0000
0000
0000
0000
0000
0000
0000
0000
0000
0000
,
1000
0000
0000
0000
0000
0000
0000
0000
0000
0000
0000
0000
0000
0000
0000
0000
0000
0000
0000
0000
0000
0000
0000
0000
0001
0000
0000
0000
0000
0000
0000
0000
0000
0000
0000
0000
1000
0000
0000
0000
0000
0000
0000
0000
0000
0000
0000
0000
0010
0000
0000
0000
0000
0000
0000
0000
0000
0000
0000
0000
0000
0000
0000
0000
0000
0000
0000
0000
0000
0000
0000
0000
0100
0000
0000
0000
0000
0000
0000
0000
0000
0000
0000
0000
0000
0000
0000
0000
0000
0000
0000
0000
0000
0000
0000
0000
0001
0000
0000
0000
0000
0000
0000
0000
1000
0000
0000
0000
0000
0000
0000
0000
0001
0000
0000
0000
0000
0000
0000
0000
0010
0000
0000
0000
0000
0000
0M00
0000
0000
0000
0000
0000
0010
0000
0000
0000
0000
0000
0000
0000
0000
0000
0000
0000
1000
0000
0000
0000
0000
0000
0000
0000
0000
0000
0000
0000
0000
0000
0000
0000
0000
0000
0000
0000
0000
0000
0000
0000
0001
0000
0000
0000
0000
0000
0000
0000
0000
0000
0000
0000
1000
0000
0000
0000
0000
0000
0000
0000
0000
0000
0000
0000
,
0010
0000
1000
0010
0100
0000
0010
0100
2000
0000
3200
0310
1000
0000
0001
0000
,
0011
0000
0000
0000
0000
0000
0000
0000
0000
0000
0000
0000
0000
0000
0000
0000
0000
0000
0000
0000
0000
0000
0000
0000
0010
0000
0000
0000
0000
0000
0000
0000
0000
0000
0000
0000
0000
0000
0000
0000
0000
0000
0000
0000
0000
0000
0000
0000
0100
0000
0000
0000
0000
0000
0000
0000
0000
0000
0000
0000
0000
0000
0000
0000
0000
0000
0000
0000
0000
0000
0000
0000
0010
0000
0000
0000
0000
0000
0000
0000
0000
0000
0000
0000
0001
0000
0000
0000
0000
0000
0000
0000
0000
0000
0000
0000
1000
0000
0000
0000
0000
0000
0000
0000
0001
0000
0000
0000
0000
0000
0000
0000
1000
0000
0000
0000
0000
0000
0000
0000
0100
0000
0000
0000
0000
0000
00M0
0000
0000
0000
0000
0000
0100
0000
0000
0000
0000
0000
0000
0000
0000
0000
0000
0000
0001
0000
0000
0000
0000
0000
0000
0000
0000
0000
0000
0000
0000
0000
0000
0000
0000
0000
0000
0000
0000
0000
0000
0000
0000
0000
0000
0000
0000
0000
0000
0000
0000
0000
0000
0000
1000
0000
0000
0000
0000
0000
0000
0000
0000
0000
0000
0000
,
0010
0000
0000
0000
0000
0000
0000
0000
0000
0000
0000
0000
0000
0000
0000
0000
0000
0000
0000
0000
0000
0000
0000
0000
0010
0000
0000
0000
0000
0000
0000
0000
0000
0000
0000
0000
0000
0000
0000
0000
0000
0000
0000
0000
0000
0000
0000
0000
0010
0000
0000
0000
0000
0000
0000
0000
0000
0000
0000
0000
0000
0000
0000
0000
0000
0000
0000
0000
0000
0000
0000
0000
0100
0000
0000
0000
0000
0000
0000
0000
0000
0000
0000
0000
0001
0000
0000
0000
0000
0000
0000
0000
0000
0000
0000
0000
1000
0000
0000
0000
0000
0000
0000
0000
0100
0000
0000
0000
0000
0000
0000
0000
1000
0000
0000
0000
0000
0000
0000
0000
0100
0000
0000
0000
0000
0000
0000
0000
0000
0000
0000
0000
0010
0000
0000
0000
0000
0000
0000
0000
0000
0000
0000
0000
0001
0000
0000
0000
0000
0000
0000
0000
0000
0000
0000
0000
1000
0000
0000
0000
0000
0000
0000
0000
0000
0000
0000
0000
0100
0000
0000
0000
0000
0000
00M0
0000
0000
0000
0000
0000
0100
0000
0000
0000
0000
0000
0000
0000
0000
0000
0000
0000
,
0001
0000
0000
0000
0000
0000
0000
0000
0000
0000
0000
0000
0000
0000
0000
0000
0000
0000
0000
0000
0000
0000
0000
0000
1000
0000
0000
0000
0000
0000
0000
0000
0000
0000
0000
0000
0010
0000
0000
0000
0000
0000
0000
0000
0000
0000
0000
0000
0100
0000
0000
0000
0000
0000
0000
0000
0000
0000
0000
0000
0000
0000
0000
0000
0000
0000
0000
0000
0000
0000
0000
0000
0100
0000
0000
0000
0000
0000
0000
0000
0000
0000
0000
0000
0000
0000
0000
0000
0000
0000
0000
0000
0000
0000
0000
0000
0001
0000
0000
0000
0000
0000
0000
0000
1000
0000
0000
0000
0000
0000
0000
0000
0001
0000
0000
0000
0000
0000
0000
0000
0010
0000
0000
0000
0000
0000
0M00
0000
0000
0000
0000
0000
0010
0000
0000
0000
0000
0000
0000
0000
0000
0000
0000
0000
1000
0000
0000
0000
0000
0000
0000
0000
0000
0000
0000
0000
0000
0000
0000
0000
0000
0000
0000
0000
0000
0000
0000
0000
0001
0000
0000
0000
0000
0000
0000
0000
0000
0000
0000
0000
0000
0000
0000
0000
0000
0000
0000
0000
0000
0000
0000
0000
,
0010
0000
0000
0000
0000
0000
0100
0000
0000
1000
0000
0000
0001
0000
0100
0000
0001
0000
0100
0000
0000
0010
0000
0000
1000
0000
0001
0000
1000
0000
0001
0000
0000
0010
0000
0000
MM01
0000
0000
0000
0000
0000
1000
0000
0000
0000
0000
0000
,
0101
0000
0000
0000
0000
0000
1000
0000
0000
1000
0000
0000
0100
0000
0000
0010
0000
0000
0001
0000
0000
1000
0000
0000
0001
0000
0100
0000
0001
0000
0100
0000
0000
0010
0000
0000
1000
0000
0000
0000
0000
0000
0000
0000
0000
0001
0000
0000
,
1000
0000
0000
0000
0000
0000
0000
0000
0000
0000
0000
0000
0000
0000
0000
0000
0000
0000
0000
0000
0000
0000
0000
0000
0001
0000
0000
0000
0000
0000
0000
0000
0000
0000
0000
0000
1000
0000
0000
0000
0000
0000
0000
0000
0000
0000
0000
0000
0100
0000
0000
0000
0000
0000
0000
0000
0000
0000
0000
0000
0000
0000
0000
0000
0000
0000
0000
0000
0000
0000
0000
0000
0010
0000
0000
0000
0000
0000
0000
0000
0000
0000
0000
0000
0100
0000
0000
0000
0000
0000
0000
0000
0000
0000
0000
0000
1000
0000
0000
0000
0000
0000
0000
0000
0001
0000
0000
0000
0000
0000
0000
0000
1000
0000
0000
0000
0000
0000
0000
0000
0001
0000
0000
0000
0000
0000
0000
0000
0000
0000
0000
0000
0100
0000
0000
0000
0000
0000
0000
0000
0000
0000
0000
0000
0001
0000
0000
0000
0000
0000
0000
0000
0000
0000
0000
0000
1000
0000
0000
0000
0000
0000
0000
0000
0000
0000
0000
0000
0100
0000
0000
0000
0000
0000
00M0
0000
0000
0000
0000
0000
0100
0000
0000
0000
0000
0000
0000
0000
0000
0000
0000
0000
,
0001
0000
1000
1000
0001
0000
0001
0000
0010
0000
0100
1000
0001
0000
0100
0000
,
0010
0000
1000
0001
0010
0000
0100
0010
2000
0000
3020
0130
1000
0000
0001
0000
,
0101
0000
0000
0000
0000
0000
1000
0000
0000
1000
0000
0000
0010
0000
0000
0100
0000
0000
0001
0000
0000
0000
0000
0000
1000
0000
0100
0000
1000
0000
0100
0000
0000
0010
0000
0000
0001
0000
0000
0000
0000
0000
0010
0000
0000
0001
0000
0000
,
1000
0000
0000
0000
0000
0000
0000
0000
0000
0000
0000
0000
0000
0000
0000
0000
0000
0000
0000
0000
0000
0000
0000
0000
0010
0000
0000
0000
0000
0000
0000
0000
0000
0000
0000
0000
0100
0000
0000
0000
0000
0000
0000
0000
0000
0000
0000
0000
0001
0000
0000
0000
0000
0000
0000
0000
0000
0000
0000
0000
0000
0000
0000
0000
0000
0000
0000
0000
0000
0000
0000
0000
1000
0000
0000
0000
0000
0000
0000
0000
0000
0000
0000
0000
0001
0000
0000
0000
0000
0000
0000
0000
0000
0000
0000
0000
1000
0000
0000
0000
0000
0000
0000
0000
0100
0000
0000
0000
0000
0000
0000
0000
1000
0000
0000
0000
0000
0000
0000
0000
0100
0000
0000
0000
0000
0000
0000
0000
0000
0000
0000
0000
0010
0000
0000
0000
0000
0000
0000
0000
0000
0000
0000
0000
0001
0000
0000
0000
0000
0000
0000
0000
0000
0000
0000
0000
1000
0000
0000
0000
0000
0000
0000
0000
0000
0000
0000
0000
0100
0000
0000
0000
0000
0000
00M0
0000
0000
0000
0000
0000
0100
0000
0000
0000
0000
0000
0000
0000
0000
0000
0000
0000
,
0001
0000
0000
0000
0000
0000
1000
0000
0000
1000
0000
0000
0010
0000
0000
0000
0000
0000
0010
0000
0000
0000
0000
0000
0100
0000
0001
0000
0100
0000
0001
0000
0000
1000
0000
0000
0001
0000
0000
0000
0000
0000
0100
0000
0000
0000
0000
0000
,
0010
0000
0000
0000
0000
0000
1000
0000
0000
0001
0000
0000
0010
0000
0100
0000
0010
0000
0100
0000
0000
1000
0000
0000
0001
0000
0100
0000
0001
0000
0100
0000
0000
0010
0000
0000
1M0M
0000
0000
0000
0000
0000
0001
0000
0000
0000
0000
0000
,
0014
0000
0000
0000
0000
0000
0000
0000
0040
0000
0000
0000
0000
0000
0000
0003
,
0130
0000
0000
0000
0000
0000
1000
0000
0001
0000
0000
0000
0100
0000
0000
0000
0100
0000
0000
0000
0000
0000
0010
0000
1000
0000
0000
0000
0001
1000
0001
1000
,
0001
0000
0000
1000
0100
0000
0010
0000
0010
0000
0000
0001
1000
0000
0010
0000
,
0010
0000
0010
0000
0100
0000
0010
0000
0010
0000
0000
1000
0001
0000
0010
0000
,
0100
0000
0000
0000
;

//---------------dance-single - Feraligatr----------------
#NOTES:
     dance-single:
     :
     Hard:
     9:
     0.594657,0.585366,0.073171,0.081301,0.601626,493.000000,9.000000,10.000000,4.000000,0.000000,0.000000,0.594657,0.585366,0.073171,0.081301,0.601626,493.000000,9.000000,10.000000,4.000000,0.000000,0.000000:
0000
0000
0000
0000
,
0000
0000
0000
0000
,
0000
0000
0000
0000
,
0000
0000
0000
0000
,
0001
0000
1000
0010
0100
0000
0100
0001
0000
0000
1000
0000
1000
0000
0100
0000
,
0100
0000
0010
0001
1000
0000
0001
0100
0000
0000
0001
0100
0000
0000
0010
0000
,
1000
0000
0001
1000
0100
0000
0100
0010
0000
0000
0001
0000
0001
0000
1000
0000
,
1000
0000
0010
0100
0001
0000
1000
0001
0010
0000
0010
0200
0000
0000
0000
0300
,
1100
0000
1000
0001
0000
0001
0100
0000
0100
0010
0000
0010
1000
0000
1000
0000
,
1000
0000
0001
0010
0000
0010
0100
0000
0100
1000
0000
1000
0001
0000
0001
0000
,
0101
0000
0100
0010
0000
0010
1000
0000
1000
0001
0000
0001
0010
0000
0010
0000
,
0010
0000
0100
1000
0000
1000
0001
0000
0001
0100
0000
0100
0010
0000
0010
0000
,
0010
0100
0001
1000
0100
1000
0001
0001
,
0001
0010
0100
1000
0001
0100
0010
0010
,
0010
1000
0001
0010
0100
1000
0001
0001
,
0001
0100
0010
1000
0001
0010
00MM
1000
,
1001
0000
0000
0000
0001
0100
0010
0000
1000
0000
0000
0001
0000
0001
0000
0001
,
0010
0000
0100
1000
0000
1000
0001
0000
0100
0000
0001
1000
0001
0010
0100
1000
,
0001
0000
0100
0000
0010
1000
0001
0000
0010
0000
0000
0100
0000
0100
0000
0100
,
1000
0000
0001
1000
0000
1000
0010
0000
0100
0001
0100
0000
0010
0000
1000
0000
,
0100
0000
0000
0000
0010
0001
0010
0000
0100
0000
0000
1000
0000
1000
0000
1000
,
0001
0000
0100
0010
0000
0010
1000
0000
0001
0000
0010
0001
1000
0010
0100
0001
,
1000
0000
0100
0000
0010
0001
1000
0000
0001
0000
0000
0100
0000
0100
0000
0100
,
0010
0000
1000
0001
0000
0001
0010
0000
0010
0100
0000
0100
1000
0000
0001
0000
,
0101
0000
0000
0000
0100
0010
1000
0000
0001
0000
0000
0010
0200
0300
1000
0001
,
0100
0000
0010
1000
0000
1000
0001
0000
0010
0000
0100
1000
0001
0100
0010
1000
,
0001
0000
1000
0000
0100
0010
0001
0000
1000
0000
0000
0010
0200
0300
0001
1000
,
0100
0000
0010
0001
0000
0001
1000
0000
0010
0100
0010
0000
1000
0000
0001
0000
,
0010
0000
0000
0000
0100
1000
0001
0000
1000
0000
0000
0010
0000
0010
0000
0010
,
0100
0000
0001
1000
0000
1000
0100
0000
0010
0000
0001
1000
0001
0010
0100
1000
,
0001
0000
0100
0000
0010
1000
0001
0000
0010
0000
0000
0100
0000
0100
0000
0100
,
1000
0000
0001
0010
0000
0010
0100
0000
1000
0000
0001
0000
0100
0000
0010
0000
,
2000
0000
0000
0000
,
0000
0000
0000
0000
,
0000
0000
0000
0000
,
0000
0000
0000
0000
,
3001
1000
0100
0010
0100
1000
0001
0001
,
0001
1000
0001
0100
0010
0100
0001
0001
,
0001
1000
0100
0010
0001
1000
0010
0010
,
0010
0100
0001
1000
0100
0010
0MM0
0001
,
1001
0000
0000
0000
0001
0000
0010
0000
0100
1000
0100
1000
0001
0000
0000
0010
,
0001
0000
0001
0000
0001
0000
0001
1000
0001
0100
0010
0000
1000
0100
0010
0001
,
1000
0000
0010
0000
0100
0000
0010
0000
1000
0001
1000
0001
0100
0000
0000
0010
,
1000
0000
0001
1000
0100
0000
0010
0000
2000
0000
3020
0130
1000
0000
0001
0000
,
0101
0000
0001
0000
1000
0000
0100
0000
0010
0001
0010
0001
1000
0000
0000
0010
,
0100
0000
0100
0000
0100
0000
0100
0001
0100
0010
1000
0000
0001
0010
0100
1000
,
0001
0000
0100
0010
1000
0000
0001
0000
1000
0100
1000
0100
0010
0000
0001
0000
,
1000
0000
1000
0001
0000
0001
0100
0000
0100
0010
0000
0010
1000
0000
0001
0000
,
1001
0000
1000
0001
0000
0100
0000
0010
1000
0001
1000
0001
0010
0000
0000
0100
,
1000
0000
1000
0000
1000
0000
1000
0001
1000
0010
0100
0000
0001
0010
0100
1000
,
0001
0000
0100
0010
1000
0000
0001
0000
0010
0000
0010
0100
1000
0000
0001
0000
,
0100
0000
0001
1000
0100
0000
0010
0000
2000
0000
3020
0130
1000
0000
0001
0000
,
0101
0000
0100
0010
0000
1000
0000
0001
1000
0100
1000
0100
0010
0000
0000
0001
,
1000
0000
1000
0000
1000
0000
1000
0100
1000
0001
0010
0000
0001
0100
0010
1000
,
0001
0000
1000
0100
0010
0000
0100
0000
1000
0001
1000
0001
0100
0000
0010
0000
,
1000
0000
0001
0010
0000
0000
0100
0000
1000
0000
0001
0000
0100
0000
0010
0000
,
2010
0000
0000
0000
0000
0000
0000
0000
0200
0000
0000
0000
0000
0000
0000
3000
,
0310
0000
0000
0001
1000
0000
0010
0000
0010
0000
0000
0100
0001
0000
1000
0001
,
1000
0000
0000
0100
0010
0000
0001
0000
0001
0000
0000
0001
1000
0000
0010
0000
,
0010
0000
0010
0000
0100
0000
0010
0000
0010
0000
0000
1000
0010
0000
0100
0000
,
0001
0000
0000
0000
;

//---------------dance-single - Feraligatr----------------
#NOTES:
     dance-single:
     :
     Medium:
     6:
     0.379791,0.341463,0.089431,0.065041,0.134146,308.000000,11.000000,8.000000,0.000000,0.000000,0.000000,0.379791,0.341463,0.089431,0.065041,0.134146,308.000000,11.000000,8.000000,0.000000,0.000000,0.000000:
0000
0000
0000
0000
,
0000
0000
0000
0000
,
0000
0000
0000
0000
,
0000
0000
0000
0000
,
1000
0000
0000
0100
0000
0000
0010
0000
0000
0001
0000
0000
0001
0000
1000
0000
,
0000
0010
0000
0000
0100
0000
0001
0000
0000
1000
0000
0000
0100
0000
0010
0000
,
0001
0000
0000
1000
0000
0000
0010
0000
0000
0100
0000
0000
0001
0000
1000
0000
,
1000
0000
0100
0000
0010
0000
0001
0000
2000
0000
0000
0000
0000
0000
0000
3000
,
1100
0000
0000
0100
0000
0000
0010
0000
0000
0001
0000
0000
1000
0000
1000
0000
,
1000
0000
0000
0010
0000
0000
0100
0000
0000
0001
0000
0000
0010
0000
0010
0000
,
0010
0000
0000
0100
0000
0000
1000
0000
0000
0001
0000
0000
0100
0000
0100
0000
,
0100
0000
0000
0010
0000
0000
1000
0000
0000
0001
0000
0000
0010
0000
0010
0000
,
0010
0000
0000
0100
0000
0000
0010
0000
0000
0001
0000
0000
1000
0000
1000
0000
,
1000
0000
0000
0010
0000
0000
0100
0000
0000
0001
0000
0000
1000
0000
1000
0000
,
1000
0000
0000
0100
0000
0000
0010
0000
0000
0001
0000
0000
1000
0000
1000
0000
,
1000
0000
0000
0010
0000
0000
0100
0000
0000
0001
0000
0000
1000
0000
0000
0000
,
1001
0000
0001
0010
0100
0000
1000
0001
,
0100
0000
0010
1000
0001
0000
0010
0010
,
0110
0000
0100
1000
0001
0000
1000
0010
,
0100
0000
0010
1000
0002
0000
1003
1000
,
1100
0000
0100
0010
0001
0000
1000
0001
,
0100
0000
0010
1000
0001
0000
0100
0100
,
0110
0000
0010
1000
0001
0000
1000
0100
,
0010
0000
0000
0001
0000
0000
1000
0000
0000
0010
0000
0000
0100
0000
0000
0000
,
0101
0000
0100
0001
1000
0000
0100
0010
,
0001
0000
1000
0010
0100
0000
0001
0001
,
1001
0000
1000
0001
0010
0000
0001
1000
,
0010
0000
0100
0001
2000
0000
3001
0001
,
0011
0000
0010
0100
1000
0000
0001
0100
,
0010
0000
0100
0001
1000
0000
0100
0100
,
0110
0000
0010
0001
1000
0000
0001
0100
,
0010
0000
0100
0001
1000
1000
0002
0000
,
0203
0000
0000
0000
,
0000
0000
0000
0000
,
0000
0000
0000
0000
,
0000
0000
0000
0000
,
0310
0000
0000
1000
0000
0000
0001
0000
0000
0010
0000
0000
0100
0000
0100
0000
,
0100
0000
0000
1000
0000
0000
0001
0000
0000
0100
0000
0000
0010
0000
0010
0000
,
0010
0000
0000
1000
0000
0000
0001
0000
0000
0010
0000
0000
0100
0000
0100
0000
,
0100
0000
0000
1000
0000
0000
0002
0000
0000
0000
0000
0000
0103
0000
0000
0000
,
1001
0000
1000
0000
0100
0010
0001
0000
,
1000
0010
0100
0010
1000
0001
0010
0100
,
1000
0000
0001
0000
0100
0010
1000
0000
,
0001
0010
0001
1000
0010
0100
0001
1000
,
0100
0000
0010
0000
0100
1000
0001
0000
,
0100
0010
1000
0001
0100
0001
1000
0100
,
0010
0000
0100
0000
1000
0001
0100
0000
,
0010
0000
0000
0100
0000
0000
0001
0000
0000
1000
0000
0000
0001
0000
0000
0000
,
1001
0000
1000
0000
0100
0010
0001
0000
,
1000
0010
0100
0010
1000
0001
0010
0100
,
1000
0000
0001
0000
0100
0010
0100
0000
,
0001
1000
0100
0010
0001
1000
0010
0100
,
0010
0000
1000
0000
0001
0010
0100
0000
,
0010
0001
1000
0010
0100
0001
1000
0100
,
1000
0000
0001
0000
0100
0010
1000
0000
,
0001
0010
0001
1000
0010
0100
0001
1000
,
0200
0000
0000
0000
0000
0000
0000
0000
0020
0000
0000
0000
0000
0000
0000
0300
,
0031
0000
0010
0000
0100
1000
0001
0000
,
0100
0010
1000
0001
,
1000
1000
0100
1000
1000
0000
0001
0100
,
0010
0000
0000
0000
;

//---------------dance-single - Feraligatr----------------
#NOTES:
     dance-single:
     :
     Easy:
     4:
     0.242741,0.219512,0.048780,0.065041,0.000000,195.000000,6.000000,8.000000,0.000000,0.000000,0.000000,0.242741,0.219512,0.048780,0.065041,0.000000,195.000000,6.000000,8.000000,0.000000,0.000000,0.000000:
// measure 0
0000
0000
0000
0000
,  // measure 1
0000
0000
0000
0000
,  // measure 2
0000
0000
0000
0000
,  // measure 3
0000
0000
0000
0000
,  // measure 4
1000
0000
0001
0100
,  // measure 5
0010
0000
1000
0001
,  // measure 6
0010
0000
0100
1000
,  // measure 7
0001
0000
0100
0000
0020
0000
0000
0030
,  // measure 8
1010
1000
0000
0001
,  // measure 9
0010
0100
0000
1000
,  // measure 10
0001
0100
0000
0010
,  // measure 11
0100
0001
0000
1000
,  // measure 12
0100
0010
0001
1000
,  // measure 13
0001
0100
0010
1000
,  // measure 14
0100
0010
0100
1000
,  // measure 15
0001
0100
0010
1000
,  // measure 16
1001
0001
0010
0100
,  // measure 17
1000
0001
0100
0010
,  // measure 18
1000
0001
0100
0010
,  // measure 19
0100
0001
2000
3100
,  // measure 20
0010
0001
0010
0100
,  // measure 21
1000
0001
0100
0010
,  // measure 22
1000
0001
0010
0001
,  // measure 23
1000
0020
0000
0130
,  // measure 24
0110
0100
0001
1000
,  // measure 25
0100
0010
0100
1000
,  // measure 26
0001
0100
0010
0100
,  // measure 27
0001
1000
0200
0310
,  // measure 28
0001
1000
0010
0100
,  // measure 29
0010
1000
0001
0010
,  // measure 30
0100
1000
0001
0100
,  // measure 31
0010
1000
0001
0010
,  // measure 32
0012
0000
0000
0000
,  // measure 33
0000
0000
0000
0000
,  // measure 34
0000
0000
0000
0000
,  // measure 35
0000
0000
0000
0000
,  // measure 36
1003
0010
0100
0010
,  // measure 37
1000
0001
0010
0100
,  // measure 38
1000
0001
0100
0001
,  // measure 39
1000
0100
0010
0001
,  // measure 40
1001
1000
0010
0100
,  // measure 41
0001
0001
0001
1000
,  // measure 42
0100
0010
0100
1000
,  // measure 43
0001
0100
1000
0100
,  // measure 44
0001
0010
0100
1000
,  // measure 45
0010
0010
0010
0100
,  // measure 46
0001
1000
0100
1000
,  // measure 47
0001
0200
0000
0310
,  // measure 48
0110
0010
1000
0001
,  // measure 49
0010
0100
0010
0001
,  // measure 50
1000
0010
0100
0001
,  // measure 51
1000
0100
0001
0100
,  // measure 52
1000
0010
0100
0001
,  // measure 53
1000
1000
1000
0010
,  // measure 54
0100
0001
1000
0100
,  // measure 55
0010
0100
1000
0001
,  // measure 56
0200
0000
0000
0000
0020
0000
0000
0300
,  // measure 57
0130
0001
0000
1000
,  // measure 58
0000
0001
0000
0010
,  // measure 59
0100
0100
1000
0001
,  // measure 60
0100
0000
0000
0000
;

//---------------dance-single - Feraligatr----------------
#NOTES:
     dance-single:
     :
     Beginner:
     2:
     0.131243,0.146341,0.138211,0.016260,0.000000,94.000000,17.000000,2.000000,0.000000,0.000000,0.000000,0.131243,0.146341,0.138211,0.016260,0.000000,94.000000,17.000000,2.000000,0.000000,0.000000,0.000000:
// measure 0
0000
0000
0000
0000
,  // measure 1
0000
0000
0000
0000
,  // measure 2
0000
0000
0000
0000
,  // measure 3
0000
0000
0000
0000
,  // measure 4
1000
0000
0000
0000
,  // measure 5
0001
0000
0000
0000
,  // measure 6
1000
0000
0000
0000
,  // measure 7
0010
0000
0000
0000
,  // measure 8
0110
0000
0000
0000
,  // measure 9
1000
0000
0000
0000
,  // measure 10
0001
0000
0000
0000
,  // measure 11
1000
0000
0000
0000
,  // measure 12
0100
0000
0000
0000
,  // measure 13
0010
0000
0000
0000
,  // measure 14
0001
0000
1000
0000
,  // measure 15
0010
0000
0000
0000
,  // measure 16
1001
0000
1000
0000
,  // measure 17
0010
0000
0100
0000
,  // measure 18
0110
0000
1000
0000
,  // measure 19
0001
0000
0010
0000
,  // measure 20
1001
0000
1000
0000
,  // measure 21
0010
0000
0100
0000
,  // measure 22
1001
0000
1000
0000
,  // measure 23
0100
0000
0010
0000
,  // measure 24
1001
0000
0001
0000
,  // measure 25
0100
0000
0010
0000
,  // measure 26
0110
0000
0100
0000
,  // measure 27
0001
0000
1000
0000
,  // measure 28
1001
0000
0001
0000
,  // measure 29
0010
0000
0100
0000
,  // measure 30
1001
0000
1000
0000
,  // measure 31
0010
0000
0100
0000
,  // measure 32
0120
0000
0000
0000
,  // measure 33
0000
0000
0000
0000
,  // measure 34
0000
0000
0000
0000
,  // measure 35
0000
0000
0000
0000
,  // measure 36
0130
0000
0001
0000
,  // measure 37
1000
0000
0100
0000
,  // measure 38
0010
0000
0001
0000
,  // measure 39
1000
0000
0000
0000
,  // measure 40
1001
0000
0001
0000
,  // measure 41
0010
0000
0100
0000
,  // measure 42
0010
0000
0001
0000
,  // measure 43
1000
0000
0010
0000
,  // measure 44
0110
0000
0100
0000
,  // measure 45
0001
0000
1000
0000
,  // measure 46
1001
0000
0001
0000
,  // measure 47
0100
0000
0010
0000
,  // measure 48
1001
0000
1000
0000
,  // measure 49
0100
0000
0010
0000
,  // measure 50
0110
0000
1000
0000
,  // measure 51
0001
0000
1000
0000
,  // measure 52
0010
0000
0100
0000
,  // measure 53
0001
0000
1000
0000
,  // measure 54
1001
0000
0001
0000
,  // measure 55
0010
0000
0100
0000
,  // measure 56
0210
0000
0000
0000
,  // measure 57
0300
0000
1000
0000
,  // measure 58
0001
0000
1000
0000
,  // measure 59
0010
0010
0010
0100
,  // measure 60
0001
0000
0000
0000
;
