#TITLE:666!;
#SUBTITLE:(Getter VIP);
#ARTIST:Getter & Ghastly;
#TITLETRANSLIT:;
#SUBTITLETRANSLIT:;
#ARTISTTRANSLIT:;
#GENRE:Trap;
#CREDIT:Feraligatr;
#BANNER:666! (Getter VIP).png;
#BACKGROUND:666! (Getter VIP)-bg.png;
#LYRICSPATH:;
#CDTITLE:cdtitle.png;
#MUSIC:666! (Getter VIP).ogg;
#OFFSET:0.009000;
#SAMPLESTART:29.990999;
#SAMPLELENGTH:15.000000;
#SELECTABLE:YES;
#DISPLAYBPM:128.000000;
#BPMS:0.000000=128.000000
,14.000000=192.000000
,16.000000=128.000000
,46.750000=192.000000
,48.000000=128.000000
,64.000000=192.000000
,64.750000=64.000000
,65.000000=96.000000
,65.500000=192.000000
,66.000000=128.000000
,72.000000=96.000000
,72.500000=192.000000
,73.000000=128.000000
,80.000000=192.000000
,80.750000=64.000000
,81.000000=96.000000
,81.500000=192.000000
,82.000000=128.000000
,88.000000=96.000000
,88.500000=192.000000
,89.000000=128.000000
,96.000000=192.000000
,96.750000=64.000000
,97.000000=96.000000
,97.500000=192.000000
,98.000000=128.000000
,104.000000=96.000000
,104.500000=192.000000
,105.000000=128.000000
,112.000000=192.000000
,112.750000=64.000000
,113.000000=96.000000
,113.500000=192.000000
,114.000000=128.000000
,120.000000=96.000000
,120.500000=192.000000
,121.000000=128.000000
,127.000000=192.000000
,128.000000=128.000000
,143.000000=192.000000
,143.375000=64.000000
,143.500000=128.000000
,160.000000=192.000000
,160.750000=64.000000
,161.000000=96.000000
,161.500000=192.000000
,162.000000=128.000000
,168.000000=96.000000
,168.500000=192.000000
,169.000000=128.000000
,176.000000=192.000000
,176.750000=64.000000
,177.000000=96.000000
,177.500000=192.000000
,178.000000=128.000000
,184.000000=96.000000
,184.500000=192.000000
,185.000000=128.000000
,192.000000=192.000000
,192.750000=64.000000
,193.000000=96.000000
,193.500000=192.000000
,194.000000=128.000000
,200.000000=96.000000
,200.500000=192.000000
,201.000000=128.000000
,208.000000=192.000000
,208.750000=64.000000
,209.000000=96.000000
,209.500000=192.000000
,210.000000=128.000000
,216.000000=96.000000
,216.500000=192.000000
,217.000000=128.000000
;
#STOPS:14.000000=0.053000,
14.333333=0.052000,
14.666667=0.052000,
15.000000=0.052000,
15.333333=0.052000,
15.666667=0.052000,
46.750000=0.019000,
46.875000=0.020000,
47.000000=0.039000,
47.250000=0.039000,
47.500000=0.039000,
47.750000=0.039000,
127.000000=0.039000,
127.250000=0.039000,
127.500000=0.039000,
127.750000=0.039000
;
#BGCHANGES:;
#KEYSOUNDS:;
#ATTACKS:;

//---------------dance-single - Feraligatr----------------
#NOTES:
     dance-single:
     Feraligatr:
     Challenge:
     10:
     0.715476,0.650000,0.375000,0.166667,0.945833,536.000000,45.000000,20.000000,67.000000,0.000000,6.000000,0.715476,0.650000,0.375000,0.166667,0.945833,536.000000,45.000000,20.000000,67.000000,0.000000,6.000000:
0000
0000
0000
0000
,
0000
0000
0000
0000
,
0000
0000
0000
0000
,
0000
0000
0000
0000
0000
0000
0M00
0M00
0M00
0M00
0M00
0M00
,
0011
0000
0010
0001
1000
0000
1000
0010
0000
0000
0100
0000
0400
0000
0301
0000
,
0001
0000
1000
0001
0010
0000
0010
0100
0000
0000
0010
0100
0000
0000
1000
0000
,
0001
0000
1000
0010
0100
0000
0100
0001
0000
0000
1000
0000
4000
0000
3100
0000
,
0100
0000
0000
0000
1000
0000
0001
0000
0100
00M0
0100
0000
1000
0000
0001
0000
0100
0000
0000
0000
0100
0000
0020
0000
0000
0000
0030
0000
1010
0000
0000
0000
,
0101
0000
0100
0010
0000
0010
1000
0000
0001
1000
0000
1000
0100
0000
0100
0000
,
0100
0000
0010
0001
0000
0001
1000
0000
0001
0100
0000
0100
0010
0000
0010
0000
,
0010
0000
0100
0001
0000
0001
1000
0000
0100
0010
0000
0010
0001
0000
0001
0000
,
0001
0000
0000
0000
1000
0000
0010
0000
0000
0000
0010
0000
0100
0000
0000
0000
0001
0000
1000
0000
0000
0000
1000
0100
0010
0000
0001
0000
0010
0000
0001
0000
,
1000
0010
0000
0100
0000
0100
0001
0000
1000
0001
0000
1000
0000
1000
0100
0000
,
0010
0001
0000
1000
0000
1000
0010
0000
0100
0001
0000
1000
0000
1000
0100
0000
,
M010
M000
M001
0000
0000
0000
1000
0000
0000
0000
1000
0000
0010
0000
0000
0000
M100
M000
0001
0000
0000
0000
1000
0000
0000
0000
1000
0000
0001
0000
0100
0000
,
M010
0100
0001
1000
0001
0010
0100
0010
0001
1000
0010
0100
M0M1
0000
0101
0000
,
2001
0000
0000
0000
0000
0000
00M0
0000
3100
0000
1000
0100
M00M
0100
0001
0000
,
1000
0010
0000
0100
0000
0001
0010
0100
1000
0000
0100
0000
0001
0000
0100
0000
,
2100
0000
00M0
0000
3001
0000
0001
0000
0100
0001
1000
0100
M00M
0100
0001
1000
,
0010
0000
0100
0001
1000
0100
1000
0001
0100
0000
0010
0000
1000
0100
0010
0100
,
2100
0000
0000
0000
0000
0000
00M0
0000
3001
0000
1000
0000
0001
0100
M00M
0100
,
2000
0000
3100
0010
0001
1000
0100
0010
0001
0000
0100
0000
1000
0000
0100
0000
,
0102
0000
00M0
0000
1003
0100
0010
0000
0001
0000
1000
0010
M00M
0010
0100
1000
,
0001
0000
1000
0010
0000
0010
0100
0000
0001
1000
0000
1000
0100
0000
0110
0000
,
0012
0000
0000
0000
0403
0000
M000
0000
0310
0000
1000
0100
M00M
0100
0001
0000
,
1000
0100
0000
0010
0000
0001
0100
0010
1000
0000
0100
0000
0001
0000
0100
0000
,
2100
0000
00M0
0000
3001
0000
0001
0000
0100
0001
1000
0100
M00M
0100
0001
1000
,
0100
0000
0010
0100
1000
0001
0100
0001
0100
0000
0010
0000
1000
0100
1000
0100
,
0120
0000
0000
0000
0034
0000
0M00
0000
1003
0000
0100
0000
1000
0010
M00M
0010
,
0001
0000
0010
0001
1000
0100
0010
0001
1000
0000
0010
0000
0001
0000
0010
0000
,
2010
0000
0M00
0000
3001
0100
0010
0000
1000
0000
0001
0010
M00M
0010
0100
0001
,
1000
0000
0001
0010
0000
0010
0100
0000
1000
0001
0000
0001
0100
0010
1000
0010
,
0110
0000
0000
1010
0000
0000
1001
0000
0000
0011
0000
0000
0110
0000
0100
0000
,
0110
0000
0000
1100
0000
0000
1001
0000
0000
0101
0000
0000
0110
0000
0100
0000
,
0110
0000
0000
1010
0000
0000
1001
0000
0000
0011
0000
0000
0110
0000
0100
0000
,
0110
0000
0000
1100
0000
0000
1001
0000
0000
0101
0000
0000
0M12
0000
1003
0000
,
1001
0000
1000
0100
0000
0100
0010
0000
0001
1000
0000
1000
0010
0000
0010
0000
,
0101
0000
0100
0010
0000
0010
1000
0000
0001
1000
0000
1000
0100
0000
0100
0000
,
011M
000M
000M
0000
0010
0000
0001
0000
0000
0000
0001
0000
1000
0000
0000
0000
010M
000M
0010
0000
0000
0000
0010
0000
0100
0000
0000
0000
0100
0000
0000
0000
,
100M
0001
0100
0010
000M
1000
0001
1000
0MM0
0000
0000
00MM
0100
0000
0010
0000
,
1002
0000
0000
0000
0000
0000
00M0
0000
0103
0000
0001
0100
M00M
0100
0010
0000
,
0001
1000
0000
0100
0000
1000
0010
0100
0001
0000
0100
0000
0001
0010
0100
1000
,
1002
0000
0000
0000
0000
0000
0000
0000
0M00
0000
0000
0000
0000
0000
0000
0000
0013
0100
0000
0000
0000
0000
0000
0000
0010
0000
0000
0000
0000
0000
0000
0000
0001
0000
0000
0000
1000
0000
0000
0000
0010
0000
0000
0000
0100
0000
0000
0000
M00M
0000
0000
0000
0100
0000
0000
0000
1000
0000
0000
0000
0001
0000
0000
0000
,
0100
0000
0010
0100
0000
0010
0100
0001
1000
0100
0010
0000
0001
0100
0010
1000
,
1002
0000
0000
0000
0000
0000
0000
0000
0000
0000
0000
0000
0000
0000
0000
0000
0000
0000
0000
0000
0000
0000
0000
0000
0M00
0000
0000
0000
0000
0000
0000
0000
0013
0000
0000
0000
0000
0000
0000
0000
0100
1000
0000
0000
0000
0000
0000
0000
0001
0000
0000
0000
1000
0000
0000
0000
0000
0000
0000
0000
0001
0000
0000
0000
,
0010
0100
0001
0100
0010
0000
0001
1000
0010
0000
1000
0000
0001
0000
0010
0000
,
2100
0000
0000
0000
0000
0000
0000
0000
000M
0000
0000
0000
0000
0000
0000
0000
3010
0000
0000
0000
0100
0000
0000
0000
0001
1000
0000
0000
0000
0000
0000
0000
0010
0000
0000
0000
0000
0000
0000
0000
0100
0000
0000
0000
0010
0000
0000
0000
1000
0000
0000
0000
0001
0000
0000
0000
1000
0001
0000
0000
0010
0000
0000
0000
,
0100
0000
1000
0001
0000
0001
0100
0000
0010
1000
0000
1000
0001
0000
0011
0000
,
0120
0000
0000
0000
0034
0000
0M00
0000
1003
0000
0001
0100
M00M
0100
0010
0000
,
0001
1000
0000
0010
0000
0100
0001
1000
0100
0000
0010
0000
0001
0100
0010
1000
,
1002
0000
0000
0000
0000
0000
0000
0000
00M0
0000
0000
0000
0000
0000
0000
0000
0103
0010
0000
0000
0000
0000
0000
0000
1000
0000
0000
0000
0000
0000
0000
0000
0001
0000
0000
0000
1000
0000
0000
0000
0010
0000
0000
0000
0100
0000
0000
0000
M00M
0000
0000
0000
0100
0000
0000
0000
1000
0000
0000
0000
0001
0000
0000
0000
,
0010
0000
0100
0010
0000
0100
0010
0001
1000
0010
0100
0000
0001
0010
0100
0010
,
0012
0000
0000
0000
0000
0000
0000
0000
0000
0000
0000
0000
0000
0000
0000
0000
4003
0000
0000
0000
0000
0000
0000
0000
0M00
0000
0000
0000
0000
0000
0000
0000
3010
0000
0000
0000
0000
0000
0000
0000
1000
0001
0000
0000
0000
0000
0000
0000
0010
0000
0000
0000
0001
0000
0000
0000
0000
0000
0000
0000
1000
0000
0000
0000
,
0010
0100
1000
0100
0010
1000
0001
0010
0100
0000
1000
0000
0010
0000
0100
0000
,
0102
0000
M000
0000
0013
0100
1000
0000
0001
0000
0100
0010
1000
0001
0010
0100
,
1000
0000
0001
0100
0000
0100
0010
1000
0001
1000
0100
1000
0020
0000
0000
0000
,
0130
0000
0000
0001
0000
0000
1000
0000
0000
0100
0000
0000
0010
0000
0000
0000
,
0100
0000
0000
1000
0000
0000
0001
0000
0000
0100
0000
0000
0010
0000
0000
0000
,
0100
0000
0000
0001
0000
0000
1000
0000
0000
0100
0000
0000
0010
0000
0000
0000
,
0001
0000
0000
1000
0000
0000
0010
0000
0000
0100
0000
0001
1000
0000
0100
0000
,
0010
0000
0000
0000
;

//---------------dance-single - Feraligatr----------------
#NOTES:
     dance-single:
     :
     Hard:
     9:
     0.623810,0.600000,0.050000,0.166667,0.754167,498.000000,6.000000,20.000000,6.000000,0.000000,6.000000,0.623810,0.600000,0.050000,0.166667,0.754167,498.000000,6.000000,20.000000,6.000000,0.000000,6.000000:
0000
0000
0000
0000
,
0000
0000
0000
0000
,
0000
0000
0000
0000
,
0000
0000
0000
0000
0000
0000
M000
M000
M000
M000
M000
M000
,
0001
0000
1000
0010
0100
0000
0001
1000
0000
0000
0100
0000
0100
0000
0010
0000
,
0010
0000
0001
1000
0001
0000
1000
0010
0000
0000
1000
0010
0000
0000
0100
0000
,
0001
0000
1000
0100
0010
0000
0001
1000
0000
0000
0010
0000
0010
0000
0100
0000
,
0100
0000
0001
1000
0001
0000
0010
0100
1000
0000
0001
0200
0000
0000
0310
0000
,
1010
0000
1000
0001
0000
0001
0010
0000
0010
0100
0000
0100
1000
0000
1000
0000
,
1000
0000
0001
0100
0000
0100
0010
0000
0010
1000
0000
1000
0001
0000
0001
0000
,
0001
0000
0010
0100
0000
0100
1000
0000
1000
0001
0000
0001
0100
0000
0100
0000
,
0100
0000
0010
0100
0000
0100
0001
0000
0001
1000
0000
1000
0001
0010
0001
0010
,
0100
1000
0001
0100
0010
1000
0001
0010
,
0001
1000
0010
0100
0001
1000
0100
0010
,
0100
1000
0001
0100
0010
1000
0100
0010
,
0004
4000
0000
0000
0000
0000
0000
0000
0000
0000
0000
0003
3010
0000
1000
0000
,
1002
0000
0000
0000
0000
0000
0000
0000
0013
0000
0100
1000
0000
1000
0001
0000
,
1000
0010
0000
0100
0000
0001
1000
0100
0010
0000
0001
0000
1000
0000
0010
0000
,
0200
0000
0000
0000
0301
0000
0001
0000
1000
0100
0010
0001
0000
0001
1000
0010
,
0100
0000
0001
0100
0010
1000
0010
1000
0001
0000
0010
0000
0100
1000
0100
1000
,
0002
0000
0000
0000
0000
0000
0000
0000
0103
0000
0010
0000
0000
1000
0000
0001
,
0010
0000
0100
0010
0001
1000
0100
0010
0001
0000
1000
0000
0010
0000
1000
0000
,
0002
0000
0000
0000
0013
0100
1000
0000
0001
0000
0100
0010
0000
0010
1000
0001
,
0010
0000
0010
0100
0000
0100
1000
0000
1000
0001
0000
0001
0100
0000
0010
0000
,
2010
0000
0000
0000
3004
0000
0000
0000
1003
0000
0100
0010
0000
0010
0001
0000
,
1000
0001
0000
0001
0100
0010
0100
0001
1000
0000
0100
0000
0010
0000
0001
0000
,
2000
0000
0000
0000
3010
0000
0010
0000
0100
0001
1000
0001
0000
0001
0010
0100
,
0010
0000
0001
1000
0010
0100
0001
0100
0001
0000
1000
0000
0100
0010
0100
0010
,
0002
0000
0000
0000
4003
0000
0000
0000
3010
0000
0100
0000
0001
1000
0000
1000
,
0100
0000
0010
0001
1000
0100
0010
0001
1000
0000
0010
0000
1000
0000
0001
0000
,
0020
0000
0000
0000
0130
1000
0001
0000
0100
0000
0010
1000
0000
1000
0001
0010
,
0100
0000
0100
1000
0000
1000
0001
0000
0001
0100
0000
0100
0010
1000
0010
1000
,
0001
0000
0000
0010
0000
0000
0100
0000
0000
1000
0000
0000
0001
0000
0001
0000
,
0001
0000
0000
0100
0000
0000
0010
0000
0000
1000
0000
0000
0001
0000
0001
0000
,
0001
0000
0000
0010
0000
0000
0100
0000
0000
1000
0000
0000
0001
0000
0001
0000
,
0001
0000
0000
0100
0000
0000
0010
0000
0000
1000
0000
0000
2002
0000
3003
0000
,
0001
0000
0001
0100
0000
0100
0010
0000
0010
1000
0000
1000
0001
0000
0001
0000
,
0001
0000
0010
0100
0000
0100
1000
0000
1000
0001
0000
0001
1000
0000
1000
0000
,
1000
0000
0001
0100
0000
0100
0010
0000
0010
1000
0000
1000
0001
0000
0001
0000
,
1000
0100
1000
0000
1000
0100
1000
0000
0000
0000
0000
0000
0001
0000
0100
0000
,
0120
0000
0000
0000
0000
0000
0000
0000
1030
0000
0001
1000
0000
1000
0100
0000
,
0010
0100
0000
0100
0000
1000
0001
0100
0010
0000
1000
0000
0001
0100
0010
1000
,
0002
0000
0000
0000
0013
0000
0100
0000
1000
0001
0100
0010
0000
1000
0001
0010
,
0100
0000
1000
0100
0000
1000
0100
0010
0001
1000
0001
0000
1000
0010
1000
0010
,
0200
0000
0000
0000
0000
0000
0000
0000
0301
0000
1000
0000
0000
0100
0000
0010
,
0001
1000
0010
0100
0001
0000
1000
0001
1000
0000
0100
0000
0010
0000
0100
0000
,
2000
0000
0000
0000
3001
1000
0010
0000
0100
0000
0001
1000
0000
1000
0001
0000
,
0010
0000
0010
0100
0000
0100
1000
0000
1000
0001
0000
0001
0100
0000
0010
0000
,
2010
0000
0000
0000
3004
0000
0000
0000
1003
0000
0001
0010
0000
0010
0100
0000
,
1000
0001
0000
0001
0000
0100
0010
1000
0001
0000
0010
0000
0100
1000
0001
1000
,
0020
0000
0000
0000
0130
0000
0001
0000
1000
0001
0010
0100
0000
1000
0010
0100
,
0001
0000
1000
0001
0000
1000
0001
0010
0100
1000
0001
0000
0100
0001
0100
0001
,
2000
0000
0000
0000
3400
0000
0000
0000
0310
0000
0001
0000
0000
1000
0000
0010
,
0100
0001
1000
0001
0010
0000
0100
1000
0001
0000
0010
0000
0100
0000
1000
0000
,
0002
0000
0000
0000
0103
0010
1000
0000
0001
0000
1000
0100
0000
0100
0010
0000
,
0001
0000
0001
1000
0000
1000
0010
0000
0010
0100
0000
0100
0002
0000
0000
0000
,
1003
0000
0000
0001
0000
0000
0010
0000
0000
0100
0000
0000
1000
0000
0000
0000
,
0001
0000
0000
0100
0000
0000
0010
0000
0000
1000
0000
0000
0001
0000
0000
0000
,
0010
0000
0000
0100
0000
0000
1000
0000
0000
0001
0000
0000
0100
0000
0000
0000
,
0010
0000
0000
0100
0000
0000
0001
0000
0000
1000
0000
0000
0100
0000
0000
0000
,
0010
0000
0000
0000
;

//---------------dance-single - Feraligatr----------------
#NOTES:
     dance-single:
     :
     Medium:
     5:
     0.379762,0.400000,0.350000,0.483333,0.125000,219.000000,42.000000,58.000000,0.000000,0.000000,0.000000,0.379762,0.400000,0.350000,0.483333,0.125000,219.000000,42.000000,58.000000,0.000000,0.000000,0.000000:
0000
0000
0000
0000
,
0000
0000
0000
0000
,
0000
0000
0000
0000
,
0000
0000
0000
0000
,
1000
0000
0001
1000
0010
0000
0100
0000
,
0001
0000
1000
0001
0010
0000
0100
0000
,
1000
0000
0001
1000
0010
0000
0100
0000
,
0010
0000
1000
0001
0010
0000
0000
0100
,
1100
0000
0000
1000
0000
0000
0001
0000
0000
0100
0000
0000
0010
0000
0010
0000
,
0010
0000
0000
1000
0000
0000
0001
0000
0000
1000
0000
0000
0100
0000
0100
0000
,
0100
0000
0000
0010
0000
0000
0001
0000
0000
1000
0000
0000
0010
0000
0010
0000
,
0010
0000
0000
0100
0000
0000
0001
0000
0000
1000
0000
0000
0100
0000
0000
0000
,
0010
0001
0010
0001
1000
0001
1000
0001
,
0100
0001
0100
0001
1000
0010
1000
0010
,
0100
0001
0100
0001
1000
0100
1000
0100
,
0020
0000
0000
0000
0000
0000
0031
0010
,
0022
0000
0000
0033
0000
0000
0000
0000
1000
0000
0000
0000
0201
0000
0000
0000
,
0000
0000
0000
0300
0120
0000
0000
0000
1000
0000
0000
0000
0000
0000
0000
0030
,
2010
0000
0000
0000
0000
0000
0000
0000
0001
3000
1000
0000
0200
0000
0000
0000
,
0000
0000
0000
0300
0120
0000
0000
0000
0001
0000
0000
0000
0000
0000
0000
0030
,
0022
0000
0000
0033
0000
0000
0000
0000
0001
0000
0000
0000
2010
0000
0000
0000
,
0000
0000
0000
3000
1002
0000
0000
0000
0010
0000
0000
0000
0000
0000
0000
0003
,
2001
0000
0000
0000
0000
0000
0000
0000
0100
3000
1000
0000
0002
0000
0000
0003
,
0201
0000
0000
0000
0000
0000
0300
0010
,
2020
0000
0000
3030
0000
0000
0000
0000
0001
0000
0000
0000
2001
0000
0000
0000
,
0000
0000
0000
3000
1200
0000
0000
0000
0010
0000
0000
0000
0000
0000
0000
0300
,
0120
0000
0000
0000
0000
0000
0000
0000
0001
0030
0010
0000
0200
0000
0000
0000
,
0000
0000
0000
0300
2100
0000
0000
0000
0001
0000
0000
0000
0000
0000
0000
3000
,
0202
0303
0000
0000
1000
0000
1002
0000
,
0000
0000
0000
0003
0201
0000
0000
0000
0010
0000
0000
0000
0000
0000
0000
0300
,
0120
0000
0000
0000
0000
0000
0000
0000
1000
0030
0010
0000
0200
0000
0000
0300
,
0102
0000
0000
0003
,
1000
0000
0000
0100
0000
0000
0010
0000
0000
0001
0000
0000
1000
0000
1000
0000
,
1000
0000
0000
0010
0000
0000
0100
0000
0000
0001
0000
0000
0010
0000
0010
0000
,
0010
0000
0000
0100
0000
0000
1000
0000
0000
0001
0000
0000
0100
0000
0100
0000
,
0100
0000
0000
0010
0000
0000
1000
0000
0000
0001
0000
0000
1001
0000
0000
0000
,
0001
0000
0000
0100
0000
0000
0010
0000
0000
1000
0000
0000
0001
0000
0001
0000
,
0001
0000
0000
0010
0000
0000
0100
0000
0000
1000
0000
0000
0001
0000
0001
0000
,
0001
0000
0000
1000
0000
0000
0010
0000
0000
0100
0000
0000
0001
0000
0001
0000
,
0002
0000
0003
0000
,
2002
0000
0000
3003
0000
0000
0000
0000
0001
0000
0000
0000
0201
0000
0000
0000
,
0000
0000
0000
0300
0120
0000
0000
0000
1000
0000
0000
0000
0000
0000
0000
0030
,
2010
0000
0000
0000
0000
0000
0000
0000
0001
3000
1000
0000
0200
0000
0000
0000
,
0000
0000
0000
0300
0120
0000
0000
0000
0001
0000
0000
0000
0000
0000
0000
0030
,
2002
0000
0000
3003
0000
0000
0000
0000
1000
0000
0000
0000
1020
0000
0000
0000
,
0000
0000
0000
0030
0210
0000
0000
0000
0001
0000
0000
0000
0000
0000
0000
0300
,
0102
0000
0000
0000
0000
0000
0000
0000
1000
0003
0001
0000
0020
0000
0000
0030
,
0210
0000
0000
0000
0000
0000
0300
1000
,
2200
0000
0000
3300
0000
0000
0000
0000
0001
0000
0000
0000
2001
0000
0000
0000
,
0000
0000
0000
3000
1020
0000
0000
0000
0100
0000
0000
0000
0000
0000
0000
0030
,
0210
0000
0000
0000
0000
0000
0000
0000
0001
0300
0100
0000
0020
0000
0000
0000
,
0000
0000
0000
0030
2010
0000
0000
0000
0001
0000
0000
0000
0000
0000
0000
3000
,
2002
0000
0000
3003
0000
0000
0000
0000
1000
0000
0000
0000
1200
0000
0000
0000
,
0000
0000
0000
0300
0120
0000
0000
0000
0001
0000
0000
0000
0000
0000
0000
0030
,
0012
0000
0000
0000
0000
0000
0000
0000
1000
0003
0001
0000
0200
0000
0000
0300
,
0120
0000
0000
0030
,
1000
0000
0000
0100
0000
0000
0010
0000
0000
0100
0000
0000
1000
0000
0000
0000
,
0001
0000
0000
0100
0000
0000
0010
0000
0000
0100
0000
0000
0001
0000
0000
0000
,
1000
0000
0000
0100
0000
0000
1000
0000
0000
0001
0000
0000
0100
0000
0000
0000
,
0010
0000
0000
1000
0000
0000
0001
0000
0000
0010
0000
0000
0100
0000
0000
0000
,
1000
0000
0000
0000
;

//---------------dance-single - Feraligatr----------------
#NOTES:
     dance-single:
     :
     Easy:
     3:
     0.170238,0.225000,0.125000,0.008333,0.000000,127.000000,15.000000,1.000000,0.000000,0.000000,0.000000,0.170238,0.225000,0.125000,0.008333,0.000000,127.000000,15.000000,1.000000,0.000000,0.000000,0.000000:
0000
0000
0000
0000
,
0000
0000
0000
0000
,
0000
0000
0000
0000
,
0000
0000
0000
0000
,
1000
0000
0001
0100
,
0010
0000
1000
0001
,
0010
0000
0100
1000
,
0001
0000
0100
0000
,
1010
0000
0000
0001
,
0001
0000
0000
1000
,
1000
0000
0000
0100
,
0100
0000
0000
0010
,
0011
0001
1000
0001
,
0100
0010
0100
0001
,
1000
0100
0010
0001
,
2000
0000
0000
3000
,
1001
0000
1000
0000
,
0100
0000
0010
0000
,
0100
0000
1000
0000
,
0001
0000
0100
0000
,
0010
0000
0100
0000
,
0001
0000
1000
0000
,
0100
0000
1000
0000
,
0001
0001
0100
0100
,
1010
0000
1000
0000
,
0001
0000
0010
0000
,
0100
0000
1000
0000
,
0001
0000
0100
0000
,
0010
0000
1000
0000
,
0001
0000
0010
0000
,
0100
0000
0010
0000
,
0001
0001
1000
1000
,
1010
0000
0000
0000
,
1001
0000
0000
0000
,
0011
0000
0000
0000
,
1100
0000
0000
1001
,
1000
0100
0010
0100
,
1000
0001
0100
0010
,
1000
0100
0010
0001
,
1000
1000
0000
0000
,
1001
0000
0001
0000
,
0010
0000
0100
0000
,
0010
0000
0001
0000
,
1000
0000
0010
0000
,
0100
0000
0001
0000
,
1000
0000
0100
0000
,
1000
0000
0001
0000
,
0100
0000
0010
0000
,
1010
0000
1000
0000
,
0001
0000
0010
0000
,
0100
0000
0010
0000
,
0001
0000
1000
0000
,
0010
0000
0100
0000
,
0001
0000
1000
0000
,
0100
0000
0010
0000
,
0001
0001
1000
1000
,
1010
0000
0000
0000
,
1001
0000
0000
0000
,
0011
0000
0000
0000
,
1100
0000
0000
1000
,
0001
0000
0000
0000
;

//---------------dance-single - Feraligatr----------------
#NOTES:
     dance-single:
     :
     Beginner:
     1:
     0.090476,0.150000,0.208333,0.025000,0.000000,48.000000,25.000000,3.000000,0.000000,0.000000,0.000000,0.090476,0.150000,0.208333,0.025000,0.000000,48.000000,25.000000,3.000000,0.000000,0.000000,0.000000:
// measure 0
0000
0000
0000
0000
,  // measure 1
0000
0000
0000
0000
,  // measure 2
0000
0000
0000
0000
,  // measure 3
0000
0000
0000
0000
,  // measure 4
1001
0000
0000
0000
,  // measure 5
1000
0000
0000
0000
,  // measure 6
0001
0000
0000
0000
,  // measure 7
0100
0000
0000
0000
,  // measure 8
1001
0000
0000
0000
,  // measure 9
0010
0000
0000
0000
,  // measure 10
0100
0000
0000
0000
,  // measure 11
0010
0000
0000
0000
,  // measure 12
1001
0000
1000
0000
,  // measure 13
0100
0000
0010
0000
,  // measure 14
0001
0000
1000
0000
,  // measure 15
0020
0000
0000
0030
,  // measure 16
0110
0000
0000
0000
,  // measure 17
0000
0000
0000
0000
,  // measure 18
1001
0000
0000
0000
,  // measure 19
0000
0000
0000
0000
,  // measure 20
0110
0000
0000
0000
,  // measure 21
0000
0000
0000
0000
,  // measure 22
1001
0000
0000
0000
,  // measure 23
0000
0000
0000
0000
,  // measure 24
0110
0000
0000
0000
,  // measure 25
0000
0000
0000
0000
,  // measure 26
1001
0000
0000
0000
,  // measure 27
0000
0000
0000
0000
,  // measure 28
0110
0000
0000
0000
,  // measure 29
0000
0000
0000
0000
,  // measure 30
1001
0000
0000
0000
,  // measure 31
2000
0000
0000
3000
,  // measure 32
1001
0000
0000
0000
,  // measure 33
0110
0000
0000
0000
,  // measure 34
1001
0000
0000
0000
,  // measure 35
0110
0000
0000
0110
,  // measure 36
1001
0000
0000
0000
,  // measure 37
1000
0000
0000
0000
,  // measure 38
0001
0000
0000
0000
,  // measure 39
0100
0000
0000
0000
,  // measure 40
1001
0000
0000
0000
,  // measure 41
0000
0000
0000
0000
,  // measure 42
0110
0000
0000
0000
,  // measure 43
0000
0000
0000
0000
,  // measure 44
1001
0000
0000
0000
,  // measure 45
0000
0000
0000
0000
,  // measure 46
0110
0000
0000
0000
,  // measure 47
0000
0000
0000
0000
,  // measure 48
1001
0000
0000
0000
,  // measure 49
0000
0000
0000
0000
,  // measure 50
1001
0000
0000
0000
,  // measure 51
0000
0000
0000
0000
,  // measure 52
0110
0000
0000
0000
,  // measure 53
0000
0000
0000
0000
,  // measure 54
1001
0000
0000
0000
,  // measure 55
0002
0000
0000
0000
,  // measure 56
1003
0000
0000
0000
,  // measure 57
0010
0000
0000
0000
,  // measure 58
0100
0000
0000
0000
,  // measure 59
0001
0000
0000
1000
,  // measure 60
1000
0000
0000
0000
;
