#VERSION:0.83;
#TITLE:Wild I/O;
#SUBTITLE:;
#ARTIST:nouvo nude;
#TITLETRANSLIT:;
#SUBTITLETRANSLIT:;
#ARTISTTRANSLIT:;
#GENRE:;
#ORIGIN:;
#CREDIT:;
#BANNER:;
#BACKGROUND:background.png;
#PREVIEWVID:;
#JACKET:jacket.png;
#CDIMAGE:;
#DISCIMAGE:;
#LYRICSPATH:;
#CDTITLE:;
#MUSIC:wild io.mp3;
#OFFSET:-0.846000;
#SAMPLESTART:7.769000;
#SAMPLELENGTH:12.000000;
#SELECTABLE:YES;
#BPMS:0.000=130.000;
#STOPS:;
#DELAYS:;
#WARPS:;
#TIMESIGNATURES:0.000=4=4;
#TICKCOUNTS:0.000=4;
#COMBOS:0.000=1;
#SPEEDS:0.000=1.000=0.000=0;
#SCROLLS:0.000=1.000;
#FAKES:;
#LABELS:0.000=Song Start;
#BGCHANGES:0.000=wild io.avi=1.000=0=0=1=====,
99999=-nosongbg-=1.000=0=0=0 // don't automatically add -songbackground-
;
#KEYSOUNDS:;
#ATTACKS:
;

//---------------dance-single - ----------------
#NOTEDATA:;
#CHARTNAME:;
#STEPSTYPE:dance-single;
#DESCRIPTION:;
#CHARTSTYLE:;
#DIFFICULTY:Beginner;
#METER:2;
#RADARVALUES:0.069888,0.119247,0.036691,0.000000,0.000000,40.000000,37.000000,3.000000,0.000000,0.000000,0.000000,0.000000,0.000000,0.000000,0.069888,0.119247,0.036691,0.000000,0.000000,40.000000,37.000000,3.000000,0.000000,0.000000,0.000000,0.000000,0.000000,0.000000;
#CREDIT:;
#NOTES:
// measure 0
0000
0000
0000
0000
,  // measure 1
0000
0000
0000
0000
,  // measure 2
1001
0000
0000
0000
,  // measure 3
1001
0000
0000
0000
,  // measure 4
0100
0000
0000
0000
,  // measure 5
0000
0000
0000
0000
,  // measure 6
0010
0010
0000
0000
,  // measure 7
0001
0000
0000
0000
,  // measure 8
1000
1000
0000
0000
,  // measure 9
0100
0100
0000
0000
,  // measure 10
0001
0001
0000
0000
,  // measure 11
1000
0000
0000
0000
,  // measure 12
0010
0000
0000
0000
,  // measure 13
0010
0000
0000
0000
,  // measure 14
0100
0000
0000
0000
,  // measure 15
0100
0000
0000
0000
,  // measure 16
0001
0000
0000
0000
,  // measure 17
0001
0000
0000
0000
,  // measure 18
1000
0000
0000
0000
,  // measure 19
1000
0000
0000
0000
,  // measure 20
0010
0000
0000
0000
,  // measure 21
0010
0000
0000
0000
,  // measure 22
0010
0000
0000
0000
,  // measure 23
0010
0000
0000
0000
,  // measure 24
1001
0000
0000
0000
,  // measure 25
0000
0000
0000
0000
,  // measure 26
0100
0000
0000
0000
,  // measure 27
0000
0000
0000
0000
,  // measure 28
0010
0000
0000
0000
,  // measure 29
0000
0000
0000
0000
,  // measure 30
0001
0000
0000
0000
,  // measure 31
0000
0000
0000
0000
,  // measure 32
1000
0000
0000
0000
,  // measure 33
1000
0000
0000
0000
,  // measure 34
0100
0000
0000
0000
,  // measure 35
0001
0000
0000
0000
,  // measure 36
0010
0000
0000
0000
,  // measure 37
1000
0000
0000
0000
,  // measure 38
0010
0000
0000
0000
,  // measure 39
0010
0000
0000
0000
;

//---------------dance-single - ----------------
#NOTEDATA:;
#CHARTNAME:;
#STEPSTYPE:dance-single;
#DESCRIPTION:;
#CHARTSTYLE:;
#DIFFICULTY:Easy;
#METER:4;
#RADARVALUES:0.132788,0.144931,0.073383,0.073383,0.000000,76.000000,70.000000,6.000000,6.000000,0.000000,0.000000,0.000000,0.000000,0.000000,0.132788,0.144931,0.073383,0.073383,0.000000,76.000000,70.000000,6.000000,6.000000,0.000000,0.000000,0.000000,0.000000,0.000000;
#CREDIT:;
#NOTES:
// measure 0
0000
0000
0000
0000
,  // measure 1
0000
0000
0000
0000
,  // measure 2
1001
0000
0000
0000
,  // measure 3
1001
0000
0000
0000
,  // measure 4
0010
0000
0010
0000
,  // measure 5
0001
0000
0001
0000
,  // measure 6
1000
1000
0000
0000
,  // measure 7
0010
0000
0100
0000
,  // measure 8
0001
0001
0000
0000
,  // measure 9
0010
0010
0000
0000
,  // measure 10
0100
0100
0000
0000
,  // measure 11
0001
0000
1000
0000
,  // measure 12
0010
0000
0010
0000
,  // measure 13
0100
0000
0100
0000
,  // measure 14
0001
0000
0001
0000
,  // measure 15
1000
0000
1000
0000
,  // measure 16
0010
0000
0010
0000
,  // measure 17
1000
0000
1000
0000
,  // measure 18
0001
0000
0001
0000
,  // measure 19
0100
0000
0100
0000
,  // measure 20
2002
0000
3003
0000
,  // measure 21
0220
0000
0330
0000
,  // measure 22
2002
0000
3003
0000
,  // measure 23
0110
0000
0000
0000
,  // measure 24
0100
0000
0100
0000
,  // measure 25
0100
0000
0100
0000
,  // measure 26
0010
0000
0010
0000
,  // measure 27
0010
0000
0010
0000
,  // measure 28
1000
0000
1000
0000
,  // measure 29
1000
0000
1000
0000
,  // measure 30
0001
0000
0001
0000
,  // measure 31
0001
0000
0001
0000
,  // measure 32
0100
0000
0010
0000
,  // measure 33
0100
0000
0010
0000
,  // measure 34
0001
0000
1000
0000
,  // measure 35
0001
0000
1000
0000
,  // measure 36
0100
0000
1000
0000
,  // measure 37
0100
0000
1000
0000
,  // measure 38
0010
0000
0001
0000
,  // measure 39
0010
0000
0001
0000
;

//---------------dance-single - ----------------
#NOTEDATA:;
#CHARTNAME:;
#STEPSTYPE:dance-single;
#DESCRIPTION:;
#CHARTSTYLE:;
#DIFFICULTY:Medium;
#METER:6;
#RADARVALUES:0.216654,0.340313,0.097844,0.122305,0.000000,124.000000,116.000000,8.000000,10.000000,0.000000,0.000000,0.000000,0.000000,0.000000,0.216654,0.340313,0.097844,0.122305,0.000000,124.000000,116.000000,8.000000,10.000000,0.000000,0.000000,0.000000,0.000000,0.000000;
#CREDIT:;
#NOTES:
// measure 0
0000
0000
0000
0000
,  // measure 1
0000
0000
0000
0000
,  // measure 2
1001
0000
0001
0000
,  // measure 3
1001
0000
1000
0000
,  // measure 4
0010
0000
0010
0000
,  // measure 5
0001
0000
0001
0000
,  // measure 6
1000
1000
0001
0000
,  // measure 7
0100
0000
0010
0000
,  // measure 8
0001
0001
0100
0000
,  // measure 9
0010
0010
0100
0000
,  // measure 10
0001
0001
1000
0000
,  // measure 11
0020
0000
0030
0000
,  // measure 12
0100
0100
0001
0001
,  // measure 13
1000
0010
1000
0000
,  // measure 14
1000
1000
0010
0010
,  // measure 15
0001
0100
1000
0100
,  // measure 16
0001
0001
1000
1000
,  // measure 17
0010
0100
0010
0100
,  // measure 18
0001
0001
1000
1000
,  // measure 19
0001
0100
0001
0000
,  // measure 20
0010
0010
0110
0110
,  // measure 21
0100
0100
1100
1100
,  // measure 22
1000
1000
1001
1001
,  // measure 23
0001
0001
0000
0000
,  // measure 24
0100
0100
0100
0100
,  // measure 25
1000
1000
1000
1000
,  // measure 26
0020
0000
0031
0100
,  // measure 27
0010
0010
1000
1000
,  // measure 28
0002
0000
0103
0010
,  // measure 29
0010
1000
0001
0001
,  // measure 30
2000
0000
3010
0001
,  // measure 31
0001
0100
1000
0100
,  // measure 32
0020
0000
0031
1000
,  // measure 33
0200
0000
0300
0000
,  // measure 34
0002
0000
0003
0010
,  // measure 35
0100
0001
1000
0001
,  // measure 36
0020
0000
0130
1000
,  // measure 37
0002
0000
0003
0000
,  // measure 38
0200
0000
0300
0001
,  // measure 39
1000
0001
1000
0001
;

//---------------dance-single - ----------------
#NOTEDATA:;
#CHARTNAME:;
#STEPSTYPE:dance-single;
#DESCRIPTION:;
#CHARTSTYLE:;
#DIFFICULTY:Challenge;
#METER:11;
#RADARVALUES:0.366914,0.489219,0.195688,0.440297,0.048922,210.000000,192.000000,16.000000,36.000000,52.000000,12.000000,10.000000,12.000000,0.000000,0.366914,0.489219,0.195688,0.440297,0.048922,210.000000,192.000000,16.000000,36.000000,52.000000,12.000000,10.000000,12.000000,0.000000;
#CREDIT:;
#NOTES:
// measure 0
0000
0000
0000
0000
,  // measure 1
0000
0000
0000
0000
,  // measure 2
2002
0000
0000
0000
0000
0000
0000
3003
L00L
0000
0000
0000
0000
0000
0000
0000
0100
0000
0000
0000
0010
0000
0000
0000
0000
0000
0000
0000
0000
0000
0000
0000
,  // measure 3
2002
0000
0010
0000
0000
3003
L01L
0000
0000
0000
0000
0000
0000
0000
0000
0000
,  // measure 4
MMMM
0010
1000
1000
,  // measure 5
0001
0000
0100
0000
0001
0000
0100
0100
,  // measure 6
0022
0000
0000
0000
0000
0000
0000
0033
00LL
0000
0000
0000
0000
0000
0000
0000
0100
0000
0000
0000
0000
0000
0000
0000
0010
0000
0000
0000
0000
0000
0000
0000
,  // measure 7
1000
0000
0001
0000
0100
0000
0001
0100
,  // measure 8
MMMM
0LL0
0100
0010
,  // measure 9
2200
0000
0000
0000
0000
0000
0000
3300
LL00
0000
0000
0000
0000
0000
0000
0000
0010
0000
0000
0000
0000
0000
0000
0000
0001
0000
0000
0000
1000
0000
0000
0000
,  // measure 10
4022
0000
0000
0000
0000
0000
0000
0033
00LL
0000
0000
0000
0000
0000
0000
0000
0000
0000
0000
0000
0000
0000
0000
0000
0001
0000
0000
0000
0001
0000
0000
0000
,  // measure 11
3004
0000
0000
0000
0010
0000
0103
0010
,  // measure 12
MMMM
0000
0002
0000
1003
0100
0000
0000
,  // measure 13
0020
0100
0000
0034
0000
0000
0003
0000
,  // measure 14
1000
0000
0001
0000
0100
0010
0000
0000
,  // measure 15
0001
1000
0000
0400
0000
0011
0000
0311
,  // measure 16
MMMM
0000
0001
0000
0001
0100
0000
0000
,  // measure 17
0010
1000
0000
0400
0000
1000
0310
0001
,  // measure 18
0001
0000
0010
0000
0001
1000
0000
0000
,  // measure 19
0100
0001
0000
0004
0000
0000
0003
0000
,  // measure 20
2002
0020
3233
0320
0230
2300
3002
1003
,  // measure 21
2200
0002
3323
0032
0203
0320
0230
0301
,  // measure 22
0022
0200
2333
3002
0203
0302
2003
3010
,  // measure 23
0001
0400
0010
4300
0001
0000
3000
0000
,  // measure 24
MMMM
0000
0000
0000
0100
0000
0000
0100
0000
0000
0000
0000
0001
0000
1000
0000
,  // measure 25
0100
0000
0000
0000
0001
0000
0000
0001
0000
0000
0010
0000
0100
0000
0010
0000
,  // measure 26
MMMM
0000
0000
0000
0001
0000
0000
1000
0000
0000
0000
0000
0010
0000
0100
0000
,  // measure 27
0001
0000
0000
0000
0100
0000
0000
1000
0000
0000
0010
0000
0001
0000
1000
0000
,  // measure 28
MMMM
0000
0000
0000
0010
0000
0000
0001
0000
0000
0000
0000
0100
0000
0001
0000
,  // measure 29
1000
0000
0000
0000
0100
0000
0000
0001
0000
0000
0100
0000
0001
0000
0001
0000
,  // measure 30
MMMM
0000
0000
0000
1000
0000
0000
0010
0000
0000
0000
0000
0001
0000
1000
0000
,  // measure 31
1000
0000
0000
0000
0001
0000
0000
0100
0000
0000
0000
0000
0010
0000
0100
0000
,  // measure 32
MMMM
0001
0100
0001
1000
0010
0100
0000
,  // measure 33
4000
0001
0100
0001
3100
0010
0100
0000
,  // measure 34
MMMM
0100
0001
1000
0001
1000
0001
0000
,  // measure 35
0010
1000
0100
0001
1000
0001
0100
0000
,  // measure 36
MMMM
0010
0100
0010
1000
0100
0001
0000
,  // measure 37
0004
0100
0100
1000
0013
0100
0010
0000
,  // measure 38
MMMM
0100
0001
1000
0001
1000
0001
0000
,  // measure 39
0001
1000
0010
0100
0010
0100
0001
1000
,  // measure 40
MMMM
0000
0000
0000
;

//---------------dance-single - ----------------
#NOTEDATA:;
#CHARTNAME:;
#STEPSTYPE:dance-single;
#DESCRIPTION:;
#CHARTSTYLE:;
#DIFFICULTY:Hard;
#METER:8;
#RADARVALUES:0.300520,0.440297,0.085613,0.195688,0.048922,172.000000,165.000000,7.000000,16.000000,0.000000,0.000000,0.000000,0.000000,0.000000,0.300520,0.440297,0.085613,0.195688,0.048922,172.000000,165.000000,7.000000,16.000000,0.000000,0.000000,0.000000,0.000000,0.000000;
#CREDIT:;
#NOTES:
// measure 0
0000
0000
0000
0000
,  // measure 1
0000
0000
0000
0000
,  // measure 2
1001
0000
0001
0000
0100
0010
0000
0000
,  // measure 3
1000
0001
0000
0001
0000
0000
0001
0100
,  // measure 4
2000
0000
3001
0001
,  // measure 5
1000
0000
0001
0000
0100
0000
0001
0010
,  // measure 6
2000
3001
0010
0100
,  // measure 7
0002
0000
0003
1000
,  // measure 8
0020
0130
0100
0001
,  // measure 9
0002
0103
0100
0010
,  // measure 10
2000
3001
1000
0001
,  // measure 11
0200
0000
0300
0010
,  // measure 12
0001
0000
0100
0000
0001
1000
0000
0000
,  // measure 13
0010
0100
0000
0100
0000
0000
0000
0000
,  // measure 14
1000
0000
0001
0000
1000
0001
0000
0000
,  // measure 15
0100
0010
0000
1000
0000
0001
0000
0100
,  // measure 16
0010
0000
1000
0000
0001
0100
0000
0000
,  // measure 17
0001
0100
0000
1000
0000
0100
0100
0001
,  // measure 18
1000
0000
0001
0000
0100
0010
0000
0000
,  // measure 19
0010
0100
0000
0100
0000
0000
0000
0000
,  // measure 20
1001
0000
1001
0000
0001
1000
0001
1000
,  // measure 21
0110
0000
0110
0000
0100
0010
0100
0010
,  // measure 22
1100
0000
1100
0000
1000
0100
1000
0100
,  // measure 23
0001
0010
0001
0010
0001
0000
0000
0000
,  // measure 24
0100
0100
0010
1000
,  // measure 25
0001
0100
0001
1000
,  // measure 26
0020
0100
0130
0001
,  // measure 27
1000
0001
0100
0010
,  // measure 28
2000
0001
3001
0100
,  // measure 29
0001
1000
0001
1000
,  // measure 30
0020
0001
0031
0100
,  // measure 31
0001
1000
0010
0100
,  // measure 32
2000
0000
0000
0000
0010
0000
0000
0010
3000
0000
0000
0000
0100
0000
1000
0000
,  // measure 33
0001
0000
0000
0000
0010
0000
0000
0100
0000
0000
0000
0000
0001
0000
0100
0000
,  // measure 34
0002
0000
0000
0000
1000
0000
0000
1000
0003
0000
0000
0000
0010
0000
0100
0000
,  // measure 35
0010
0000
0000
0000
0001
0000
0000
0100
0000
0000
0000
0000
1000
0000
0010
0000
,  // measure 36
0200
0000
0000
0000
0001
0000
0000
0001
0300
0000
0000
0000
0010
0000
0100
0000
,  // measure 37
0001
0000
0000
0000
1000
0000
0000
0001
0000
0000
0000
0000
0100
0000
0010
0000
,  // measure 38
2000
0000
0000
0000
0100
0000
0000
0100
3000
0000
0000
0000
0001
0000
0100
0000
,  // measure 39
1000
0000
0000
0000
0010
0000
0000
0010
0000
0000
0000
0000
0002
0000
0200
0000
,  // measure 40
0303
0000
0000
0000
;

//---------------pump-single - ----------------
#NOTEDATA:;
#CHARTNAME:;
#STEPSTYPE:pump-single;
#DESCRIPTION:;
#CHARTSTYLE:;
#DIFFICULTY:Easy;
#METER:2;
#RADARVALUES:0.118810,0.150435,0.073383,0.012230,0.000000,68.000000,62.000000,6.000000,1.000000,0.000000,0.000000,0.000000,0.000000,0.000000,0.118810,0.150435,0.073383,0.012230,0.000000,68.000000,62.000000,6.000000,1.000000,0.000000,0.000000,0.000000,0.000000,0.000000;
#CREDIT:;
#NOTES:
00000
00000
00000
00000
,
00000
00000
00000
00000
,
00010
00000
00000
00000
,
01000
00000
00000
00000
,
01010
00000
00000
00000
,
00000
00000
00000
00000
,
10000
00000
00000
00000
,
00001
00000
00000
00000
,
10001
00000
00000
00000
,
00100
00000
00000
00000
,
01000
00000
00000
00000
,
00010
00000
00000
00000
,
00010
00000
00010
00000
,
10000
00000
10000
00000
,
01000
00000
01000
00000
,
00001
00000
00001
00000
,
01000
00000
01000
00000
,
00010
00000
00010
00000
,
10000
00000
10000
00000
,
01000
00000
01000
00000
,
10010
00000
00000
00000
,
01001
00000
00000
00000
,
10001
00000
00000
00000
,
01100
00000
00000
00000
,
00010
00000
00010
00000
,
01000
00000
01000
00000
,
10000
00000
10000
00000
,
00100
00000
00100
00000
,
00001
00000
00001
00000
,
00010
00000
00010
00000
,
10000
00000
10000
00000
,
00001
00000
00001
00000
,
01000
00000
00010
00000
,
01000
00000
00010
00000
,
00001
00000
10000
00000
,
00001
00000
10000
00000
,
00001
00000
01000
00000
,
00001
00000
01000
00000
,
00100
00000
00010
00000
,
00100
00000
00010
00000
,
00200
00000
00000
00000
,
00300
00000
00000
00000
;

//---------------pump-single - ----------------
#NOTEDATA:;
#CHARTNAME:;
#STEPSTYPE:pump-single;
#DESCRIPTION:;
#CHARTSTYLE:;
#DIFFICULTY:Medium;
#METER:4;
#RADARVALUES:0.228885,0.342453,0.134535,0.036691,0.000000,131.000000,120.000000,11.000000,3.000000,0.000000,0.000000,0.000000,0.000000,0.000000,0.228885,0.342453,0.134535,0.036691,0.000000,131.000000,120.000000,11.000000,3.000000,0.000000,0.000000,0.000000,0.000000,0.000000;
#CREDIT:;
#NOTES:
00000
00000
00000
00000
,
00000
00000
00000
00000
,
00010
00000
01000
00000
,
00010
00000
01000
00010
,
01010
00000
00000
00000
,
00000
00000
00000
00000
,
00001
10000
00000
00000
,
00100
00000
00000
00000
,
00010
00010
00000
00000
,
10000
10000
00000
00000
,
02100
00100
00000
00000
,
03001
00000
00001
00000
,
10000
00100
10000
00000
,
00010
00000
01000
00000
,
00001
01000
00001
00000
,
10000
00000
00100
00100
,
10000
10000
10000
00000
,
00001
00000
01000
00001
,
01000
00100
01000
00000
,
00010
00000
00010
00000
,
00001
00001
01001
01001
,
01000
01000
11000
11000
,
10000
10000
10100
10100
,
00100
00100
00110
00110
,
00010
00010
01000
00010
,
10000
00001
10000
10000
,
01000
00001
01000
00001
,
00100
10000
00100
10000
,
01000
00010
01000
01000
,
00001
01000
00001
01000
,
01000
00010
01000
00010
,
10000
00001
10000
00001
,
00010
10000
10000
00010
,
00200
00010
00001
00010
,
10300
01000
10000
00001
,
01000
00001
10000
00001
,
01000
00100
01000
00010
,
20000
00010
00001
00010
,
30010
01000
00001
10000
,
00001
01000
00001
10000
,
10001
00000
00000
00000
;

//---------------pump-single - ----------------
#NOTEDATA:;
#CHARTNAME:;
#STEPSTYPE:pump-single;
#DESCRIPTION:;
#CHARTSTYLE:;
#DIFFICULTY:Hard;
#METER:7;
#RADARVALUES:0.351189,0.445801,0.195688,0.036691,0.116189,201.000000,185.000000,16.000000,3.000000,0.000000,0.000000,0.000000,0.000000,0.000000,0.351189,0.445801,0.195688,0.036691,0.116189,201.000000,185.000000,16.000000,3.000000,0.000000,0.000000,0.000000,0.000000,0.000000;
#CREDIT:;
#NOTES:
00000
00000
00000
00000
,
00000
00000
00000
00000
,
00001
00000
10000
00000
00001
10000
00000
00000
,
00010
01000
00000
00010
00000
00000
00001
00000
,
00101
00000
00000
00000
,
00000
00000
00000
00000
,
10010
10010
00000
00000
,
10000
00000
00000
00000
,
01001
01001
00000
00000
,
00011
00011
00000
00000
,
11000
11000
00000
00000
,
00010
00000
00000
00000
,
10000
00000
00010
00000
10000
00010
00000
00000
,
01000
00001
00000
00001
00000
00000
00000
00000
,
00010
00000
10000
00000
00001
01000
00000
00000
,
00001
10000
00000
01000
00000
00010
00000
00010
,
00001
00000
10000
00000
00010
10000
00000
00000
,
00001
01000
00000
01000
00000
00010
01000
00010
,
10000
00000
10000
00000
00001
01000
00000
00000
,
10000
00001
00000
10000
00000
00000
00000
00000
,
00010
00000
00000
00000
01000
00010
00000
00000
10100
00000
10000
00000
00100
00000
10000
00000
,
00001
00000
00000
00000
01000
00001
00000
00000
00110
00000
00010
00000
00100
00000
00010
00000
,
10000
00000
00000
00000
10000
00010
00000
00000
01100
00000
01000
00000
00100
00000
01000
00000
,
00001
10000
00001
10000
00001
00000
00010
01000
,
01100
00000
00000
00000
01000
00000
00000
10000
01000
00000
00000
00000
10000
00000
01000
00000
,
10000
00000
00000
00000
01000
00000
00000
01000
10000
00000
01000
00000
10000
00000
01000
00000
,
10001
00000
00000
00000
00010
00000
00000
00001
00010
00000
00000
00000
00001
00000
00010
00000
,
00001
00000
00000
00000
00010
00000
00000
00010
00001
00000
00010
00000
00001
00000
00010
00000
,
01001
00000
00000
00000
01000
00000
00000
10000
01000
00000
00000
00000
10000
00000
01000
00000
,
10000
00000
00000
00000
01000
00000
00000
01000
10000
00000
01000
00000
10000
00000
01000
00000
,
00010
00000
00000
00000
00010
00000
00000
00001
00010
00000
00000
00000
00001
00000
00010
00000
,
00001
00000
00000
00000
00010
00000
00000
00010
00001
00000
00010
00000
00001
00000
00010
00000
,
10001
00000
00000
00000
10000
00000
00000
00001
10000
00000
00001
00000
10000
00000
00000
00000
,
00200
00000
00000
00000
00010
00000
00000
01000
01000
00000
01000
00000
00010
00000
01000
00000
,
10300
00000
10000
00000
00001
00000
00000
10000
00001
00000
10000
00000
00001
00000
00000
00000
,
10000
00000
00000
00000
00001
00000
00000
10000
00001
00000
10000
00000
00001
00000
10000
00000
,
00010
00000
00000
00000
01000
00000
00000
00010
01000
00000
00010
00000
01000
00000
00000
00000
,
00200
00000
00000
00000
10000
00000
00000
00001
10000
00000
00001
00000
10000
00000
00000
00000
,
01300
00000
00000
00000
00010
00000
00000
01000
00010
00000
01000
00000
00010
00000
00000
00000
,
10000
00000
00000
00000
01000
00000
00000
01000
00010
00000
00010
00000
00001
00000
00001
00000
,
00200
00000
00300
00000
;
