#TITLE:rather be nothing to you;
#SUBTITLE:;
#ARTIST:hush hush;
#TITLETRANSLIT:;
#SUBTITLETRANSLIT:;
#ARTISTTRANSLIT:;
#GENRE:;
#CREDIT:;
#BANNER:;
#BACKGROUND:;
#LYRICSPATH:;
#CDTITLE:;
#MUSIC:rather be nothing to you.mp3;
#OFFSET:-2.000000;
#SAMPLESTART:122.886002;
#SAMPLELENGTH:12.000000;
#SELECTABLE:YES;
#BPMS:0.000000=63.750000
,16.000000=126.999992
,336.000000=63.499996
,352.000000=126.999992
,448.000000=63.499996
,450.000000=126.999992
,510.000000=63.499996
;
#STOPS:
;
#BGCHANGES:;
#KEYSOUNDS:;
#ATTACKS:;

//---------------dance-single - ----------------
#NOTES:
     dance-single:
     :
     Hard:
     7:
     0.416200,0.706074,0.684132,0.073419,0.165193,873.000000,668.000000,205.000000,22.000000,0.000000,0.000000,0.416200,0.706074,0.684132,0.073419,0.165193,873.000000,668.000000,205.000000,22.000000,0.000000,0.000000:
// measure 0
0000
0000
0000
0000
,  // measure 1
0000
0000
0000
0000
,  // measure 2
0000
0000
0000
0000
,  // measure 3
0000
0000
0000
0000
,  // measure 4
2000
0000
0000
0000
,  // measure 5
0000
0000
0000
0000
,  // measure 6
3002
0000
0000
0000
,  // measure 7
0000
0000
0023
0000
,  // measure 8
2030
0000
0000
0000
,  // measure 9
0000
0000
0000
0000
,  // measure 10
3002
0000
0000
0000
,  // measure 11
0000
0000
2003
0000
,  // measure 12
3001
0010
0000
0010
,  // measure 13
0001
0100
0000
0100
,  // measure 14
0010
1000
0000
1000
,  // measure 15
0100
0001
0000
0001
,  // measure 16
1000
0010
0000
0010
,  // measure 17
0010
0100
0000
0100
,  // measure 18
0100
1000
0000
1000
,  // measure 19
1000
0010
0010
0100
,  // measure 20
1010
0101
0101
1001
,  // measure 21
0110
0000
1100
0000
0100
0100
0001
1000
,  // measure 22
1000
0110
0101
1001
,  // measure 23
0010
0000
0000
0000
0100
0000
0000
0000
0001
0000
0001
1000
0010
1000
0000
0000
,  // measure 24
1000
0101
0110
1100
,  // measure 25
0010
0000
0001
0000
0100
0100
0010
1000
,  // measure 26
1000
0101
0101
0110
,  // measure 27
0001
0000
0000
0000
1000
0000
0000
0000
0010
0000
0010
0001
0100
0001
0000
0000
,  // measure 28
0001
1010
1100
1001
,  // measure 29
0100
0000
0010
0000
1000
1000
0001
0010
,  // measure 30
0010
1001
0101
0110
,  // measure 31
0001
0000
0000
0000
1000
0000
0000
0000
0010
0000
0100
1000
0010
1000
0000
0000
,  // measure 32
0001
0101
1001
1010
,  // measure 33
0100
0000
0001
0000
1000
0010
1000
0010
,  // measure 34
0001
0101
1001
0110
,  // measure 35
0100
0000
0000
0000
0010
0000
0000
0000
1000
0000
0001
0010
0100
0010
0000
0000
,  // measure 36
0020
0000
0000
0130
,  // measure 37
1000
0000
0001
0100
1000
0000
0010
0100
,  // measure 38
0010
0000
0110
0000
1100
0000
0001
0100
,  // measure 39
0010
0000
0000
1000
0000
0000
0001
0000
0100
0000
0001
1000
0001
1000
0000
0000
,  // measure 40
0100
0000
0110
0000
0101
0000
0010
0100
,  // measure 41
1000
0000
0001
0100
0001
0000
1000
0010
,  // measure 42
0000
0010
0100
0000
0001
0000
1000
0010
,  // measure 43
0000
0000
0001
0000
0000
0100
0000
0000
0010
0000
0100
0010
0001
0010
0000
0000
,  // measure 44
0100
0101
1001
1010
,  // measure 45
1010
0000
0110
0000
1000
0010
0010
0010
,  // measure 46
0100
0101
1001
0110
,  // measure 47
1001
0000
0000
0000
1010
0000
0000
0000
0100
0000
0001
1000
0001
1000
0000
0000
,  // measure 48
0010
0101
0101
1001
,  // measure 49
0110
0000
1100
0000
0001
0010
1000
0010
,  // measure 50
0001
1100
0110
1010
,  // measure 51
0110
0000
0000
0000
1100
0000
0000
0000
0001
0000
0100
0010
1000
0000
0010
0000
,  // measure 52
0200
0000
0000
0301
,  // measure 53
1001
0000
1001
0000
0010
0100
0010
0100
,  // measure 54
1000
1100
1001
1001
,  // measure 55
0101
0000
0000
0000
0110
0000
0000
0000
1000
0000
0001
0100
0001
0100
0000
0000
,  // measure 56
1000
0101
0101
1001
,  // measure 57
1001
0000
1010
0000
0100
0010
0001
1000
,  // measure 58
0001
0110
1100
0101
,  // measure 59
1001
0000
0000
0000
0110
0000
0000
0000
0001
0000
0010
0100
0010
1000
0000
0000
,  // measure 60
0002
0000
0100
1000
0000
0000
0010
0000
0100
0000
0010
1000
0000
0000
0000
0000
,  // measure 61
0010
0000
0100
0010
0000
0000
1000
0000
0010
0000
1000
0100
0000
0000
1000
0000
,  // measure 62
0103
1100
1001
1001
,  // measure 63
0101
0000
0000
0000
1010
0000
0000
0000
0010
0000
0100
1000
0010
0100
0000
0000
,  // measure 64
1000
0101
1001
0110
,  // measure 65
0101
0000
1001
0000
0010
0100
0001
0100
,  // measure 66
0001
0101
1001
0110
,  // measure 67
1100
0000
0000
0000
0101
0000
0000
0000
1000
0000
0010
0100
0001
1000
0000
0000
,  // measure 68
0101
1001
0110
1100
,  // measure 69
1001
0000
0101
0000
0010
0100
1000
0100
,  // measure 70
1000
0101
0101
0110
,  // measure 71
1100
0000
0000
0000
1001
0000
0000
0000
0001
0000
0010
0100
0001
0100
0000
0000
,  // measure 72
0010
1100
1100
0110
,  // measure 73
0110
0000
0101
0000
1000
0010
0100
1000
,  // measure 74
0001
0110
1100
0110
,  // measure 75
0101
0000
0000
0000
1001
0000
0000
0000
0010
0000
0100
0001
1000
0100
0000
0000
,  // measure 76
0010
0101
1001
0110
,  // measure 77
1100
0000
0101
0000
1000
0010
0100
0001
,  // measure 78
1000
0110
0101
1001
,  // measure 79
0110
0000
0000
0000
1100
0000
0000
0000
0010
0000
0100
0001
1000
0100
0000
0000
,  // measure 80
0010
1100
1100
0101
,  // measure 81
0101
0000
1001
0000
0100
0010
0100
0010
,  // measure 82
0001
1100
0110
0101
,  // measure 83
1001
0000
0000
0000
0110
0000
0000
0000
0100
0000
0001
1000
0001
0000
0100
0000
,  // measure 84
2000
0000
0000
0000
,  // measure 85
3020
0000
0000
0230
,  // measure 86
0302
0000
0000
0000
,  // measure 87
0203
0000
0000
0320
,  // measure 88
0130
0001
0000
0001
0000
1000
0000
0010
,  // measure 89
0100
1000
0000
0100
0100
0001
0001
1000
,  // measure 90
0010
0001
0000
0100
0000
0001
0000
1000
,  // measure 91
0001
0010
0000
1000
0010
0100
0010
0001
,  // measure 92
0010
1000
0000
0001
0000
1000
0000
0010
,  // measure 93
0010
1000
0000
0100
0010
0001
0100
1000
,  // measure 94
0010
0001
0000
1000
0000
0100
0000
0010
,  // measure 95
0100
0000
0001
0000
0000
0000
1000
0000
0001
0000
0100
0010
0100
0010
0100
0000
,  // measure 96
0101
1001
0110
1100
,  // measure 97
1001
0000
0101
0000
0010
0100
1000
0100
,  // measure 98
1000
0101
0101
0110
,  // measure 99
1100
0000
0000
0000
1001
0000
0000
0000
0001
0000
0010
0100
0001
0100
0000
0000
,  // measure 100
0010
1100
1100
0110
,  // measure 101
0110
0000
0101
0000
1000
0010
0100
1000
,  // measure 102
0001
0110
1100
0110
,  // measure 103
0101
0000
0000
0000
1001
0000
0000
0000
0010
0000
0100
0001
1000
0100
0000
0000
,  // measure 104
0010
0101
1001
0110
,  // measure 105
1100
0000
0101
0000
1000
0010
0100
0001
,  // measure 106
1000
0110
0101
1001
,  // measure 107
0110
0000
0000
0000
1100
0000
0000
0000
0010
0000
0100
0001
1000
0100
0000
0000
,  // measure 108
0010
1100
1100
0101
,  // measure 109
0101
0000
1001
0000
0100
0010
0100
0010
,  // measure 110
0001
1100
0110
0101
,  // measure 111
1001
0000
0000
0000
0110
0000
0000
0000
0100
0000
0001
1000
0001
0000
0100
0000
,  // measure 112
0010
0000
1100
1100
,  // measure 113
0001
1000
0001
1000
0001
0000
0000
0000
0110
0000
0000
0000
0101
0000
0000
0000
,  // measure 114
1001
0110
0101
1001
,  // measure 115
0010
0000
0001
0010
1000
0010
0000
0000
0100
0000
0000
0000
0101
0000
0000
0000
,  // measure 116
1001
0110
1100
0101
,  // measure 117
0010
0100
0001
0100
0001
0000
0110
0000
,  // measure 118
1100
0101
1001
0110
,  // measure 119
0001
1000
0001
1000
0001
0000
1000
0000
0101
0000
0000
0000
1001
0000
0000
0000
,  // measure 120
0110
1100
1001
0101
,  // measure 121
0010
0100
1000
0100
1000
0000
0101
0000
,  // measure 122
0101
0110
1100
1001
,  // measure 123
0001
0000
0010
0100
0001
0100
0000
0000
0010
0000
0000
0000
1100
0000
0000
0000
,  // measure 124
1100
0110
0110
0101
,  // measure 125
1000
0010
0100
1000
0001
0000
0110
0000
,  // measure 126
1100
0110
0101
1001
,  // measure 127
0010
0000
0000
0000
0100
0000
0001
0000
1000
0000
0100
0000
0000
0000
0000
0000
1000
0000
0100
0001
0000
0000
0010
0000
0100
0000
1000
0100
0000
0000
0000
0000
,  // measure 128
0100
0000
0100
0001
0000
0000
1000
0000
1000
0000
1000
0100
0000
0000
0010
0000
1000
0000
1000
0100
0000
0000
1000
0000
0100
0000
1000
1000
0000
0000
0000
0000
,  // measure 129
0100
0000
1000
0001
0000
0000
1000
0000
0100
0000
1000
0010
0000
0000
0001
0000
1000
0000
0100
0010
0000
0000
0100
0000
0100
0000
0001
0100
0000
0000
0000
0000
,  // measure 130
0010
0000
0100
1000
0000
0000
1000
0000
1000
0000
1000
0010
0000
0000
0001
0000
0100
0000
0010
0010
0000
0000
0010
0000
0010
0000
1000
0100
0000
0000
0000
0000
,  // measure 131
0010
0000
1000
0001
0000
0000
0001
0000
0100
0000
0010
1000
0000
0000
0100
0000
0002
0000
0000
0000
0000
0000
0000
0000
0000
0000
0000
0000
0000
0000
0000
0000
,  // measure 132
0010
0010
2003
0000
,  // measure 133
0100
3200
0320
0000
,  // measure 134
0100
0100
2030
0000
,  // measure 135
0010
3010
2002
0000
,  // measure 136
0000
0000
3003
0000
;
