#VERSION:0.83;
#TITLE:peace-out;
#SUBTITLE:;
#ARTIST:dj nagureo;
#TITLETRANSLIT:;
#SUBTITLETRANSLIT:;
#ARTISTTRANSLIT:;
#GENRE:;
#ORIGIN:;
#CREDIT:;
#BANNER:peace-out.png;
#BACKGROUND:peace-out-bg.png;
#PREVIEWVID:;
#JACKET:peace-out-jacket.png;
#CDIMAGE:;
#DISCIMAGE:;
#LYRICSPATH:;
#CDTITLE:;
#MUSIC:peace-out.ogg;
#OFFSET:-0.563000;
#SAMPLESTART:42.901001;
#SAMPLELENGTH:12.000000;
#SELECTABLE:YES;
#BPMS:0.000=133.213;
#STOPS:;
#DELAYS:;
#WARPS:;
#TIMESIGNATURES:0.000=4=4;
#TICKCOUNTS:0.000=4;
#COMBOS:0.000=1;
#SPEEDS:0.000=1.000=0.000=0;
#SCROLLS:0.000=1.000;
#FAKES:;
#LABELS:0.000=Song Start;
#BGCHANGES:;
#KEYSOUNDS:;
#ATTACKS:
;

//---------------dance-single - ----------------
#NOTEDATA:;
#CHARTNAME:;
#STEPSTYPE:dance-single;
#DESCRIPTION:;
#CHARTSTYLE:;
#DIFFICULTY:Challenge;
#METER:11;
#RADARVALUES:0.502039,0.662086,0.316032,0.050565,0.575178,278.000000,253.000000,25.000000,4.000000,0.000000,0.000000,0.000000,0.000000,0.000000,0.502039,0.662086,0.316032,0.050565,0.575178,278.000000,253.000000,25.000000,4.000000,0.000000,0.000000,0.000000,0.000000,0.000000;
#CREDIT:;
#OFFSET:-0.563000;
#BPMS:0.000000=133.212997
,48.000000=99.909744
,72.000000=133.212997
,117.000000=88.808670
,135.666672=133.212997
;
#STOPS:84.000000=1.352000
;
#DELAYS:;
#WARPS:;
#TIMESIGNATURES:0.000000=4=4
;
#TICKCOUNTS:0.000000=4
;
#COMBOS:0.000000=1
;
#SPEEDS:0.000000=1.000000=0.000000=0
;
#SCROLLS:0.000000=1.000000
;
#FAKES:;
#LABELS:0.000000=Song Start
;
#NOTES:
// measure 0
0000
0000
0000
0000
0000
0000
0000
0000
0000
1010
0000
0000
0000
0000
0000
0110
0000
0000
0000
0000
0101
0000
0000
0000
,  // measure 1
0000
0000
0000
0000
0000
0000
0000
0000
0000
1010
0000
0000
0000
0000
0000
0011
0000
0000
0000
0000
1100
0000
0000
0000
,  // measure 2
0000
0000
0000
0000
0000
0000
0000
0000
0000
1010
0000
0000
0000
0000
0000
1100
0000
0000
0000
0000
0110
0000
0000
0000
,  // measure 3
0000
0000
0000
0000
0000
0000
0000
0000
0000
0101
0000
0000
0000
0000
0000
0110
0000
0000
0000
0000
1010
0000
0000
0000
,  // measure 4
0001
0010
0100
1000
0001
0100
0010
0000
,  // measure 5
0100
0010
1000
0001
0100
0001
1000
0000
,  // measure 6
0010
1000
0100
1000
0001
0100
0010
0000
,  // measure 7
0100
0010
0001
1000
0010
1000
0100
0000
,  // measure 8
0001
1000
0100
0001
1000
0010
0100
0000
,  // measure 9
0001
0100
0001
1000
0010
0100
0001
0000
,  // measure 10
1000
0100
1000
0001
1000
0010
0100
0000
,  // measure 11
0001
1000
0001
1000
0010
0001
1000
0000
,  // measure 12
0110
0000
0000
0000
0000
0000
0000
0000
0000
1000
0000
0000
0000
0000
0000
0000
0000
0000
0100
0000
0000
0000
0000
0000
0000
0000
0000
0001
0000
0000
0000
0000
0000
0000
0000
0000
1000
0000
0000
0000
0000
0000
0000
0000
0000
0010
0000
0000
0000
0000
0000
0000
0000
0000
0001
0000
0000
0000
0000
0000
0000
0000
0000
0100
,  // measure 13
0000
0000
0000
0000
0000
0000
0000
0000
1000
0000
0000
0000
0000
0000
0000
0000
0000
0001
0000
0000
0000
0000
0000
0000
0000
0000
0010
0000
0000
0000
0000
0000
1000
0000
0000
0000
0000
0000
0000
0000
0000
0001
0000
0000
0000
0000
0000
0000
0000
0000
1000
0000
0000
0000
0000
0000
0000
0000
0000
0010
0000
0000
0000
0000
,  // measure 14
0000
0000
0000
0000
0100
0000
0000
0000
0000
0000
0000
0000
0000
1000
0000
0000
0000
0000
0000
0000
0000
0000
0100
0000
0000
0000
0000
0000
0000
0000
0000
0001
0000
0000
0000
0000
0000
0000
0000
0000
1000
0000
0000
0000
0000
0000
0000
0000
0000
0001
0000
0000
0000
0000
0000
0000
0000
0000
0010
0000
0000
0000
0000
0000
,  // measure 15
2000
0000
0000
0000
0000
0000
0000
0000
0000
0100
0000
0000
0000
0000
0000
0000
0000
0000
0010
0000
0000
0000
0000
0000
0000
0000
0000
0100
0000
0000
0000
0000
0000
0000
0000
0000
0001
0000
0000
0000
0000
0000
0000
0000
0000
0100
0000
0000
3000
0000
0000
0000
0000
0000
1000
0000
0000
0000
0000
0000
0000
0000
0000
0010
,  // measure 16
0000
0000
0000
0000
0000
0000
0000
0000
1000
0000
0000
0000
0000
0000
0000
0000
0000
0100
0000
0000
0000
0000
0000
0000
0000
0000
0001
0000
0000
0000
0000
0000
0000
0000
0000
0000
0000
0000
0000
0000
0000
1000
0000
0000
0000
0000
0000
0000
0000
0000
0001
0000
0000
0000
0000
0000
0000
0000
0000
0100
0000
0000
0000
0000
,  // measure 17
0000
0000
0000
0000
0010
0000
0000
0000
0000
0000
0000
0000
0000
1000
0000
0000
0000
0000
0000
0000
0000
0000
0100
0000
0000
0000
0000
0000
0000
0000
0000
0001
0000
0000
0000
0000
0000
0000
0000
0000
0010
0000
0000
0000
0000
0000
0000
0000
0000
1000
0000
0000
0000
0000
0000
0000
0000
0000
0001
0000
0000
0000
0000
0000
,  // measure 18
0010
0000
0000
0000
0000
0000
0001
0000
0000
0101
0000
0000
0000
0000
0000
1010
0000
0000
0000
0000
1010
0000
0000
0000
,  // measure 19
0001
0000
0000
0000
0000
0000
1000
0000
0000
0110
0000
0000
0000
0000
0000
0101
0000
0000
0000
0000
1100
0000
0000
0000
,  // measure 20
0010
0000
0000
0000
0000
0000
1000
0000
0000
0101
0000
0000
0000
0000
0000
0110
0000
0000
0000
0000
1100
0000
0000
0000
,  // measure 21
0000
0000
1100
1000
0001
1000
0001
1000
,  // measure 22
0010
0000
0100
0001
1000
0001
1000
0010
,  // measure 23
0001
0000
0100
0001
1000
0010
1000
0100
,  // measure 24
0001
0000
0020
0100
1030
0100
0001
1000
,  // measure 25
0001
0000
0010
1000
0100
1000
0001
1000
,  // measure 26
0010
0000
0200
0001
1300
0001
1000
0010
,  // measure 27
0001
0000
0100
0010
1000
0100
0001
1000
,  // measure 28
0001
0000
0200
1000
0301
1000
0100
0001
,  // measure 29
1000
0000
0000
0000
0000
0000
0001
0000
1000
0000
0100
0000
0010
0000
1000
0000
0100
0000
0001
0000
1000
0010
0001
0000
,  // measure 30
1000
0000
0010
0000
0001
0000
0100
0000
0001
0010
1000
0000
0010
0000
1000
0000
0100
0000
0001
0100
1000
0000
0001
0000
,  // measure 31
1000
0000
0010
0000
0001
0000
0100
0000
0001
0000
1000
0000
0100
0000
0010
0001
1000
0000
0100
0000
1000
0000
0101
0000
,  // measure 32
0010
0000
0100
0000
0001
0000
1000
0100
0001
0000
0010
0000
0100
0000
1000
0010
0001
0000
0010
0000
0100
0000
0001
0000
,  // measure 33
0100
0000
1000
0000
0010
0000
1000
0000
0100
0000
1000
0100
0001
0000
1000
0000
0001
0000
0010
0000
0000
0000
0100
0000
,  // measure 34
0000
0001
0000
0000
1000
0000
0000
0001
0000
0000
0100
0000
0000
1000
0000
0000
0100
0000
0000
1000
0000
0000
0011
0000
;

//---------------dance-single - ----------------
#NOTEDATA:;
#CHARTNAME:;
#STEPSTYPE:dance-single;
#DESCRIPTION:;
#CHARTSTYLE:;
#DIFFICULTY:Beginner;
#METER:2;
#RADARVALUES:0.065012,0.151695,0.101130,0.000000,0.000000,36.000000,28.000000,8.000000,0.000000,0.000000,0.000000,0.000000,0.000000,0.000000,0.065012,0.151695,0.101130,0.000000,0.000000,36.000000,28.000000,8.000000,0.000000,0.000000,0.000000,0.000000,0.000000,0.000000;
#CREDIT:;
#NOTES:
// measure 0
0000
0000
0000
0000
,  // measure 1
0000
0000
0000
0000
,  // measure 2
0000
0000
0000
0000
,  // measure 3
0000
0000
0000
0000
,  // measure 4
0010
0000
0000
0000
,  // measure 5
0100
0000
0000
0000
,  // measure 6
0001
0000
0000
0000
,  // measure 7
1000
0000
0000
0000
,  // measure 8
0001
0000
0000
0000
,  // measure 9
1000
0000
0000
0000
,  // measure 10
0100
0000
0000
0000
,  // measure 11
1000
0000
0000
0000
,  // measure 12
0011
0000
0000
0000
,  // measure 13
0000
0000
0000
0000
,  // measure 14
0010
0000
0000
0000
,  // measure 15
0000
0000
0000
0000
,  // measure 16
1010
0000
0000
0000
,  // measure 17
0000
0000
0000
0000
,  // measure 18
1000
0000
0000
0000
,  // measure 19
0000
0000
0000
0000
,  // measure 20
0101
0000
0000
0000
,  // measure 21
0110
0000
0000
0000
,  // measure 22
1100
0000
0000
0000
,  // measure 23
0000
0000
0000
0000
,  // measure 24
0010
0000
0000
0000
,  // measure 25
0100
0000
0000
0000
,  // measure 26
1000
0000
0000
0000
,  // measure 27
0001
0000
0000
0000
,  // measure 28
1000
0000
0000
0000
,  // measure 29
0001
0000
0000
0000
,  // measure 30
1000
0000
0000
0000
,  // measure 31
0010
0000
0000
0000
,  // measure 32
1100
0000
0000
0000
,  // measure 33
0000
0000
0000
0000
,  // measure 34
0010
0000
0000
0000
,  // measure 35
0000
0000
0000
0000
,  // measure 36
0011
0000
0000
0000
,  // measure 37
0000
0000
0000
0000
,  // measure 38
0100
0000
0000
0000
,  // measure 39
0000
0000
0000
0000
,  // measure 40
1001
0000
0000
0000
;

//---------------dance-single - ----------------
#NOTEDATA:;
#CHARTNAME:;
#STEPSTYPE:dance-single;
#DESCRIPTION:;
#CHARTSTYLE:;
#DIFFICULTY:Easy;
#METER:5;
#RADARVALUES:0.133636,0.176978,0.063206,0.252825,0.000000,74.000000,69.000000,5.000000,20.000000,0.000000,0.000000,0.000000,0.000000,0.000000,0.133636,0.176978,0.063206,0.252825,0.000000,74.000000,69.000000,5.000000,20.000000,0.000000,0.000000,0.000000,0.000000,0.000000;
#CREDIT:;
#NOTES:
// measure 0
0000
0000
0000
0000
,  // measure 1
0000
0000
0000
0000
,  // measure 2
0000
0000
0000
0000
,  // measure 3
0000
0000
0000
0000
,  // measure 4
1000
0000
0010
0000
,  // measure 5
0001
0000
1000
0000
,  // measure 6
0100
0000
1000
0000
,  // measure 7
0001
0000
0100
0000
,  // measure 8
0100
0000
0010
0000
,  // measure 9
1000
0000
0010
0000
,  // measure 10
0001
0000
1000
0000
,  // measure 11
0100
0000
0001
0000
,  // measure 12
1000
0000
0100
0000
,  // measure 13
0010
0000
0010
0000
,  // measure 14
1000
0000
0100
0000
,  // measure 15
0001
0000
1000
0000
,  // measure 16
0120
0000
1000
0000
,  // measure 17
0031
0000
0100
0000
,  // measure 18
0010
0000
1000
0000
,  // measure 19
0001
0000
0100
0000
,  // measure 20
2000
0000
0000
0000
,  // measure 21
0100
0000
3000
0000
,  // measure 22
0002
0000
0000
0000
,  // measure 23
0000
0000
0003
0000
,  // measure 24
0101
0000
1000
0000
,  // measure 25
0010
0000
0001
0000
,  // measure 26
0100
0000
0001
0000
,  // measure 27
2000
3000
0010
0000
,  // measure 28
1000
0000
0100
0000
,  // measure 29
0002
0003
1000
0000
,  // measure 30
0001
0000
0010
0000
,  // measure 31
2000
3000
1000
0000
,  // measure 32
2010
0000
3020
0000
,  // measure 33
0230
0000
0302
0000
,  // measure 34
2003
0000
3020
0000
,  // measure 35
0032
0000
0203
0300
,  // measure 36
2100
0000
3200
0000
,  // measure 37
0302
0000
2003
0000
,  // measure 38
3020
0000
0230
0000
,  // measure 39
0301
0010
0000
0010
,  // measure 40
1100
0000
0000
0000
;

//---------------dance-single - ----------------
#NOTEDATA:;
#CHARTNAME:;
#STEPSTYPE:dance-single;
#DESCRIPTION:;
#CHARTSTYLE:;
#DIFFICULTY:Medium;
#METER:7;
#RADARVALUES:0.274496,0.303390,0.366597,0.126413,0.000000,152.000000,123.000000,29.000000,10.000000,0.000000,0.000000,0.000000,0.000000,0.000000,0.274496,0.303390,0.366597,0.126413,0.000000,152.000000,123.000000,29.000000,10.000000,0.000000,0.000000,0.000000,0.000000,0.000000;
#CREDIT:;
#NOTES:
// measure 0
0000
0000
0000
0000
,  // measure 1
0000
0000
0000
0000
,  // measure 2
0000
0000
0000
0000
,  // measure 3
0000
0000
0000
0000
,  // measure 4
0010
1100
0001
1000
,  // measure 5
0010
0101
1000
0100
,  // measure 6
0100
0110
0001
1000
,  // measure 7
0010
0101
0010
1000
,  // measure 8
0100
0101
1000
0010
,  // measure 9
0001
0101
1000
0010
,  // measure 10
1000
1100
0001
1000
,  // measure 11
0010
0110
1000
0100
,  // measure 12
0001
1100
0000
1100
,  // measure 13
0010
0110
0000
0110
,  // measure 14
0010
0001
0100
1000
,  // measure 15
0100
0001
1000
0010
,  // measure 16
0102
0010
0000
0010
,  // measure 17
1003
0110
0000
0101
,  // measure 18
1000
0110
0000
1100
,  // measure 19
0100
1010
0000
1100
,  // measure 20
0120
0100
0100
0100
,  // measure 21
1000
1000
1030
1000
,  // measure 22
0200
0001
0001
0001
,  // measure 23
0000
0000
0300
0000
,  // measure 24
0010
0101
1000
0010
,  // measure 25
0100
1100
1000
0100
,  // measure 26
0001
0101
0010
1000
,  // measure 27
0200
0300
0110
0000
1000
0000
0001
0000
,  // measure 28
0100
0101
1000
0010
,  // measure 29
0200
0300
1100
0000
0100
0000
1000
0000
,  // measure 30
0001
0101
1000
0010
,  // measure 31
2000
3000
0101
0000
1000
0000
0010
0000
,  // measure 32
0200
0010
0000
0001
,  // measure 33
0000
0001
0000
0301
,  // measure 34
2000
0100
0000
0100
,  // measure 35
0000
0010
0000
3010
,  // measure 36
0020
1000
0000
1000
,  // measure 37
0000
1000
0000
0130
,  // measure 38
0002
0010
0000
0100
,  // measure 39
0000
1000
0000
1003
,  // measure 40
1001
0000
0000
0000
;

//---------------dance-single - ----------------
#NOTEDATA:;
#CHARTNAME:;
#STEPSTYPE:dance-single;
#DESCRIPTION:;
#CHARTSTYLE:;
#DIFFICULTY:Hard;
#METER:8;
#RADARVALUES:0.319643,0.372127,0.151695,0.101130,0.018962,177.000000,165.000000,12.000000,8.000000,0.000000,0.000000,0.000000,0.000000,0.000000,0.319643,0.372127,0.151695,0.101130,0.018962,177.000000,165.000000,12.000000,8.000000,0.000000,0.000000,0.000000,0.000000,0.000000;
#CREDIT:;
#OFFSET:-0.563000;
#BPMS:0.000000=133.212997
;
#STOPS:92.000000=1.352000
;
#DELAYS:;
#WARPS:;
#TIMESIGNATURES:0.000000=4=4
;
#TICKCOUNTS:0.000000=4
;
#COMBOS:0.000000=1
;
#SPEEDS:0.000000=1.000000=0.000000=0
;
#SCROLLS:0.000000=1.000000
;
#FAKES:;
#LABELS:0.000000=Song Start
;
#NOTES:
// measure 0
0000
0000
0000
0000
,  // measure 1
0000
0000
0000
0000
,  // measure 2
0000
0000
0000
0000
,  // measure 3
0000
0000
0000
0000
,  // measure 4
0001
0000
1100
0000
0010
0100
0001
0000
,  // measure 5
1000
0000
0101
0000
1000
0100
1000
0000
,  // measure 6
0010
0000
0101
0000
0010
0001
0010
0000
,  // measure 7
1000
0000
0101
0000
0001
0100
0001
0000
,  // measure 8
0010
0000
0110
0000
1000
0100
1000
0000
,  // measure 9
0010
0000
0101
0000
1000
0010
1000
0000
,  // measure 10
0100
0000
0101
0000
1000
0010
0100
0000
,  // measure 11
0100
0000
1010
0000
0001
0100
1000
0000
,  // measure 12
0020
0130
0000
0100
,  // measure 13
0001
1000
0000
1000
,  // measure 14
0010
0001
0100
0001
,  // measure 15
1000
0001
1000
0010
,  // measure 16
0200
0001
0000
0001
,  // measure 17
0310
1000
0100
0001
,  // measure 18
1000
0001
1000
0010
,  // measure 19
0100
0001
1000
0001
,  // measure 20
0120
0000
0000
0000
0000
0000
0000
0000
0000
0100
0000
0000
0000
0000
0000
0100
0000
0000
0000
0000
0100
0000
0000
0000
,  // measure 21
2030
0000
0000
0000
0000
0000
0000
0000
0000
0010
0000
0000
0000
0000
0000
0010
0000
0000
0000
0000
0010
0000
0000
0000
,  // measure 22
3002
0000
0000
0000
0000
0000
0000
0000
0000
1000
0000
0000
0000
0000
0000
1000
0000
0000
0000
0000
1000
0000
0000
0000
,  // measure 23
0003
0000
1000
0010
0001
0000
0100
0000
,  // measure 24
0010
0000
1000
0001
0100
0000
0001
0000
,  // measure 25
1000
0000
0010
0100
0010
0000
1000
0000
,  // measure 26
0100
0000
0002
0100
1003
0000
0010
0000
,  // measure 27
0100
0000
0001
1000
0001
0000
0100
0000
,  // measure 28
1000
0000
0020
0100
0031
0000
1000
0000
,  // measure 29
0100
0000
0001
1000
0001
0000
0010
0000
,  // measure 30
0100
0000
2000
0100
3010
0000
0100
0000
,  // measure 31
0001
1100
0100
1000
,  // measure 32
0100
0000
0010
0001
0100
0000
0100
0000
,  // measure 33
0001
0000
1000
0001
0000
0001
0100
0000
,  // measure 34
0010
0000
0010
1000
0100
0000
0001
1000
,  // measure 35
0001
0000
0110
0000
1000
0000
0001
0100
,  // measure 36
0010
0000
0001
0100
0001
0000
0010
0000
,  // measure 37
0100
0000
1000
0100
0000
1000
0010
0000
,  // measure 38
0100
0000
0001
0100
1000
0001
1000
0001
,  // measure 39
1000
0010
1001
0000
0000
0000
0000
0000
;

//---------------pump-single - ----------------
#NOTEDATA:;
#CHARTNAME:;
#STEPSTYPE:pump-single;
#DESCRIPTION:;
#CHARTSTYLE:;
#DIFFICULTY:Easy;
#METER:2;
#RADARVALUES:0.097518,0.151695,0.012641,0.025283,0.000000,54.000000,53.000000,1.000000,2.000000,0.000000,0.000000,0.000000,0.000000,0.000000,0.097518,0.151695,0.012641,0.025283,0.000000,54.000000,53.000000,1.000000,2.000000,0.000000,0.000000,0.000000,0.000000,0.000000;
#CREDIT:;
#NOTES:
00000
00000
00000
00000
,
00000
00000
00000
00000
,
00000
00000
00000
00000
,
00000
00000
00000
00000
,
01000
00000
00000
00000
,
00010
00000
00000
00000
,
00001
00000
00000
00000
,
10000
00000
00000
00000
,
00200
00000
00000
00000
,
00310
00000
00000
00000
,
00010
00000
00000
00000
,
00001
00000
00000
00000
,
10000
00000
10000
00000
,
01000
00000
01000
00000
,
00100
00000
00100
00000
,
00010
00000
00010
00000
,
00001
00000
10000
00000
,
00001
00000
10000
00000
,
00010
00000
01000
00000
,
00010
00000
01000
00000
,
00010
00000
00000
00000
,
01000
00000
00000
00000
,
10000
00000
00000
00000
,
00002
00000
00000
00000
,
10003
00000
00000
00000
,
01000
00000
00000
00000
,
00100
00000
00000
00000
,
01000
00000
00000
00000
,
00010
00000
00000
00000
,
10000
00000
00000
00000
,
00001
00000
00000
00000
,
01000
00000
00000
00000
,
00010
00000
00010
00000
,
10000
00000
10000
00000
,
01000
00000
01000
00000
,
00001
00000
00001
00000
,
01000
00000
01000
00000
,
00010
00000
00010
00000
,
10000
00000
00001
00000
,
10000
00000
00001
00000
,
01010
00000
00000
00000
;

//---------------pump-single - ----------------
#NOTEDATA:;
#CHARTNAME:;
#STEPSTYPE:pump-single;
#DESCRIPTION:;
#CHARTSTYLE:;
#DIFFICULTY:Medium;
#METER:3;
#RADARVALUES:0.180590,0.227543,0.025283,0.101130,0.000000,100.000000,98.000000,2.000000,8.000000,0.000000,0.000000,0.000000,0.000000,0.000000,0.180590,0.227543,0.025283,0.101130,0.000000,100.000000,98.000000,2.000000,8.000000,0.000000,0.000000,0.000000,0.000000,0.000000;
#CREDIT:;
#NOTES:
00000
00000
00000
00000
,
00000
00000
00000
00000
,
00000
00000
00000
00000
,
00000
00000
00000
00000
,
10000
00000
10000
10000
,
00001
00000
00001
00001
,
01000
00000
01000
01000
,
00010
00000
00010
00010
,
10000
00000
10000
10000
,
01000
00000
01000
01000
,
00100
00000
00100
00100
,
00001
00000
00001
00001
,
02000
00000
00010
00000
,
03020
00000
01000
00000
,
10030
10000
10000
10000
,
00010
01000
00001
01000
,
02000
00000
00000
00000
,
03010
00000
00010
00000
,
10000
00001
01000
00010
,
10000
01000
00001
10000
,
00020
00000
10000
00030
,
02000
00000
00001
03000
,
20000
00000
00010
30000
,
00000
00000
00000
00100
,
00110
00001
01000
00000
,
00100
10000
00100
00000
,
01000
10000
01000
00000
,
00001
01000
00001
00000
,
00010
10000
00010
00000
,
01000
00010
01000
00000
,
00001
10000
01000
00000
,
00010
00001
01000
00000
,
00002
00000
00010
00000
,
10000
00000
01000
00000
,
10000
00000
01000
00000
,
00100
00000
10003
10000
,
20000
00000
00001
00000
,
01000
00000
00010
00000
,
01000
00000
00001
00000
,
30010
00001
01000
00100
,
01010
00000
00000
00000
;
