#VERSION:0.83;
#TITLE:gentle stress (AMD SEXUAL MIX);
#SUBTITLE:;
#ARTIST:MR. DOG feat. DJ SWAN;
#TITLETRANSLIT:;
#SUBTITLETRANSLIT:;
#ARTISTTRANSLIT:;
#GENRE:;
#ORIGIN:;
#CREDIT:;
#BANNER:gentle stress (AMD SEXUAL MIX).png;
#BACKGROUND:gentle stress (AMD SEXUAL MIX)-bg.png;
#PREVIEWVID:;
#JACKET:;
#CDIMAGE:;
#DISCIMAGE:;
#LYRICSPATH:;
#CDTITLE:;
#MUSIC:gentle stress (AMD SEXUAL MIX).mp3;
#OFFSET:-4.941000;
#SAMPLESTART:60.272003;
#SAMPLELENGTH:12.000000;
#SELECTABLE:YES;
#DISPLAYBPM:160.000000;
#BPMS:0.000=160.000,
16.000=40.000,
17.000=160.000,
77.000=79.000,
79.000=160.000;
#STOPS:;
#DELAYS:;
#WARPS:;
#TIMESIGNATURES:0.000=4=4;
#TICKCOUNTS:0.000=4;
#COMBOS:0.000=1;
#SPEEDS:0.000=1.000=0.000=0;
#SCROLLS:0.000=1.000;
#FAKES:;
#LABELS:0.000=Song Start;
#BGCHANGES:;
#KEYSOUNDS:;
#ATTACKS:
;

//---------------dance-single - ----------------
#NOTEDATA:;
#CHARTNAME:;
#STEPSTYPE:dance-single;
#DESCRIPTION:;
#CHARTSTYLE:;
#DIFFICULTY:Challenge;
#METER:13;
#RADARVALUES:0.641005,1.021770,0.520718,0.376690,0.243740,405.000000,358.000000,47.000000,34.000000,0.000000,0.000000,0.000000,0.000000,0.000000,0.641005,1.021770,0.520718,0.376690,0.243740,405.000000,358.000000,47.000000,34.000000,0.000000,0.000000,0.000000,0.000000,0.000000;
#CREDIT:;
#DISPLAYBPM:160.000000;
#NOTES:
// measure 0
0000
0000
0000
0000
,  // measure 1
0010
0100
0001
0000
0001
0100
0000
1000
,  // measure 2
0100
0000
0000
0001
0010
0000
0100
0000
0000
0000
0001
0000
0001
0000
0010
0000
,  // measure 3
0001
1000
0001
0000
0010
0100
0010
0000
,  // measure 4
0200
0000
0000
0000
0301
0000
0010
0000
0100
0000
0001
1000
0000
0000
0100
0000
,  // measure 5
0010
1000
0100
0000
0001
1000
0000
1000
,  // measure 6
0010
0100
0010
0100
0010
0000
1000
0000
0000
0000
1000
0000
0001
0000
0100
0000
,  // measure 7
0000
0010
1000
0001
0020
0200
0330
0002
,  // measure 8
2000
3003
0110
0100
0010
1000
0000
0001
,  // measure 9
0100
0000
1000
0001
0010
0000
0000
0000
0100
0000
0001
0000
0000
0000
0010
0000
,  // measure 10
1000
0001
0000
0000
0100
0000
0010
0000
1000
0000
0000
0000
0100
0000
0010
0000
,  // measure 11
0100
0010
0200
0000
0000
0000
0000
0000
,  // measure 12
0000
0300
1001
0100
0010
0100
0000
0010
,  // measure 13
0100
0100
1000
0000
0100
0001
0000
0001
,  // measure 14
0010
0100
0010
0100
0010
0000
1000
0000
0100
0000
0001
0000
1000
0000
0001
0000
,  // measure 15
0000
0010
1000
0100
0002
2000
3003
0020
,  // measure 16
0200
0330
1000
0001
1000
0100
0000
0010
,  // measure 17
0100
0000
0001
0010
0100
0010
0000
0000
0010
0000
1000
0100
0000
0000
1000
0000
,  // measure 18
0001
0100
0000
0000
0010
0000
0100
0000
0001
0000
1000
0000
0000
0000
0100
0000
,  // measure 19
0001
0000
0010
0100
2000
0000
0000
0000
3000
0000
0000
0000
1000
0000
0100
0000
,  // measure 20
0010
0001
1000
0100
0010
0001
1000
0100
,  // measure 21
0010
0001
0000
0010
0010
0000
0001
0010
,  // measure 22
0100
1000
0001
0010
0100
1000
0001
0010
,  // measure 23
0100
0000
1000
0000
0000
0000
0001
0000
0001
0010
0001
0010
1000
0000
0000
0000
,  // measure 24
0002
0000
0000
0023
0000
0000
0032
0000
,  // measure 25
0000
2003
0000
0000
3020
0000
0130
0100
,  // measure 26
0100
0000
0100
0000
0010
0000
0010
0000
0010
0000
0010
0000
1000
0000
0000
0001
,  // measure 27
0000
0000
1000
0000
0000
0001
0000
0000
1000
0000
0000
0000
1000
0000
0100
0000
,  // measure 28
0010
0001
0010
0100
1000
0100
0010
0001
,  // measure 29
0010
0100
0000
0001
0100
0000
0001
0010
,  // measure 30
0100
1000
0100
0010
0001
0010
0100
1000
,  // measure 31
0100
0000
0010
0000
0000
0000
0100
0000
0001
0000
0010
0100
0010
0000
0000
0000
,  // measure 32
2000
0000
0000
3002
0000
0000
2003
0000
,  // measure 33
0000
0000
3020
0000
0000
0000
0000
0000
0230
0000
0000
0300
1001
0000
1001
0000
,  // measure 34
1001
1001
1001
1001
1001
1001
1001
1001
,  // measure 35
1001
0000
1001
0000
1001
0000
0000
0000
0010
0000
0000
0000
1001
0000
0010
1000
,  // measure 36
0100
0000
0001
0000
0010
0000
1000
0001
0010
0000
0100
0000
0010
0000
1000
0000
,  // measure 37
0001
0000
0100
1000
0010
0000
0001
0000
0010
0000
1000
0100
1000
0000
0000
0000
,  // measure 38
0100
0000
0001
0010
1000
0000
0001
0000
1000
0000
0010
0001
0100
0000
0000
0000
,  // measure 39
2000
0002
3003
0200
0020
0330
1000
0001
,  // measure 40
0100
0000
0010
1000
0000
0000
0100
0000
0001
0000
1000
0000
0001
0000
0000
1000
,  // measure 41
0000
0000
0000
0000
0000
0000
0010
0000
0000
0000
0000
0000
0000
0000
0000
0100
0000
0000
0000
0000
0000
0000
0000
0000
0010
0000
0000
0000
0000
0000
0000
0000
0000
0001
0000
0000
0000
0000
0000
0000
0100
0000
0000
0000
1000
0000
0000
0000
,  // measure 42
0010
0000
0000
0000
0100
0000
0000
0000
0001
0000
0000
0000
0100
0000
0000
0000
0010
0000
0000
0000
1000
0000
0000
0000
0100
0000
0000
0000
0001
0000
0000
0000
1000
0000
0000
0000
0001
0000
0000
0000
0000
0000
0100
0000
0000
0010
0000
0000
,  // measure 43
0000
0010
0000
1000
0000
0001
0000
1000
0000
0010
0000
0000
1000
0000
0001
0000
,  // measure 44
0100
0010
1000
0001
0100
0010
1000
0001
,  // measure 45
0100
0010
0000
0001
1000
0000
0001
1000
,  // measure 46
0010
0100
0001
1000
0010
0100
0001
1000
,  // measure 47
0010
0000
0100
0000
0000
0000
0001
0000
0100
0010
0100
0010
0100
0000
0000
0000
,  // measure 48
0002
0000
0000
0203
0000
0000
2300
0000
,  // measure 49
0000
0000
3020
0000
0000
0000
0000
0000
0230
0000
0000
0300
0011
0000
1001
0000
,  // measure 50
1001
1001
1001
1001
1001
1100
1100
1001
,  // measure 51
1001
1001
1001
1001
1001
0101
0101
1001
,  // measure 52
1001
1001
1100
1001
1001
1001
0110
1001
,  // measure 53
0110
0000
1001
0000
0110
0000
0000
0000
0220
0000
0000
0330
2002
0000
0000
0000
,  // measure 54
0000
3003
0000
0000
;
