#TITLE:era (nostalmix);
#SUBTITLE:;
#ARTIST:TaQ;
#TITLETRANSLIT:;
#SUBTITLETRANSLIT:;
#ARTISTTRANSLIT:;
#GENRE:;
#CREDIT:;
#BANNER:era (nostalmix).png;
#BACKGROUND:era (nostalmix)-bg.png;
#LYRICSPATH:;
#CDTITLE:;
#MUSIC:era (nostalmix).ogg;
#OFFSET:0.000000;
#SAMPLESTART:65.333000;
#SAMPLELENGTH:12.000000;
#SELECTABLE:YES;
#BPMS:0.000000=180.000000
,132.000000=90.000000
,164.000000=180.000000
,228.000000=90.000000
;
#STOPS:
;
#BGCHANGES:;
#KEYSOUNDS:;
#ATTACKS:;

//---------------dance-single - ----------------
#NOTES:
     dance-single:
     :
     Beginner:
     1:
     0.102616,0.153830,0.063381,0.137325,0.000000,68.000000,62.000000,6.000000,13.000000,0.000000,0.000000,0.102616,0.153830,0.063381,0.137325,0.000000,68.000000,62.000000,6.000000,13.000000,0.000000,0.000000:
0000
0000
0000
0000
,
0000
0000
0000
0000
,
0000
0000
0000
0000
,
0000
0000
0000
0000
,
0000
0000
0000
0000
,
0001
0000
0000
0000
,
0100
0000
0000
0000
,
1000
0000
0000
0000
,
0001
0000
0000
0000
,
0110
0000
0000
0000
,
0100
0000
0000
0000
,
1000
0000
0000
0000
,
0001
0000
0000
0000
,
1000
0000
0000
0000
,
0001
0000
0000
0000
,
0100
0000
0000
0000
,
1000
0000
0000
0000
,
0210
0000
0000
0000
,
0301
0000
0000
0000
,
1000
0000
0000
0000
,
0001
0000
0000
0000
,
0102
0000
0000
0000
,
0013
0000
0000
0000
,
0010
0000
0000
0000
,
0001
0000
0000
0000
,
2100
0000
0000
0000
,
3010
0000
0000
0000
,
1000
0000
0000
0000
,
0010
0000
0000
0000
,
0102
0000
0000
0000
,
1003
0000
0000
0000
,
0100
0000
0000
0000
,
0001
0000
0000
0000
,
2200
0000
0000
3300
,
0000
0020
0000
0000
,
0002
0000
0000
0033
,
0000
0002
0000
0000
,
2000
0000
0000
3003
,
0000
0020
0000
0000
,
0200
0000
0000
0330
,
0000
0000
0002
0000
,
1003
0000
0000
0000
,
0100
0000
0000
0000
,
0010
0000
0000
0000
,
0001
0000
0000
0000
,
1000
0000
0000
0000
,
0001
0000
0000
0000
,
0100
0000
0000
0000
,
0010
0000
0000
0000
,
1000
0000
0001
0000
,
0100
0000
0010
0000
,
1000
0000
0100
0000
,
0001
0000
1000
0000
,
0001
0000
0100
0000
,
0010
0000
1000
0000
,
0001
0000
0100
0000
,
0010
0000
0100
0000
,
0001
0000
0000
0000
,
0000
0100
0000
0000
;

//---------------dance-single - ----------------
#NOTES:
     dance-single:
     :
     Easy:
     2:
     0.159961,0.184596,0.073944,0.147888,0.000000,106.000000,99.000000,7.000000,14.000000,0.000000,0.000000,0.159961,0.184596,0.073944,0.147888,0.000000,106.000000,99.000000,7.000000,14.000000,0.000000,0.000000:
0000
0000
0000
0000
,
0000
0000
0000
0000
,
0000
0000
0000
0000
,
0000
0000
0000
0000
,
0000
0000
0000
0000
,
0001
0000
0000
0000
,
0010
0000
1000
0000
,
0001
0000
0000
0000
,
0001
0000
0100
0000
,
1100
0000
0010
0000
,
0100
0000
0010
0000
,
0001
0000
0100
0000
,
1000
0000
0001
0000
,
0010
0000
0010
0000
,
0100
0000
0001
0000
,
1000
0000
0100
0000
,
0010
0000
1000
0000
,
0102
0000
0100
0000
,
1003
0000
0010
0000
,
1000
0000
1000
0000
,
0010
0000
0100
0000
,
0102
0000
1000
0000
,
0013
0000
0001
0000
,
0100
0000
1000
0000
,
0010
0000
1000
0000
,
0201
0000
0010
0000
,
0310
0000
1000
0000
,
0010
0000
0001
0000
,
1000
0000
0010
0000
,
2001
0000
0100
0000
,
3010
0000
1000
0000
,
0001
0000
0100
0000
,
1000
0000
0010
0000
,
2002
0000
0000
0003
,
0000
0000
3002
0000
0000
0010
0000
0000
,
0203
0000
0000
0000
,
0000
0000
0320
0000
0000
0100
0000
0000
,
0032
0000
0000
0000
,
0000
0000
2003
0000
0000
0100
0000
0000
,
3020
0000
0000
0000
,
0000
0230
0002
0000
,
0303
0000
0000
0010
,
0100
0000
0000
1000
,
1000
0000
0000
0001
,
0010
0000
0000
0100
,
0001
0000
0000
0001
,
0010
0000
0000
1000
,
1000
0000
0000
0010
,
1000
0000
0000
0100
,
0011
0000
0000
0010
,
0010
0000
0000
1000
,
1000
0000
0000
0100
,
0010
0000
0000
0001
,
0010
0000
0000
1000
,
0100
0000
0000
0001
,
1000
0000
0000
1000
,
0001
0000
0000
0010
,
0100
0000
0000
0000
,
0000
0100
0000
0000
;

//---------------dance-single - ----------------
#NOTES:
     dance-single:
     :
     Medium:
     5:
     0.341049,0.461491,0.063381,0.327467,0.000000,226.000000,220.000000,6.000000,31.000000,0.000000,0.000000,0.341049,0.461491,0.063381,0.327467,0.000000,226.000000,220.000000,6.000000,31.000000,0.000000,0.000000:
// measure 0
0000
0000
0000
0000
,  // measure 1
0000
0000
0000
0000
,  // measure 2
0000
0000
0000
0000
,  // measure 3
0000
0000
0000
0000
,  // measure 4
0000
0000
0000
0000
,  // measure 5
0001
0000
0010
0000
,  // measure 6
0100
0001
1000
0000
,  // measure 7
0010
0000
0100
0000
,  // measure 8
1000
0001
0100
0010
,  // measure 9
1100
1000
0100
0000
,  // measure 10
0001
0010
0001
0000
,  // measure 11
0100
0001
0100
0000
,  // measure 12
1000
1000
1000
0000
,  // measure 13
0001
1000
0001
0000
,  // measure 14
0010
0001
0100
0000
,  // measure 15
1000
0010
1000
0000
,  // measure 16
0001
1000
0001
1000
,  // measure 17
0101
0100
1000
0010
,  // measure 18
0100
0001
1000
0001
,  // measure 19
0100
0100
1000
0100
,  // measure 20
0010
1000
0001
0100
,  // measure 21
1100
0001
0100
1000
,  // measure 22
0010
0010
0100
0010
,  // measure 23
0001
1000
0001
0100
,  // measure 24
0100
1000
0010
0100
,  // measure 25
1001
1000
0010
1000
,  // measure 26
0010
0001
0100
0001
,  // measure 27
0100
1000
0100
0010
,  // measure 28
1000
0001
0100
1000
,  // measure 29
0101
1000
0001
0100
,  // measure 30
1000
0100
0001
0010
,  // measure 31
0010
1000
0100
1000
,  // measure 32
0001
1000
0010
1000
,  // measure 33
0200
0001
0010
1000
0010
0001
1000
0000
,  // measure 34
0310
0001
0100
0001
1000
0010
0100
0000
,  // measure 35
0002
0010
1000
0010
0100
1000
0100
0000
,  // measure 36
1003
0100
0001
1000
0010
0010
0010
0000
,  // measure 37
0020
0100
1000
0100
0001
0001
0001
0000
,  // measure 38
1030
0100
0001
1000
0010
0001
0100
0000
,  // measure 39
0200
0010
1000
0001
1000
0010
1000
0000
,  // measure 40
0310
1000
0001
1000
0020
0000
0000
0000
,  // measure 41
0130
0001
1000
0020
,  // measure 42
0130
1000
0001
0200
,  // measure 43
0310
0001
0100
2000
,  // measure 44
3010
1000
0100
0002
,  // measure 45
0103
0010
0100
0200
,  // measure 46
1300
0001
1000
0002
,  // measure 47
0013
0100
0010
2000
,  // measure 48
3100
0000
0000
0000
0001
0000
0000
0000
0100
0000
0000
0000
0020
0000
0000
0030
,  // measure 49
0201
1000
0302
2003
,  // measure 50
3100
0001
2000
3200
,  // measure 51
0320
0001
1000
0032
,  // measure 52
0013
0200
0320
2030
,  // measure 53
3020
0001
0100
0032
,  // measure 54
0023
1000
0130
2000
,  // measure 55
3200
0001
1000
0320
,  // measure 56
2030
0001
0010
3002
,  // measure 57
0103
0000
0000
0000
,  // measure 58
0000
0100
0000
0000
;

//---------------dance-single - ----------------
#NOTES:
     dance-single:
     :
     Hard:
     8:
     0.511573,0.592082,0.031690,0.242959,0.042254,339.000000,336.000000,3.000000,23.000000,0.000000,0.000000,0.511573,0.592082,0.031690,0.242959,0.042254,339.000000,336.000000,3.000000,23.000000,0.000000,0.000000:
// measure 0
0000
0000
0000
0000
,  // measure 1
0000
0000
0000
0000
,  // measure 2
0000
0000
0000
0000
,  // measure 3
0000
0000
0000
0000
,  // measure 4
0000
0000
0000
0000
,  // measure 5
1000
0001
1000
0010
,  // measure 6
0100
0000
0100
0001
0000
0010
0000
0000
,  // measure 7
0001
1000
0001
1000
,  // measure 8
0010
0000
0100
0001
0000
1000
0000
0000
,  // measure 9
0110
0001
1000
0010
0100
1000
0000
0000
,  // measure 10
0001
0100
0001
1000
0010
0001
0000
0000
,  // measure 11
0010
1000
0100
0001
1000
0001
0000
0000
,  // measure 12
0100
0001
1000
0010
0001
0100
0000
0000
,  // measure 13
0010
1000
0100
0001
1000
0001
0000
0000
,  // measure 14
0010
0001
0100
0001
1000
0010
0000
0000
,  // measure 15
0100
1000
0010
1000
0001
0100
0001
0010
,  // measure 16
1000
0001
0100
0001
0010
1000
0001
1000
,  // measure 17
0102
0010
1000
0000
0100
0010
1000
0000
,  // measure 18
0103
0001
1000
0000
0010
0100
0010
0000
,  // measure 19
1000
0100
1000
0000
0001
0100
1000
0000
,  // measure 20
0100
0001
0010
0000
0001
0100
1000
0000
,  // measure 21
0200
0001
0010
1000
0001
0010
1000
0000
,  // measure 22
1300
0001
0100
0000
0010
1000
0100
0000
,  // measure 23
0010
0001
0100
0000
0010
1000
0001
0000
,  // measure 24
0001
0100
1000
0001
1000
0010
0100
0100
,  // measure 25
0020
1000
0100
0001
1000
0001
0100
0000
,  // measure 26
1030
0100
0010
0000
0100
0010
1000
0000
,  // measure 27
1000
0010
0100
0000
1000
0001
0100
0000
,  // measure 28
0001
1000
1000
0010
0010
0100
0100
0001
,  // measure 29
0002
0010
1000
0010
0100
0000
0000
0000
,  // measure 30
0013
1000
0001
0000
0100
0001
1000
0000
,  // measure 31
0010
0100
0010
0000
1000
0001
0100
0000
,  // measure 32
0001
0010
1000
0001
1000
0001
0100
1000
,  // measure 33
0110
0000
0100
0000
0010
0000
1000
0001
1000
0010
0100
0000
0001
0000
0000
0000
,  // measure 34
0010
0010
0001
1000
0001
0010
0100
0000
,  // measure 35
0010
0000
0010
0000
0100
0000
0001
1000
0010
1000
0100
0000
0010
0000
0000
0000
,  // measure 36
0100
0100
0001
1000
0010
1000
0001
0000
,  // measure 37
1000
0000
1000
0000
0001
0000
0100
0010
1000
0001
0100
0000
0010
0000
0000
0000
,  // measure 38
0100
0100
0010
1000
0001
0100
0010
0000
,  // measure 39
0001
0000
0001
0000
0100
0000
0010
1000
0100
0001
1000
0000
0010
0000
0000
0000
,  // measure 40
0100
0010
1000
0100
0002
0000
0000
0000
,  // measure 41
0103
0000
0001
0100
0001
0000
0002
0100
,  // measure 42
1003
0000
1000
0001
0100
0000
0200
1000
,  // measure 43
0310
0000
0010
0001
1000
0000
2000
0100
,  // measure 44
3001
0000
0001
1000
0100
0000
0200
0001
,  // measure 45
1300
0000
1000
0100
0001
0000
0002
0010
,  // measure 46
0103
0000
0001
0100
1000
0000
2000
0100
,  // measure 47
3010
0000
1000
0010
0001
0000
0002
1000
,  // measure 48
0103
0000
0001
0010
1000
0000
2000
0010
,  // measure 49
3100
0000
0001
1000
0010
0000
0020
1000
,  // measure 50
0031
0000
0100
0010
1000
0000
0200
0001
,  // measure 51
1300
0000
0001
1000
0100
0000
0020
0100
,  // measure 52
0031
0000
1000
0010
0001
0100
2000
0001
,  // measure 53
3100
0000
0010
1000
0100
0000
0200
1000
,  // measure 54
0310
0000
0001
1000
0001
0000
0002
0100
,  // measure 55
1003
0100
0001
1000
0001
0010
2000
0001
,  // measure 56
3100
0010
0001
1000
1000
1000
0002
0100
,  // measure 57
0023
0000
0000
0000
,  // measure 58
0000
0200
0000
0000
,  // measure 59
0330
0000
0000
0000
;
