#TITLE:era (nostalmix);
#SUBTITLE:;
#ARTIST:TaQ;
#TITLETRANSLIT:;
#SUBTITLETRANSLIT:;
#ARTISTTRANSLIT:;
#GENRE:;
#CREDIT:;
#BANNER:era (nostalmix).png;
#BACKGROUND:era (nostalmix)-bg.png;
#LYRICSPATH:;
#CDTITLE:;
#MUSIC:era (nostalmix).mp3;
#OFFSET:-0.042000;
#SAMPLESTART:70.146004;
#SAMPLELENGTH:24.000000;
#SELECTABLE:YES;
#BPMS:0.000000=179.500000
,112.000000=90.000000
,144.000000=180.000000
,240.000000=90.000000
;
#STOPS:
;
#BGCHANGES:;
#KEYSOUNDS:;
#ATTACKS:;

//---------------dance-single - ----------------
#NOTES:
     dance-single:
     :
     Beginner:
     3:
     0.102627,0.149066,0.038314,0.057471,0.000000,75.000000,71.000000,4.000000,6.000000,0.000000,0.000000,0.102627,0.149066,0.038314,0.057471,0.000000,75.000000,71.000000,4.000000,6.000000,0.000000,0.000000:
// measure 0
0000
0000
0000
0000
,  // measure 1
0000
0000
0000
0000
,  // measure 2
0000
0000
0000
0000
,  // measure 3
0000
0000
0000
0000
,  // measure 4
0001
0000
0000
0000
,  // measure 5
0100
0000
0000
0000
,  // measure 6
1000
0000
0000
0000
,  // measure 7
0001
0000
0000
0000
,  // measure 8
0110
0000
0000
0000
,  // measure 9
0100
0000
0000
0000
,  // measure 10
1000
0000
0000
0000
,  // measure 11
0001
0000
0000
0000
,  // measure 12
1000
0000
0000
0000
,  // measure 13
0001
0000
0000
0000
,  // measure 14
0100
0000
0000
0000
,  // measure 15
1000
0000
0000
0000
,  // measure 16
0010
0000
0000
0000
,  // measure 17
0001
0000
0000
0000
,  // measure 18
1000
0000
0000
0000
,  // measure 19
0001
0000
0000
0000
,  // measure 20
0102
0000
0000
0000
,  // measure 21
0013
0000
0000
0000
,  // measure 22
0010
0000
0000
0000
,  // measure 23
0001
0000
0000
0000
,  // measure 24
0100
0000
0000
0000
,  // measure 25
0010
0000
0000
0000
,  // measure 26
1000
0000
0000
0000
,  // measure 27
0010
0000
0000
0000
,  // measure 28
0110
0000
0000
0000
,  // measure 29
0000
0000
0000
0000
,  // measure 30
0000
0000
0000
0000
,  // measure 31
0000
0000
0000
0000
,  // measure 32
2200
0000
0000
3300
,  // measure 33
0000
0000
0000
0000
,  // measure 34
0002
0000
0000
0003
,  // measure 35
0000
0002
0000
0000
,  // measure 36
2000
0000
0000
3003
,  // measure 37
0000
0100
0000
0100
,  // measure 38
0000
0010
0000
0010
,  // measure 39
0000
1000
0000
1000
,  // measure 40
0000
0100
0000
0100
,  // measure 41
0000
0100
0000
0100
,  // measure 42
0000
0010
0000
0010
,  // measure 43
0000
0001
1000
0000
,  // measure 44
0100
0000
0000
0000
,  // measure 45
0001
0000
0000
0000
,  // measure 46
0100
0000
0000
0000
,  // measure 47
0010
0000
0000
0000
,  // measure 48
1000
0000
0000
0000
,  // measure 49
0100
0000
0000
0000
,  // measure 50
1000
0000
0000
0000
,  // measure 51
0001
0000
0000
0000
,  // measure 52
0001
0000
0100
0000
,  // measure 53
0010
0000
1000
0000
,  // measure 54
0001
0000
0100
0000
,  // measure 55
0010
0000
0100
0000
,  // measure 56
0001
0000
1000
0000
,  // measure 57
0001
0000
0001
0000
,  // measure 58
1000
0000
1000
0000
,  // measure 59
0010
0000
0010
0000
,  // measure 60
0100
0000
0000
0000
,  // measure 61
0000
0000
0000
0010
,  // measure 62
0100
1000
0000
0000
;

//---------------dance-single - ----------------
#NOTES:
     dance-single:
     :
     Easy:
     5:
     0.175151,0.271552,0.038314,0.172414,0.000000,128.000000,124.000000,4.000000,18.000000,0.000000,0.000000,0.175151,0.271552,0.038314,0.172414,0.000000,128.000000,124.000000,4.000000,18.000000,0.000000,0.000000:
// measure 0
0000
0000
0000
0000
,  // measure 1
0000
0000
0000
0000
,  // measure 2
0000
0000
0000
0000
,  // measure 3
0000
0000
0000
0000
,  // measure 4
1100
0000
0010
0000
,  // measure 5
0100
0000
0010
0000
,  // measure 6
0001
0000
0100
0000
,  // measure 7
1000
0000
0001
0000
,  // measure 8
0010
0000
0010
0000
,  // measure 9
0100
0000
0001
0000
,  // measure 10
1000
0000
0100
0000
,  // measure 11
0010
0000
1000
0000
,  // measure 12
0100
0000
0100
0000
,  // measure 13
1000
0000
0010
0000
,  // measure 14
1000
0000
1000
0000
,  // measure 15
0010
0000
0100
0000
,  // measure 16
0100
0000
1000
0000
,  // measure 17
0010
0000
0001
0000
,  // measure 18
0100
0000
1000
0000
,  // measure 19
0010
0000
1000
0000
,  // measure 20
0201
0000
0010
0000
,  // measure 21
0310
0000
1000
0000
,  // measure 22
0010
0000
0001
0000
,  // measure 23
1000
0000
0010
0000
,  // measure 24
0001
0000
0100
0000
,  // measure 25
0010
0000
1000
0000
,  // measure 26
0001
0000
0100
0000
,  // measure 27
1000
0000
0010
0000
,  // measure 28
2002
0000
0000
0000
,  // measure 29
3003
0000
0000
0000
,  // measure 30
0200
0000
0000
0000
,  // measure 31
0300
0000
0000
0000
,  // measure 32
0002
0000
0000
0000
,  // measure 33
0000
0000
0000
0000
0000
0203
0000
0000
,  // measure 34
0320
0000
0000
0000
,  // measure 35
0130
0000
0100
0000
0100
0002
0000
0000
,  // measure 36
1003
1000
0000
1000
,  // measure 37
0000
0001
0000
0001
,  // measure 38
0000
0100
0000
0001
,  // measure 39
0000
0010
0000
0100
,  // measure 40
0000
1000
0000
0001
,  // measure 41
0000
0010
0000
1000
,  // measure 42
0000
1000
0000
0010
,  // measure 43
0000
1000
0001
0000
,  // measure 44
0011
0000
0010
0010
,  // measure 45
0010
0100
0100
1000
,  // measure 46
0001
0000
0100
0100
,  // measure 47
0010
0010
1000
0001
,  // measure 48
0010
0000
0100
1000
,  // measure 49
0100
0010
0010
0001
,  // measure 50
1000
0000
0100
1000
,  // measure 51
0001
0100
0001
0010
,  // measure 52
0200
0000
0320
0000
,  // measure 53
0000
0000
0032
0000
,  // measure 54
2003
0000
0000
0000
,  // measure 55
0000
3200
0320
2030
,  // measure 56
3002
0000
0000
1003
,  // measure 57
0100
0000
0000
0001
,  // measure 58
0010
0010
0010
0010
,  // measure 59
0100
0100
0100
0100
,  // measure 60
1000
0000
0000
0000
,  // measure 61
0000
0000
0000
0002
,  // measure 62
2000
0000
0000
0000
,  // measure 63
3003
0000
0000
0000
;

//---------------dance-single - ----------------
#NOTES:
     dance-single:
     :
     Medium:
     9:
     0.313355,0.454382,0.047893,0.316092,0.000000,229.000000,224.000000,5.000000,33.000000,0.000000,0.000000,0.313355,0.454382,0.047893,0.316092,0.000000,229.000000,224.000000,5.000000,33.000000,0.000000,0.000000:
// measure 0
0000
0000
0000
0000
,  // measure 1
0000
0000
0000
0000
,  // measure 2
0000
0000
0000
0000
,  // measure 3
0000
0000
0000
0000
,  // measure 4
1100
1000
0100
0000
,  // measure 5
0001
0010
0001
0000
,  // measure 6
0100
0001
0100
0000
,  // measure 7
1000
1000
1000
0000
,  // measure 8
0001
1000
0001
0000
,  // measure 9
0010
0001
0100
0000
,  // measure 10
1000
0010
1000
0000
,  // measure 11
0001
1000
0001
1000
,  // measure 12
0001
0100
1000
0010
,  // measure 13
0100
0001
1000
0001
,  // measure 14
0100
0100
1000
0100
,  // measure 15
0010
1000
0001
0100
,  // measure 16
1000
0001
0100
1000
,  // measure 17
0010
0010
0100
0010
,  // measure 18
0001
1000
0001
0100
,  // measure 19
0100
1000
0010
0100
,  // measure 20
1001
1000
0010
1000
,  // measure 21
0010
0001
0100
0001
,  // measure 22
0100
1000
0100
0010
,  // measure 23
1000
0001
0100
1000
,  // measure 24
0101
1000
0001
0100
,  // measure 25
1000
0100
0001
0010
,  // measure 26
0010
1000
0100
1000
,  // measure 27
0001
1000
0010
1000
,  // measure 28
0200
0000
0000
0000
0000
0002
0000
0300
,  // measure 29
0000
0020
0000
0003
0000
2030
0000
0000
,  // measure 30
3002
0000
0000
0000
0000
0200
0003
0000
,  // measure 31
0000
0020
0300
0000
0000
0230
0000
0000
,  // measure 32
0320
0100
1000
0100
0001
0001
0001
0000
,  // measure 33
1030
0100
0001
1000
0010
0001
0100
0000
,  // measure 34
0200
0010
1000
0001
1000
0010
1000
0000
,  // measure 35
0310
1000
0001
1000
0020
0000
0000
0000
,  // measure 36
0130
0002
1003
0020
,  // measure 37
0130
2000
3001
0200
,  // measure 38
0310
0002
0103
2000
,  // measure 39
3010
2000
3100
0002
,  // measure 40
0103
0020
0130
0200
,  // measure 41
1300
0002
1003
0002
,  // measure 42
0013
0200
0310
2000
,  // measure 43
3100
0002
0103
0000
,  // measure 44
0101
1000
0001
1000
,  // measure 45
0100
0001
1000
0100
,  // measure 46
0010
0001
2000
3002
,  // measure 47
0023
0100
0130
1000
,  // measure 48
0010
0001
0100
0001
,  // measure 49
0010
1000
0100
1000
,  // measure 50
0100
0001
2000
3020
,  // measure 51
2030
0001
3010
0001
,  // measure 52
0100
0010
0001
1000
,  // measure 53
0100
0100
0010
1000
,  // measure 54
0100
0001
0010
0001
,  // measure 55
1000
0001
0100
1000
,  // measure 56
0001
1000
0001
0100
,  // measure 57
1000
0100
0001
1000
,  // measure 58
0010
0010
0010
0010
,  // measure 59
0010
0010
0010
0010
,  // measure 60
0110
0010
0000
0000
,  // measure 61
0000
0000
0000
0000
0000
0000
0100
0010
,  // measure 62
0100
0200
0000
0000
,  // measure 63
0000
0300
0000
0000
;

//---------------dance-single - ----------------
#NOTES:
     dance-single:
     :
     Hard:
     13:
     0.574713,0.616020,0.019157,0.124521,0.076628,420.000000,418.000000,2.000000,13.000000,0.000000,0.000000,0.574713,0.616020,0.019157,0.124521,0.076628,420.000000,418.000000,2.000000,13.000000,0.000000,0.000000:
// measure 0
1000
0000
0001
0000
0100
0000
0010
1000
,  // measure 1
0001
0100
1000
0000
0100
0000
0001
0000
,  // measure 2
1000
0000
0001
0000
1000
0000
0100
0010
,  // measure 3
1000
0001
1000
0000
0000
0000
1000
1000
,  // measure 4
0110
0001
1000
0010
0100
1000
0000
0000
,  // measure 5
0001
0100
0001
1000
0010
0001
0000
0000
,  // measure 6
0010
1000
0100
0001
1000
0001
0000
0000
,  // measure 7
0100
0001
1000
0010
0001
0100
0000
0000
,  // measure 8
0010
1000
0100
0001
1000
0001
0000
0000
,  // measure 9
0010
0001
0100
0001
1000
0010
0000
0000
,  // measure 10
0100
1000
0010
1000
0001
0100
0001
0010
,  // measure 11
1000
0001
0100
0001
0010
1000
0001
1000
,  // measure 12
0100
0010
1000
0000
0100
0010
1000
0000
,  // measure 13
0100
0001
1000
0000
0010
0100
0010
0000
,  // measure 14
1000
0100
1000
0000
0001
0100
1000
0000
,  // measure 15
0100
0001
0010
0000
0001
0100
1000
0000
,  // measure 16
0100
0001
0010
0000
0001
0010
1000
0000
,  // measure 17
1000
0001
0100
0000
0010
1000
0100
0000
,  // measure 18
0010
0001
0100
0000
0010
1000
0001
0000
,  // measure 19
0001
0100
1000
0001
1000
0010
0100
0100
,  // measure 20
0020
1000
0100
0001
1000
0001
0100
0000
,  // measure 21
1030
0100
0010
0000
0100
0010
1000
0000
,  // measure 22
1000
0010
0100
0000
1000
0001
0100
0000
,  // measure 23
0001
1000
1000
0010
0010
0100
0100
0001
,  // measure 24
0001
0010
1000
0010
0100
0000
0000
0000
,  // measure 25
0010
1000
0001
0000
0100
0001
1000
0000
,  // measure 26
0010
0100
0010
0000
1000
0001
0100
0000
,  // measure 27
0001
0010
1000
0001
1000
0001
0100
1000
,  // measure 28
0020
0000
0000
0000
0000
0200
0030
0000
,  // measure 29
0000
0020
0000
0300
0000
2030
0000
0000
,  // measure 30
3020
0000
0000
0000
0000
2000
0000
0030
,  // measure 31
0000
0002
0000
3000
0000
0020
0000
0003
,  // measure 32
0130
0100
0010
1000
1000
0100
0001
0100
,  // measure 33
0010
0010
0001
1000
0001
0010
0100
1000
,  // measure 34
0010
0010
0100
0001
0010
0100
0010
1000
,  // measure 35
0100
0100
0001
1000
0010
1000
0001
0000
,  // measure 36
1000
1000
0001
0000
1000
0100
0010
0000
,  // measure 37
0100
0100
0010
0000
0001
0100
0010
0000
,  // measure 38
0001
0001
0100
0000
0100
1000
0010
0000
,  // measure 39
0100
0010
1000
0000
0001
1000
0010
0000
,  // measure 40
0100
1000
0001
0000
0001
0010
0001
0000
,  // measure 41
1000
0100
1000
0000
0100
0010
0100
0000
,  // measure 42
0010
0100
0010
0000
1000
0100
1000
0000
,  // measure 43
0001
0010
0001
0000
0020
0000
0200
0330
,  // measure 44
1100
0000
1000
0000
0001
0010
0001
0010
,  // measure 45
0100
0010
0001
0100
1000
0010
1000
0100
,  // measure 46
0010
0000
1000
0000
0001
0010
0001
1000
,  // measure 47
0100
0010
0001
0010
1000
0001
1000
0010
,  // measure 48
0100
0000
0001
1000
0010
0100
0010
1000
,  // measure 49
0001
0010
0100
0010
1000
0001
0010
0001
,  // measure 50
1000
0000
0001
1000
0100
0001
0010
0100
,  // measure 51
0001
0100
1000
0010
0001
0100
1000
0010
,  // measure 52
0100
0001
0010
1000
0100
0010
0001
1000
,  // measure 53
0010
0100
0001
1000
0001
0100
0001
0100
,  // measure 54
1000
0100
0001
1000
0001
0010
1000
0001
,  // measure 55
0100
0010
0001
0100
1000
0100
0001
0100
,  // measure 56
0010
1000
0001
0100
0001
1000
0010
0100
,  // measure 57
0001
1000
0010
0100
0100
1000
0100
0001
,  // measure 58
1000
0001
1000
0010
0100
0001
1000
0001
,  // measure 59
0100
0001
1000
0010
0100
0001
0100
0010
,  // measure 60
1000
1000
0000
0001
0000
1000
0000
0000
1000
0000
0000
1000
0000
0000
1000
0000
,  // measure 61
0000
1000
0100
0000
0001
0100
0000
1000
0100
0000
0010
0000
0100
0000
0010
0001
,  // measure 62
0100
1000
0001
0100
1000
0000
0100
0000
0000
0001
0000
0000
0100
0000
0000
1000
,  // measure 63
0000
0010
0100
0000
0100
0001
0000
0001
1000
0000
1000
0000
0001
0000
2000
0002
,  // measure 64
0000
0000
0000
0000
0000
3003
0000
0000
0000
0000
0000
0000
0000
0000
0000
0000
;
