#VERSION:0.83;
#TITLE:WILD RUSH;
#SUBTITLE:;
#ARTIST:FACTOR-X;
#TITLETRANSLIT:;
#SUBTITLETRANSLIT:;
#ARTISTTRANSLIT:;
#GENRE:;
#ORIGIN:;
#CREDIT:;
#BANNER:WILD RUSH.png;
#BACKGROUND:WILD RUSH-bg.png;
#PREVIEWVID:;
#JACKET:WILD RUSH-jacket.png;
#CDIMAGE:;
#DISCIMAGE:;
#LYRICSPATH:;
#CDTITLE:;
#MUSIC:WILD RUSH.ogg;
#OFFSET:0.000000;
#SAMPLESTART:62.200001;
#SAMPLELENGTH:12.000000;
#SELECTABLE:YES;
#BPMS:0.000=80.000,
36.000=100.000,
68.000=120.000,
100.000=140.000,
132.000=160.000,
164.000=180.000;
#STOPS:;
#DELAYS:;
#WARPS:;
#TIMESIGNATURES:0.000=4=4;
#TICKCOUNTS:0.000=4;
#COMBOS:0.000=1;
#SPEEDS:0.000=1.000=0.000=0;
#SCROLLS:0.000=1.000;
#FAKES:;
#LABELS:0.000=Song Start;
#BGCHANGES:;
#KEYSOUNDS:;
#ATTACKS:
;

//---------------dance-single - ----------------
#NOTEDATA:;
#CHARTNAME:;
#STEPSTYPE:dance-single;
#DESCRIPTION:;
#CHARTSTYLE:;
#DIFFICULTY:Beginner;
#METER:3;
#RADARVALUES:0.115552,0.116944,0.000000,0.000000,0.000000,83.000000,83.000000,0.000000,0.000000,0.000000,0.000000,0.000000,0.000000,0.000000,0.115552,0.116944,0.000000,0.000000,0.000000,83.000000,83.000000,0.000000,0.000000,0.000000,0.000000,0.000000,0.000000,0.000000;
#CREDIT:;
#NOTES:
// measure 0
0000
0000
0000
0000
,  // measure 1
0000
0000
0000
0000
,  // measure 2
0000
0000
0000
0000
,  // measure 3
1000
0000
0001
0000
,  // measure 4
0100
0000
0000
0000
,  // measure 5
0010
0000
0000
0000
,  // measure 6
0000
0000
0000
0000
,  // measure 7
0010
0000
1000
0000
,  // measure 8
0100
0000
0000
0000
,  // measure 9
0100
0000
0000
0000
,  // measure 10
0100
0000
0000
0000
,  // measure 11
1000
0000
1000
0000
,  // measure 12
0001
0000
0001
0000
,  // measure 13
0100
0000
0010
0000
,  // measure 14
1000
0000
0100
0000
,  // measure 15
1000
0000
0001
0000
,  // measure 16
0100
0000
0010
0000
,  // measure 17
0000
0010
0000
0001
,  // measure 18
0000
1000
0000
0100
,  // measure 19
0000
0001
0000
1000
,  // measure 20
0000
0001
0000
1000
,  // measure 21
0000
0010
0000
0001
,  // measure 22
0000
0100
0000
0001
,  // measure 23
0000
1000
0000
0010
,  // measure 24
0000
1000
0000
0100
,  // measure 25
0000
0010
0000
0010
,  // measure 26
0000
1000
0000
0001
,  // measure 27
0000
0100
0000
0001
,  // measure 28
0000
1000
0000
0010
,  // measure 29
0000
1000
0000
0100
,  // measure 30
0000
0001
0000
1000
,  // measure 31
0000
0001
0000
0010
,  // measure 32
0000
0010
0000
0010
,  // measure 33
0100
0000
1000
0000
,  // measure 34
1000
0000
0100
0000
,  // measure 35
1000
0000
0100
0000
,  // measure 36
0001
0000
0010
0000
,  // measure 37
1000
0000
0001
0000
,  // measure 38
0100
0000
0001
0000
,  // measure 39
1000
0000
0100
0000
,  // measure 40
0001
0000
0000
0000
,  // measure 41
0010
0000
0100
0000
,  // measure 42
1000
0000
0010
0000
,  // measure 43
0100
0000
0001
0000
,  // measure 44
1000
0000
0001
0000
,  // measure 45
0100
0000
0010
0000
,  // measure 46
1000
0000
0001
0000
,  // measure 47
0100
0000
1000
0000
,  // measure 48
0001
0000
0000
0000
;

//---------------dance-single - ----------------
#NOTEDATA:;
#CHARTNAME:;
#STEPSTYPE:dance-single;
#DESCRIPTION:;
#CHARTSTYLE:;
#DIFFICULTY:Easy;
#METER:5;
#RADARVALUES:0.201868,0.214337,0.029236,0.019491,0.000000,145.000000,142.000000,3.000000,2.000000,0.000000,0.000000,0.000000,0.000000,0.000000,0.201868,0.214337,0.029236,0.019491,0.000000,145.000000,142.000000,3.000000,2.000000,0.000000,0.000000,0.000000,0.000000,0.000000;
#CREDIT:;
#NOTES:
// measure 0
0000
0000
0000
0000
,  // measure 1
0000
0000
0000
0000
,  // measure 2
0000
0000
0000
0000
,  // measure 3
0001
0000
0001
0000
,  // measure 4
1000
0000
0000
0000
,  // measure 5
0110
0000
0000
0000
,  // measure 6
0000
0000
0000
0000
,  // measure 7
0001
0000
0001
0000
,  // measure 8
1000
0000
0000
0000
,  // measure 9
0010
0000
0010
0000
,  // measure 10
0001
0000
0001
0000
,  // measure 11
1000
1000
0001
0001
,  // measure 12
0100
0100
1000
1000
,  // measure 13
0010
0010
1000
1000
,  // measure 14
0001
0001
0100
0100
,  // measure 15
0010
0010
1000
1000
,  // measure 16
0100
0100
1000
1000
,  // measure 17
0000
0001
0001
1000
,  // measure 18
0010
1000
0100
0001
,  // measure 19
1000
0001
0100
0010
,  // measure 20
1000
0100
1000
0001
,  // measure 21
1000
0100
1000
0010
,  // measure 22
0100
0010
1000
0100
,  // measure 23
0001
1000
0001
0010
,  // measure 24
0001
0100
1000
0010
,  // measure 25
0100
0001
0000
0001
0000
1000
0000
0100
,  // measure 26
0000
1000
0000
0010
0000
1000
0000
0100
,  // measure 27
0000
0001
0000
1000
0000
0001
0000
1000
,  // measure 28
0000
0010
0000
0001
0000
0100
0000
0001
,  // measure 29
0000
1000
0000
0010
0000
1000
0000
0100
,  // measure 30
0000
0001
0000
0010
0000
1000
0000
0100
,  // measure 31
0000
0001
0000
0010
0000
0001
0000
0100
,  // measure 32
0000
0001
0000
1000
0000
0010
0000
0000
,  // measure 33
1010
0010
0010
0000
,  // measure 34
1000
1000
1000
0000
,  // measure 35
0001
0001
0001
0000
,  // measure 36
0100
0100
0100
0000
,  // measure 37
0010
0010
0000
0000
,  // measure 38
1000
1000
0001
0100
,  // measure 39
1000
1000
0000
0000
,  // measure 40
0001
0000
0000
0000
,  // measure 41
0110
0000
0100
0000
,  // measure 42
1000
0000
1000
0000
,  // measure 43
0001
0001
0001
0000
,  // measure 44
1000
1000
0010
0000
,  // measure 45
0100
0100
0001
0000
,  // measure 46
1000
1000
0001
0010
,  // measure 47
0100
0010
0010
0001
,  // measure 48
2000
0000
0000
0000
0200
0000
0000
3300
;

//---------------dance-single - ----------------
#NOTEDATA:;
#CHARTNAME:;
#STEPSTYPE:dance-single;
#DESCRIPTION:;
#CHARTSTYLE:;
#DIFFICULTY:Challenge;
#METER:13;
#RADARVALUES:0.625095,0.826528,0.311851,0.204652,0.199780,449.000000,417.000000,32.000000,21.000000,0.000000,0.000000,0.000000,0.000000,0.000000,0.625095,0.826528,0.311851,0.204652,0.199780,449.000000,417.000000,32.000000,21.000000,0.000000,0.000000,0.000000,0.000000,0.000000;
#CREDIT:;
#OFFSET:0.000000;
#BPMS:0.000000=160.000000
,72.000000=100.000000
,104.000000=120.000000
,136.000000=280.000000
,192.000000=140.000000
,196.000000=160.000000
,228.000000=360.000000
;
#STOPS:;
#DELAYS:;
#WARPS:;
#TIMESIGNATURES:0.000000=4=4
;
#TICKCOUNTS:0.000000=4
;
#COMBOS:0.000000=1
;
#SPEEDS:0.000000=1.000000=0.000000=0
;
#SCROLLS:0.000000=1.000000
;
#FAKES:;
#LABELS:0.000000=Song Start
;
#NOTES:
// measure 0
0000
0000
0000
0000
,  // measure 1
0000
0000
0000
0000
,  // measure 2
0000
0000
0000
0000
,  // measure 3
0000
0000
0000
0000
,  // measure 4
0001
0000
0100
0000
1000
0000
0010
0100
0010
0100
0010
0000
1000
0000
0001
0000
,  // measure 5
0100
0000
0010
0000
,  // measure 6
0001
0100
1000
0100
0010
0000
0100
1000
,  // measure 7
0001
0000
0000
0100
1000
0100
0000
0000
0000
0000
0002
0000
0010
0000
0010
0000
,  // measure 8
0203
1000
0001
0320
1000
0100
0032
0000
,  // measure 9
0003
0001
0010
0100
1000
0100
0010
0001
,  // measure 10
0000
0220
0000
0000
0000
0330
0000
0000
,  // measure 11
0100
1000
0001
0100
0001
0010
1000
0001
,  // measure 12
0100
0000
0010
0000
1000
0000
0001
0100
0000
0001
0100
0000
1000
0000
0000
0000
,  // measure 13
0010
0100
0010
1000
0001
1000
0100
1000
,  // measure 14
0001
0010
0100
1000
0100
0001
0100
0001
,  // measure 15
1000
0010
1000
0100
0000
0100
0100
0010
,  // measure 16
0000
0000
0100
0000
0010
0000
0000
0000
0001
1000
0001
1000
0001
0000
1000
0000
,  // measure 17
0000
0002
0203
2300
3020
0032
0203
2300
,  // measure 18
3020
0000
0030
0000
,  // measure 19
0100
0000
0000
0000
0002
0000
0000
0000
0000
0000
0000
0010
0000
1000
0000
0010
0003
0000
0000
0000
0000
0000
0000
0000
0000
0000
0000
0000
0000
0000
0000
0000
,  // measure 20
1000
0000
1000
0000
1000
0100
0010
1000
0001
0000
0001
0000
0001
0010
0000
0000
,  // measure 21
0100
0000
0100
0000
1000
0001
0100
0000
0010
0000
0010
0000
0100
0010
0100
0010
,  // measure 22
0001
0000
1000
0000
0100
0010
0000
0000
0001
0000
1000
0000
0001
1000
0001
0100
,  // measure 23
0010
0000
0100
0000
0010
0001
0010
0000
1000
0000
0100
0000
1000
0100
0010
1000
,  // measure 24
0001
0000
0100
0000
0001
0100
0001
0000
1000
0000
0010
0000
1000
0001
0000
0000
,  // measure 25
0100
0000
0010
0000
0100
1000
0000
0000
0001
0000
0100
0000
1000
0010
0000
0000
,  // measure 26
0200
0000
0301
1000
0001
1000
0010
0001
,  // measure 27
0100
0001
1000
0010
0100
0010
1000
0200
,  // measure 28
0302
1003
0010
0100
0001
1000
0001
1000
,  // measure 29
0010
0100
0001
0000
1000
0100
0000
0010
1000
0000
0010
0001
0000
0100
0010
0000
,  // measure 30
2000
0100
3001
0100
0001
1000
0010
1000
,  // measure 31
0100
0010
0001
0000
1000
0000
0001
0000
1000
0001
0010
0000
0100
0000
0010
0000
,  // measure 32
0002
0000
0010
0000
1003
0000
0100
0000
0001
0010
1000
0000
0001
0000
1000
0000
,  // measure 33
0010
0001
0100
0000
0001
0000
1000
0000
0001
0010
1000
0000
0100
0000
0001
0000
,  // measure 34
0011
1000
0100
0001
,  // measure 35
1000
0001
1000
0001
,  // measure 36
0100
0010
0001
0100
,  // measure 37
0001
1000
0010
0101
,  // measure 38
0101
1000
0001
1000
,  // measure 39
0100
1000
0100
0001
,  // measure 40
1000
0001
1000
0010
,  // measure 41
0100
0000
0010
0000
1000
0010
0000
0010
,  // measure 42
0001
0010
0001
0100
,  // measure 43
0100
1000
0001
1000
,  // measure 44
0001
0010
0100
0001
,  // measure 45
1000
0001
1000
0001
,  // measure 46
0110
0010
1000
0100
,  // measure 47
0001
1000
0010
0100
,  // measure 48
0000
0010
0000
0010
0000
0010
0000
0010
,  // measure 49
1000
0000
0100
0000
0010
0000
1000
0000
0001
0000
0100
0000
0001
0000
0010
0100
,  // measure 50
1000
0001
0100
0001
1000
0010
0000
1000
,  // measure 51
0001
0100
0010
0000
0010
1000
0000
0001
,  // measure 52
0100
0000
1000
0000
0001
0000
0000
0000
0010
1000
0000
0000
0100
0000
0000
0000
,  // measure 53
0001
1000
0001
1000
0010
0001
0100
0001
,  // measure 54
1000
0000
0001
0000
1000
0000
0010
0000
0100
0001
1000
0001
0100
0000
0001
0000
,  // measure 55
1000
0001
1000
0010
0001
1000
0001
0100
,  // measure 56
0000
0101
0000
0101
0000
1010
0000
0000
,  // measure 57
1000
0001
0110
0001
,  // measure 58
1000
0010
1100
0100
,  // measure 59
0001
1000
1001
1000
,  // measure 60
0010
0011
0011
0001
,  // measure 61
1000
0001
1100
0010
,  // measure 62
0001
0110
0010
1000
,  // measure 63
0100
0000
0001
0000
1100
0000
0010
0001
,  // measure 64
0100
0001
0010
0000
1100
0000
0100
0000
,  // measure 65
0001
1000
0011
1000
,  // measure 66
0100
0000
0001
0000
0010
1000
0001
1000
,  // measure 67
0100
1000
0011
1000
,  // measure 68
0010
0011
1100
0010
,  // measure 69
0100
0010
0110
0100
,  // measure 70
0100
0110
0101
1010
,  // measure 71
1001
1001
1001
1001
,  // measure 72
1001
1001
1001
0200
,  // measure 73
0000
0000
0000
0300
;

//---------------dance-single - ----------------
#NOTEDATA:;
#CHARTNAME:;
#STEPSTYPE:dance-single;
#DESCRIPTION:;
#CHARTSTYLE:;
#DIFFICULTY:Medium;
#METER:7;
#RADARVALUES:0.296537,0.360883,0.077963,0.029236,0.004873,213.000000,205.000000,8.000000,3.000000,0.000000,0.000000,0.000000,0.000000,0.000000,0.296537,0.360883,0.077963,0.029236,0.004873,213.000000,205.000000,8.000000,3.000000,0.000000,0.000000,0.000000,0.000000,0.000000;
#CREDIT:;
#NOTES:
// measure 0
0000
0000
0000
0000
,  // measure 1
0000
0000
0000
0000
,  // measure 2
0000
0000
0000
0000
,  // measure 3
0001
0010
1000
0000
0001
0100
0001
0000
,  // measure 4
0010
0100
0010
0100
0000
0001
0001
0001
,  // measure 5
0101
0010
0100
0001
,  // measure 6
1000
0000
0000
0000
0000
0000
0000
0000
0000
0001
0000
0000
0010
0000
0000
0000
,  // measure 7
0001
0010
1000
0000
0100
0010
0100
0000
,  // measure 8
0001
1000
0001
1000
0000
0010
0010
0010
,  // measure 9
1010
0000
0000
0000
,  // measure 10
0100
0002
0000
0000
0003
0000
0000
0000
,  // measure 11
0010
0000
0010
0000
0001
0100
1000
0000
,  // measure 12
1000
0000
1000
0000
0001
0010
0001
0000
,  // measure 13
0010
0000
0010
0000
1000
0100
1000
0000
,  // measure 14
0001
0000
0001
0000
0100
0010
0100
1000
,  // measure 15
0100
0000
0100
0000
0010
1000
0010
0000
,  // measure 16
0001
0000
0001
0000
0010
1000
0001
0000
,  // measure 17
0000
0101
0001
0001
,  // measure 18
0001
0000
1000
0000
0010
0100
1000
0010
,  // measure 19
0100
1000
0100
0001
,  // measure 20
1000
0000
0010
0000
0100
1000
0001
0000
,  // measure 21
1001
1000
0100
0001
,  // measure 22
1000
0000
0100
0000
0001
1000
0010
0000
,  // measure 23
0101
1000
0100
0001
,  // measure 24
1000
0010
1000
0001
,  // measure 25
0100
0010
0000
1000
0000
0100
0000
1000
,  // measure 26
0000
0001
0000
0100
0000
0001
0000
0010
,  // measure 27
1000
0010
0000
0100
0000
0001
0000
1000
,  // measure 28
0000
0010
0000
0100
0000
1000
0000
0100
,  // measure 29
0001
1000
0000
0100
0000
0001
0000
1000
,  // measure 30
0000
0001
0000
1000
0000
0010
0000
0001
,  // measure 31
0001
0100
0000
0001
0000
1000
0000
0010
,  // measure 32
0000
0001
0000
0001
0000
0001
0000
0001
,  // measure 33
1100
1000
0001
0100
,  // measure 34
0001
1000
0010
1000
,  // measure 35
0100
0001
1000
0001
,  // measure 36
0100
0000
0010
0000
1000
0001
0100
0000
,  // measure 37
0001
1000
0001
1000
,  // measure 38
0010
0001
0110
0001
,  // measure 39
1000
0010
0100
0100
,  // measure 40
0010
0100
0000
0100
0000
0100
0000
0100
,  // measure 41
1000
0010
0001
0100
,  // measure 42
1000
0100
0001
0010
,  // measure 43
0001
0001
0001
0001
,  // measure 44
1000
1000
1000
1000
,  // measure 45
0011
0010
0100
0100
,  // measure 46
0001
1000
0100
0001
,  // measure 47
1000
0010
0001
0100
,  // measure 48
0001
0000
1000
0000
0001
0000
0002
2000
,  // measure 49
0000
0000
0000
3003
0000
0000
0000
0000
;

//---------------dance-single - ----------------
#NOTEDATA:;
#CHARTNAME:;
#STEPSTYPE:dance-single;
#DESCRIPTION:;
#CHARTSTYLE:;
#DIFFICULTY:Hard;
#METER:11;
#RADARVALUES:0.414874,0.695940,0.136435,0.253379,0.160798,298.000000,284.000000,14.000000,26.000000,0.000000,0.000000,0.000000,30.000000,0.000000,0.414874,0.695940,0.136435,0.253379,0.160798,298.000000,284.000000,14.000000,26.000000,0.000000,0.000000,0.000000,30.000000,0.000000;
#CREDIT:;
#NOTES:
// measure 0
0000
0000
0000
0000
,  // measure 1
0000
0000
0000
0000
,  // measure 2
0000
0000
0000
0000
,  // measure 3
2000
0001
0100
0001
3100
0010
0100
1000
,  // measure 4
0001
0000
0100
0000
0001
0000
1000
0000
0000
0001
0010
0100
1000
0100
0010
0001
,  // measure 5
0000
1002
0000
0000
0000
0000
0000
0003
0000
0100
0010
1000
0100
0001
1000
0100
,  // measure 6
0010
0000
0001
0100
0000
0100
1000
0000
0000
0100
0010
0001
1000
0001
1000
0100
,  // measure 7
2000
0010
0100
0001
0100
0010
3001
0100
0001
0100
0010
1000
0000
0100
0010
0100
,  // measure 8
0000
0000
0000
0001
0000
0000
1000
0000
0000
0000
0000
0000
1000
0000
0001
0000
1000
0000
0001
0000
0000
0010
0000
0000
0000
0000
0000
0000
0000
0000
0001
0000
0000
0010
0000
0000
0100
0000
0000
1000
0000
0000
0100
0000
0000
0010
0000
0000
,  // measure 9
0002
0010
0103
0010
,  // measure 10
1000
0001
0100
0000
0100
0000
0100
0020
,  // measure 11
1000
1030
1100
0000
0001
0001
0011
0000
,  // measure 12
0010
0010
0110
0000
0100
0100
1100
0000
,  // measure 13
0201
0301
0101
0000
1000
1000
1010
0000
,  // measure 14
0100
0100
0110
0000
0001
0001
0101
0020
,  // measure 15
0100
0130
1100
0000
1000
1000
1001
0000
,  // measure 16
0010
0010
1010
0000
0100
0100
0101
0000
,  // measure 17
2000
0000
3100
00L0
0000
000L
0000
L000
,  // measure 18
0000
0L00
0000
000L
0000
L000
0000
0002
,  // measure 19
0020
0033
L000
0000
0000
0000
00L0
0000
0000
0000
L000
0000
0000
0000
0L00
0000
,  // measure 20
0000
000L
0000
L000
0000
000L
0000
0L00
,  // measure 21
2000
00L0
3000
000L
0000
0L00
0000
L000
,  // measure 22
0000
000L
0000
L000
0000
000L
0000
00L0
,  // measure 23
0002
L000
0003
0L00
0000
000L
0000
L000
,  // measure 24
0000
000L
0000
L000
0000
00L0
0000
000L
,  // measure 25
0200
1000
0000
0001
0300
1000
0000
0100
,  // measure 26
0000
0001
0000
1000
0000
0010
0100
0002
,  // measure 27
0100
0013
0000
1000
0000
0100
0000
0001
,  // measure 28
0000
0000
1000
0000
0000
0000
0001
0000
0000
0000
1000
0000
0010
0100
0000
0010
,  // measure 29
0200
1000
0000
1000
0000
1000
0300
0020
,  // measure 30
0000
0100
0000
0001
0030
1000
0000
0100
,  // measure 31
0020
0100
0000
1000
0030
0001
0000
1000
,  // measure 32
0000
0100
0000
0100
0000
0100
0000
0100
,  // measure 33
0002
0000
0010
0000
1003
0100
0000
0100
,  // measure 34
0001
0010
1000
0000
1000
0010
0000
0100
,  // measure 35
0020
1000
0100
0000
0030
1000
0000
0000
,  // measure 36
0010
0100
0000
0001
0000
0100
0000
0001
,  // measure 37
2000
0000
0010
0000
0100
0001
0000
0001
,  // measure 38
3010
0000
0100
0000
0010
1000
0010
1000
,  // measure 39
0200
0000
0000
0000
0010
0000
0000
0010
0300
0000
0010
0000
0000
0000
0000
0000
,  // measure 40
1000
0001
0000
0001
0000
0001
0000
0001
,  // measure 41
0020
0100
1000
0100
0030
0000
0010
0000
,  // measure 42
1000
0001
1000
0010
0100
0100
0100
0000
,  // measure 43
0010
1000
0200
0010
1000
0010
0300
1000
,  // measure 44
0100
0001
0010
1000
0010
1000
0010
0000
,  // measure 45
0002
0100
1000
0100
0003
0000
0010
0010
,  // measure 46
0020
0100
0001
1000
0100
0100
0100
0000
,  // measure 47
0001
1000
0100
0001
1000
0001
1000
0001
,  // measure 48
0100
1000
0100
0001
0100
0100
0100
0200
,  // measure 49
0000
0330
0000
0000
;
