#TITLE:TwinBee ~Generation X~;
#SUBTITLE:;
#ARTIST:Final Offset;
#TITLETRANSLIT:;
#SUBTITLETRANSLIT:;
#ARTISTTRANSLIT:;
#GENRE:;
#CREDIT:;
#BANNER:Twin Bee -Generation X-.png;
#BACKGROUND:Twin Bee -Generation X--bg.png;
#LYRICSPATH:;
#CDTITLE:;
#MUSIC:Twin Bee -Generation X-.ogg;
#OFFSET:0.000000;
#SAMPLESTART:21.299999;
#SAMPLELENGTH:12.000000;
#SELECTABLE:YES;
#DISPLAYBPM:169.000000;
#BPMS:0.000000=169.014008
;
#STOPS:
;
#BGCHANGES:2.000=TwinBee ~Generation X~ BGA HD.mp4=1.000=1=0=1===CrossFade==,
197.000=Twin Bee -Generation X--bg.png=1.000=1=0=1===CrossFade==,
99999=-nosongbg-=1.000=0=0=0 // don't automatically add -songbackground-
;
#KEYSOUNDS:;
#ATTACKS:;

//---------------dance-single - ----------------
#NOTES:
     dance-single:
     :
     Beginner:
     2:
     0.098616,0.196739,0.345156,0.027612,0.000000,50.000000,25.000000,25.000000,2.000000,0.000000,0.000000,0.098616,0.196739,0.345156,0.027612,0.000000,50.000000,25.000000,25.000000,2.000000,0.000000,0.000000:
0000
0000
0000
0000
,
0000
0000
0000
0000
,
0000
0000
0000
0000
,
0000
0000
0000
0000
,
0000
0000
0000
0000
,
0000
0000
0000
0000
,
1001
0000
0000
0000
,
0000
0000
0000
0000
,
0101
0000
0000
0000
,
0000
0000
0000
0000
,
0110
0000
0000
0000
,
0000
0000
0000
0000
,
1100
0000
0000
0000
,
0000
0000
0000
0000
,
0110
0000
0000
0000
,
0110
0000
0000
0000
,
0000
0000
0000
0000
,
1001
0000
0000
0000
,
0000
0000
0000
0000
,
0101
0000
0000
0000
,
0000
0000
0000
0000
,
1010
0000
0000
0000
,
0000
0000
0000
0000
,
1100
0000
0000
0000
,
0000
0000
0000
0000
,
0101
0000
0000
0000
,
0000
0000
0000
0000
,
0101
0000
0000
0000
,
0000
0000
0000
0000
,
1010
0000
0000
0000
,
0000
0000
0000
0000
,
1100
0000
0000
0000
,
0000
0000
0000
0000
,
1001
0000
0000
0000
,
0000
0000
0000
0000
,
0101
0000
0000
0000
,
0000
0000
0000
0000
,
1100
0000
0000
0000
,
0000
0000
0000
0000
,
1100
0000
0000
0000
,
0110
0000
0000
0000
,
0110
0000
0000
0000
,
1001
0000
0000
0000
,
1001
0000
0000
0000
,
0101
0000
0000
0000
,
0110
0000
0000
0000
,
0000
0000
0000
0000
,
2002
0000
3003
0000
;

//---------------dance-single - ----------------
#NOTES:
     dance-single:
     :
     Easy:
     3:
     0.177509,0.327898,0.151869,0.041419,0.000000,90.000000,79.000000,11.000000,3.000000,0.000000,0.000000,0.177509,0.327898,0.151869,0.041419,0.000000,90.000000,79.000000,11.000000,3.000000,0.000000,0.000000:
// measure 0
0000
0000
0000
0000
,  // measure 1
0000
0000
0000
0000
,  // measure 2
0000
0000
0000
0000
,  // measure 3
0000
0000
0000
0000
,  // measure 4
0000
0000
0000
0000
,  // measure 5
0000
0000
0000
0000
,  // measure 6
1001
0000
1000
0000
,  // measure 7
0001
0000
0001
0000
,  // measure 8
1000
0000
1000
0000
,  // measure 9
0010
0000
0010
0000
,  // measure 10
0100
0000
0100
0000
,  // measure 11
0001
0000
0001
0000
,  // measure 12
1000
0000
0010
0000
,  // measure 13
0001
0000
1000
0000
,  // measure 14
0020
0000
0000
0000
,  // measure 15
0130
0000
0100
0000
,  // measure 16
1000
0000
1000
0000
,  // measure 17
0001
0000
0001
0000
,  // measure 18
0101
0000
0000
0000
,  // measure 19
0010
0000
0010
0000
,  // measure 20
1000
0000
0001
0001
,  // measure 21
1000
0000
0100
0000
,  // measure 22
0010
0000
1000
0000
,  // measure 23
0001
0000
0100
0000
,  // measure 24
0010
0000
0001
0000
,  // measure 25
0100
0000
0100
0000
,  // measure 26
0000
0000
0100
0100
,  // measure 27
0110
0000
0010
0000
,  // measure 28
0001
0000
0001
0000
,  // measure 29
1000
0000
0010
0000
,  // measure 30
0100
0000
0000
0000
,  // measure 31
0001
0000
0001
0000
,  // measure 32
1000
0000
1000
0000
,  // measure 33
0010
0000
0000
0000
,  // measure 34
0010
0000
0000
0000
,  // measure 35
0110
0000
0100
0000
,  // measure 36
1000
0000
1000
0000
,  // measure 37
0001
0000
0001
0000
,  // measure 38
0100
0000
0100
0000
,  // measure 39
0001
0000
0001
0000
,  // measure 40
0010
0000
0001
0000
,  // measure 41
0100
0000
1000
0000
,  // measure 42
0110
0000
0110
0000
,  // measure 43
1000
0000
1000
0000
,  // measure 44
0001
0000
0001
0000
,  // measure 45
0110
0000
0101
0000
,  // measure 46
1001
0000
1001
0000
,  // measure 47
2002
0000
3003
0000
;
