#VERSION:0.83;
#TITLE:TRIP MACHINE;
#SUBTITLE:;
#ARTIST:DE-SIRE;
#TITLETRANSLIT:;
#SUBTITLETRANSLIT:;
#ARTISTTRANSLIT:;
#GENRE:;
#ORIGIN:;
#CREDIT:;
#BANNER:TRIP MACHINE.png;
#BACKGROUND:TRIP MACHINE-bg.png;
#PREVIEWVID:;
#JACKET:;
#CDIMAGE:;
#DISCIMAGE:;
#LYRICSPATH:;
#CDTITLE:;
#MUSIC:TRIP MACHINE.ogg;
#OFFSET:0.000000;
#SAMPLESTART:61.463001;
#SAMPLELENGTH:12.000000;
#SELECTABLE:YES;
#DISPLAYBPM:160.000000;
#BPMS:0.000=160.142,
20.000=160.089;
#STOPS:;
#DELAYS:;
#WARPS:;
#TIMESIGNATURES:0.000=4=4;
#TICKCOUNTS:0.000=4;
#COMBOS:0.000=1;
#SPEEDS:0.000=1.000=0.000=0;
#SCROLLS:0.000=1.000;
#FAKES:;
#LABELS:0.000=Song Start;
#BGCHANGES:;
#KEYSOUNDS:;
#ATTACKS:
;

//---------------dance-single - ----------------
#NOTEDATA:;
#CHARTNAME:;
#STEPSTYPE:dance-single;
#DESCRIPTION:;
#CHARTSTYLE:;
#DIFFICULTY:Beginner;
#METER:4;
#RADARVALUES:0.161503,0.263411,0.113052,0.079136,0.000000,100.000000,90.000000,10.000000,7.000000,0.000000,0.000000,0.000000,0.000000,0.000000,0.161503,0.263411,0.113052,0.079136,0.000000,100.000000,90.000000,10.000000,7.000000,0.000000,0.000000,0.000000,0.000000,0.000000;
#CREDIT:;
#DISPLAYBPM:160.000000;
#NOTES:
// measure 0
0000
0000
0000
0000
,  // measure 1
0000
0000
0000
0000
,  // measure 2
0000
0000
0000
0000
,  // measure 3
0000
0000
0000
0000
,  // measure 4
0000
0000
0000
0000
,  // measure 5
0000
0000
0000
0000
,  // measure 6
0100
0000
0100
0000
,  // measure 7
0100
0000
0100
0000
,  // measure 8
0100
0000
0000
0010
,  // measure 9
1001
0000
0000
0100
,  // measure 10
0001
0000
0000
0001
,  // measure 11
0100
0000
0000
0000
,  // measure 12
0010
0100
0000
1000
,  // measure 13
0100
0000
0000
0000
,  // measure 14
0001
0001
0001
0001
,  // measure 15
0010
0000
0000
0000
,  // measure 16
1000
0000
0000
0000
,  // measure 17
0110
0000
0000
0000
,  // measure 18
0001
0000
0000
0000
,  // measure 19
1000
0000
1000
0000
,  // measure 20
0001
0000
0001
0000
,  // measure 21
0010
0000
0000
0000
,  // measure 22
0100
0000
0000
0000
,  // measure 23
0001
0000
0001
0000
,  // measure 24
1000
0000
1000
0000
,  // measure 25
0100
0000
0000
0000
,  // measure 26
0101
0000
0000
0000
,  // measure 27
0110
0000
0010
0000
,  // measure 28
1100
0000
0001
0000
,  // measure 29
1010
0000
1000
0000
,  // measure 30
0101
0000
0000
0000
,  // measure 31
0110
0000
1000
0000
,  // measure 32
0100
0000
0010
0010
,  // measure 33
0001
0000
0000
0000
,  // measure 34
0100
0000
1000
1000
,  // measure 35
0100
0000
0000
0000
,  // measure 36
0010
0000
0100
0100
,  // measure 37
0001
0000
0000
0000
,  // measure 38
0010
0000
0001
0001
,  // measure 39
1000
0000
0000
0000
,  // measure 40
0010
0000
0000
0000
,  // measure 41
0001
0000
0000
0000
,  // measure 42
0110
0000
0000
0000
,  // measure 43
0100
0000
0000
0000
,  // measure 44
0001
1000
0000
0000
,  // measure 45
0100
0000
0000
0000
,  // measure 46
0010
0100
0000
0000
,  // measure 47
0001
0000
0000
0000
,  // measure 48
1000
0000
0010
0010
,  // measure 49
1100
0000
0000
0000
,  // measure 50
0010
0000
0000
0100
,  // measure 51
0001
0000
0002
0000
,  // measure 52
0023
0000
2030
0000
,  // measure 53
3100
0100
0000
0000
,  // measure 54
0010
0000
0100
0000
,  // measure 55
0100
0000
0000
0000
,  // measure 56
0001
0000
0000
0000
,  // measure 57
0020
0030
0000
0020
0030
0000
0200
0300
,  // measure 58
0000
0200
0300
0000
0000
0000
0000
0000
;

//---------------dance-single - ----------------
#NOTEDATA:;
#CHARTNAME:;
#STEPSTYPE:dance-single;
#DESCRIPTION:;
#CHARTSTYLE:;
#DIFFICULTY:Easy;
#METER:7;
#RADARVALUES:0.311700,0.420694,0.192188,0.056526,0.000000,193.000000,176.000000,17.000000,5.000000,0.000000,0.000000,0.000000,0.000000,0.000000,0.311700,0.420694,0.192188,0.056526,0.000000,193.000000,176.000000,17.000000,5.000000,0.000000,0.000000,0.000000,0.000000,0.000000;
#CREDIT:;
#OFFSET:0.000000;
#BPMS:0.000000=160.141998
,20.000000=160.089005
,100.000000=80.199997
,102.000000=160.089005
,162.000000=80.044502
,164.000000=160.089005
;
#STOPS:;
#DELAYS:;
#WARPS:;
#TIMESIGNATURES:0.000000=4=4
;
#TICKCOUNTS:0.000000=4
;
#COMBOS:0.000000=1
;
#SPEEDS:0.000000=1.000000=0.000000=0
;
#SCROLLS:0.000000=1.000000
;
#FAKES:;
#LABELS:0.000000=Song Start
;
#DISPLAYBPM:160.000000;
#NOTES:
// measure 0
0000
0000
0000
0000
,  // measure 1
0000
0000
0000
0000
,  // measure 2
0000
0000
0000
0000
,  // measure 3
0000
0000
0000
0000
,  // measure 4
0000
0000
0000
0000
,  // measure 5
0000
0000
0000
0000
,  // measure 6
0100
0000
0100
0000
,  // measure 7
0100
0000
0100
0000
,  // measure 8
0100
0000
0000
0010
,  // measure 9
1001
0100
0001
1000
,  // measure 10
0010
0000
0010
0100
,  // measure 11
0100
0000
0001
1000
,  // measure 12
0100
0001
1000
0001
,  // measure 13
0100
0010
0010
0000
,  // measure 14
1000
0001
0100
0001
,  // measure 15
0010
0000
0100
0100
,  // measure 16
0200
0010
0010
0010
,  // measure 17
0301
0010
1000
0000
,  // measure 18
0100
0010
0100
0000
,  // measure 19
1000
0001
0100
1000
,  // measure 20
0001
1000
0001
0010
,  // measure 21
0100
0100
0001
0000
,  // measure 22
0010
1000
0100
0000
,  // measure 23
0001
1000
0001
0100
,  // measure 24
0010
1000
0100
0001
,  // measure 25
1000
0000
0101
0000
,  // measure 26
0010
1000
0110
0000
,  // measure 27
1000
0100
0001
0000
,  // measure 28
0010
0100
0101
0001
,  // measure 29
0010
1000
0010
0000
,  // measure 30
0010
0000
0100
0001
,  // measure 31
1000
0010
0000
0000
,  // measure 32
0100
0100
0101
1000
,  // measure 33
0100
0010
0001
0100
,  // measure 34
0011
0011
1010
0100
,  // measure 35
0001
0010
1000
0100
,  // measure 36
1001
1001
0110
0001
,  // measure 37
0100
1000
0010
0100
,  // measure 38
1010
1010
0110
1000
,  // measure 39
0100
0001
1000
0010
,  // measure 40
1000
0100
0001
0000
,  // measure 41
0110
0000
0100
0001
,  // measure 42
1000
0000
0010
0100
,  // measure 43
0100
0001
0000
0000
,  // measure 44
0010
0100
0001
1000
,  // measure 45
0100
1000
0100
0000
,  // measure 46
0001
1000
0001
0100
,  // measure 47
0010
1000
0010
0010
,  // measure 48
0011
1000
0100
0001
,  // measure 49
1000
0001
1000
0000
,  // measure 50
0110
1000
0200
0010
,  // measure 51
2300
0000
3020
0000
,  // measure 52
0032
0100
1003
1000
,  // measure 53
0010
0100
0001
0000
,  // measure 54
0010
0001
1000
0010
,  // measure 55
0100
0001
1000
0010
,  // measure 56
1000
1000
0000
0001
0001
0000
0010
0010
,  // measure 57
0000
0100
0100
0000
0000
0000
0000
0000
;

//---------------dance-single - ----------------
#NOTEDATA:;
#CHARTNAME:;
#STEPSTYPE:dance-single;
#DESCRIPTION:;
#CHARTSTYLE:;
#DIFFICULTY:Challenge;
#METER:15;
#RADARVALUES:0.613710,0.738370,0.418292,0.260019,0.412639,380.000000,343.000000,37.000000,23.000000,0.000000,0.000000,3.000000,0.000000,0.000000,0.613710,0.738370,0.418292,0.260019,0.412639,380.000000,343.000000,37.000000,23.000000,0.000000,0.000000,3.000000,0.000000,0.000000;
#CREDIT:;
#OFFSET:0.000000;
#BPMS:0.000000=160.141998
,20.000000=160.089005
,149.750000=92.000000
,152.000000=160.089005
;
#STOPS:32.000000=1.124000
,61.000000=0.375000
,96.000000=0.187000
,96.500000=0.187000
,97.000000=0.187000
,98.500000=0.375000
,101.500000=0.375000
,108.500000=0.375000
,112.500000=0.875000
,119.250000=0.188000
,119.750000=0.188000
,126.250000=0.094000
,126.500000=0.094000
,126.750000=0.094000
,133.250000=0.095000
,133.500000=0.095000
,133.750000=0.094000
,134.000000=0.094000
,140.250000=0.094000
,140.500000=0.095000
,140.750000=0.095000
,161.000000=0.750000
,170.000000=0.375000
,175.000000=0.188000
,175.500000=0.187000
,182.500000=0.188000
,188.000000=0.188000
,188.500000=0.187000
,189.000000=0.187000
,189.500000=0.186000
,196.000000=0.188000
,205.500000=0.188000
,206.500000=0.188000
,207.500000=0.188000
,208.500000=0.188000
;
#DELAYS:;
#WARPS:;
#TIMESIGNATURES:0.000000=4=4
;
#TICKCOUNTS:0.000000=4
;
#COMBOS:0.000000=1
;
#SPEEDS:0.000000=1.000000=0.000000=0
;
#SCROLLS:0.000000=1.000000
;
#FAKES:;
#LABELS:0.000000=Song Start
;
#DISPLAYBPM:160.000000;
#NOTES:
// measure 0
0000
0000
0000
0000
,  // measure 1
0000
0000
0000
0000
,  // measure 2
0000
0000
0000
0000
,  // measure 3
0000
0000
0000
0000
,  // measure 4
0000
0000
0000
0000
,  // measure 5
0000
0000
0000
0000
,  // measure 6
0000
0000
0000
0000
,  // measure 7
0000
0000
0000
0000
,  // measure 8
0000
0000
1001
0100
0010
0100
0001
1000
,  // measure 9
0001
0100
1100
0010
1000
0001
0100
1000
,  // measure 10
0011
0100
0110
0001
0010
0100
0001
1000
,  // measure 11
0001
0100
1000
0010
0200
0302
0010
1003
,  // measure 12
0100
0001
1000
0001
1000
0010
0001
0100
,  // measure 13
1000
1000
0010
0002
0103
0002
0013
0002
,  // measure 14
1003
0100
1000
0001
1000
0010
0100
0001
,  // measure 15
1000
0001
0010
0000
0010
0001
0100
1000
,  // measure 16
0102
0010
2003
0100
3001
1000
0001
1000
,  // measure 17
0010
0001
0100
0001
1000
0010
1000
0100
,  // measure 18
0002
2003
3002
2003
3020
0230
1300
0001
,  // measure 19
0100
0001
1000
0001
1000
0010
0100
1000
,  // measure 20
0020
1000
0230
0001
1300
0001
1000
0010
,  // measure 21
0001
0100
1000
0010
0001
1000
0001
1000
,  // measure 22
0020
0032
2003
3200
0302
2003
3001
1000
,  // measure 23
0010
1000
0100
0001
1000
0010
1000
0001
,  // measure 24
0010
0010
0010
0010
0010
0101
0000
1000
,  // measure 25
0101
1001
0110
0110
0000
1000
0001
1000
,  // measure 26
0010
0001
1000
0001
1000
0010
1000
0100
,  // measure 27
0001
1010
0000
0010
1000
0001
0100
1000
,  // measure 28
0010
0000
0001
0010
0100
1000
0000
0100
0000
0001
0000
0010
0000
1000
0000
0001
,  // measure 29
0000
1000
0000
0001
0000
0000
0000
0010
0000
0100
0000
0010
0000
0110
0000
0110
,  // measure 30
0000
0100
0000
0001
0000
1000
0000
0001
0000
0100
0000
1000
0000
0010
0000
0100
,  // measure 31
0000
0010
0000
1000
0000
0001
0000
0100
0000
1000
0001
0100
0000
0000
0000
1000
,  // measure 32
0000
0100
0000
0001
0000
0010
0000
1000
0000
0010
0000
0001
0000
0100
0000
0001
,  // measure 33
0000
1000
0000
0100
0000
0010
0010
0100
0100
1000
0000
0010
0000
0001
0000
1000
,  // measure 34
0000
0100
0000
1000
0000
0010
0000
1000
0000
0001
0000
0100
0000
1000
0000
0010
,  // measure 35
0000
1000
0100
0001
0000
0000
0000
1000
0000
0001
0000
0100
0000
1000
0000
0100
,  // measure 36
0000
0010
0000
1000
0000
0100
0000
1000
0000
0001
0000
0010
0000
0001
0000
1000
,  // measure 37
0000
0001
0000
0100
0000
1000
0000
0040
0000
0000
0000
0000
0000
0000
0000
0000
,  // measure 38
0130
0000
0001
0000
0100
0110
0110
0110
,  // measure 39
0110
0001
1000
0001
1000
0110
0000
0101
,  // measure 40
0100
1000
0040
0030
1100
0010
0100
1000
,  // measure 41
0001
1000
0100
0001
0010
1000
0001
0100
,  // measure 42
0001
0000
1000
0000
0010
0000
0100
1000
0040
0000
0000
0000
0031
0000
0010
0000
,  // measure 43
1000
0001
1000
0001
1000
0100
1001
1001
,  // measure 44
1001
1000
0100
1000
0010
1000
0001
0100
,  // measure 45
0001
0010
1000
0001
0100
0100
0010
1000
,  // measure 46
0100
0001
0010
0001
1000
0001
1000
0100
,  // measure 47
1010
0101
1001
0110
1000
0101
1000
0001
,  // measure 48
0100
0010
1000
0001
1000
0001
1000
0100
,  // measure 49
0010
0001
1100
0100
0010
1000
0001
1000
,  // measure 50
0001
0100
1000
0100
0001
0010
1000
0001
,  // measure 51
1000
0001
1100
1100
0011
0011
0110
0110
,  // measure 52
0101
0202
0303
0000
0000
0000
0000
0000
;

//---------------dance-single - ----------------
#NOTEDATA:;
#CHARTNAME:;
#STEPSTYPE:dance-single;
#DESCRIPTION:;
#CHARTSTYLE:;
#DIFFICULTY:Medium;
#METER:8;
#RADARVALUES:0.337540,0.388333,0.124357,0.000000,0.000000,209.000000,198.000000,11.000000,0.000000,0.000000,0.000000,0.000000,0.000000,0.000000,0.337540,0.388333,0.124357,0.000000,0.000000,209.000000,198.000000,11.000000,0.000000,0.000000,0.000000,0.000000,0.000000,0.000000;
#CREDIT:;
#OFFSET:0.000000;
#BPMS:0.000000=160.141998
,20.000000=160.089005
,100.000000=80.199997
,102.000000=160.089005
,162.000000=80.099998
,164.000000=160.089005
;
#STOPS:;
#DELAYS:;
#WARPS:;
#TIMESIGNATURES:0.000000=4=4
;
#TICKCOUNTS:0.000000=4
;
#COMBOS:0.000000=1
;
#SPEEDS:0.000000=1.000000=0.000000=0
;
#SCROLLS:0.000000=1.000000
;
#FAKES:;
#LABELS:0.000000=Song Start
;
#DISPLAYBPM:160.000000;
#NOTES:
// measure 0
0000
0000
0000
0000
,  // measure 1
0000
0000
0000
0000
,  // measure 2
0000
0000
0000
0000
,  // measure 3
0000
0000
0000
0000
,  // measure 4
0000
0000
0000
0000
,  // measure 5
0000
0000
0000
0000
,  // measure 6
0100
0000
0100
0000
,  // measure 7
0010
0000
0010
0000
,  // measure 8
0010
0000
0000
0010
,  // measure 9
0101
0010
1000
0100
,  // measure 10
0001
1000
0001
1000
,  // measure 11
0010
0001
0100
0001
,  // measure 12
1000
0010
1000
0100
,  // measure 13
1000
0100
0100
1000
,  // measure 14
0010
0001
0000
0001
0000
0001
0000
0001
,  // measure 15
1000
0100
0001
1000
,  // measure 16
0010
0000
0100
0100
,  // measure 17
1001
0010
1000
0100
,  // measure 18
0001
1000
0001
1000
,  // measure 19
0100
0010
1000
0010
,  // measure 20
0001
0100
1000
0100
,  // measure 21
0001
1000
0001
1000
,  // measure 22
0010
0001
1000
0001
,  // measure 23
0100
0010
1000
0100
,  // measure 24
0001
1000
0001
1000
,  // measure 25
0010
0000
1010
0100
,  // measure 26
0001
0001
0101
0010
,  // measure 27
1000
0100
0101
0010
,  // measure 28
1000
0100
1100
0001
,  // measure 29
1000
0001
0010
0010
,  // measure 30
0010
0100
1100
0010
,  // measure 31
0001
1000
0000
0000
,  // measure 32
0100
0100
0110
1000
,  // measure 33
0100
0001
0010
1000
,  // measure 34
0001
0001
0001
0000
0100
0000
0010
0000
,  // measure 35
0001
1000
0001
1000
,  // measure 36
0010
0010
0100
0100
1000
0000
0001
0000
,  // measure 37
1000
0001
0010
0100
,  // measure 38
0010
0010
0100
0100
,  // measure 39
1000
0001
1000
0001
,  // measure 40
1000
0010
0100
0000
,  // measure 41
0110
1000
0100
0000
,  // measure 42
0001
1000
0010
1000
,  // measure 43
0100
0001
0000
0000
,  // measure 44
0110
0010
1000
0100
,  // measure 45
0001
1000
0001
1000
,  // measure 46
0010
0000
0100
0001
,  // measure 47
1000
0010
0100
0100
,  // measure 48
1001
0100
1000
0010
,  // measure 49
1000
0000
0100
0000
0001
0000
0000
0001
,  // measure 50
1000
1000
0001
0100
,  // measure 51
1000
0010
0000
0010
0000
0010
0000
0010
,  // measure 52
0000
0010
0100
0000
1000
0000
0001
0000
,  // measure 53
1000
0000
0001
0000
1000
0000
0000
1000
,  // measure 54
0001
0100
1000
0100
,  // measure 55
0001
1000
0010
0100
,  // measure 56
1000
0010
0000
0010
0001
0000
0001
0100
,  // measure 57
0000
0100
1000
0000
0000
0000
0000
0000
;

//---------------dance-single - ----------------
#NOTEDATA:;
#CHARTNAME:;
#STEPSTYPE:dance-single;
#DESCRIPTION:;
#CHARTSTYLE:;
#DIFFICULTY:Hard;
#METER:11;
#RADARVALUES:0.452207,0.565966,0.124357,0.180883,0.011305,280.000000,269.000000,11.000000,16.000000,0.000000,0.000000,0.000000,0.000000,0.000000,0.452207,0.565966,0.124357,0.180883,0.011305,280.000000,269.000000,11.000000,16.000000,0.000000,0.000000,0.000000,0.000000,0.000000;
#CREDIT:;
#OFFSET:0.000000;
#BPMS:0.000000=160.141998
,20.000000=160.089005
;
#STOPS:100.000000=1.124000
,161.000000=1.124000
,171.000000=0.749000
,194.500000=0.187000
,210.000000=0.187000
,219.500000=0.186000
,220.500000=0.186000
,221.500000=0.186000
;
#DELAYS:;
#WARPS:;
#TIMESIGNATURES:0.000000=4=4
;
#TICKCOUNTS:0.000000=4
;
#COMBOS:0.000000=1
;
#SPEEDS:0.000000=1.000000=0.000000=0
;
#SCROLLS:0.000000=1.000000
;
#FAKES:;
#LABELS:0.000000=Song Start
;
#DISPLAYBPM:160.000000;
#NOTES:
// measure 0
0000
0000
0000
0000
,  // measure 1
0000
0000
0000
0000
,  // measure 2
0000
0000
0000
0000
,  // measure 3
0000
0000
0000
0000
,  // measure 4
0000
0000
0000
0000
,  // measure 5
0000
0000
0000
0000
,  // measure 6
1000
0000
0001
0000
,  // measure 7
0100
0000
0010
0000
,  // measure 8
0001
0000
0000
0010
,  // measure 9
1100
0000
0010
0001
0100
1000
0010
1000
,  // measure 10
0100
0000
0100
0001
0000
0001
0010
0000
,  // measure 11
1000
0000
0010
1000
0001
0100
0001
0010
,  // measure 12
1000
0000
0010
0100
0000
0000
0001
1000
,  // measure 13
0100
0000
0002
0000
0103
0000
0010
1000
,  // measure 14
0100
0002
0000
0023
0000
0230
0000
2300
,  // measure 15
3001
0000
0100
1000
0010
0001
1000
0100
,  // measure 16
0001
0000
0000
0000
0100
0000
0010
1000
,  // measure 17
1002
0000
0023
0000
0130
0010
0001
0100
,  // measure 18
0000
0100
0001
1000
0010
0100
0000
0000
,  // measure 19
1000
0001
1000
0010
0001
0100
0010
0000
,  // measure 20
0001
1000
0010
0100
1000
0100
0001
0000
,  // measure 21
0002
0000
0203
0000
0310
0000
0100
0001
,  // measure 22
0000
0010
1000
0001
1000
0010
0000
0000
,  // measure 23
0001
0100
1000
0010
1000
0001
0100
0000
,  // measure 24
0010
0200
0001
0000
1000
0000
0010
0001
,  // measure 25
0301
0000
1010
0000
0001
0000
0100
0010
,  // measure 26
0010
0010
0010
0000
1000
0000
0100
0001
,  // measure 27
0000
0010
0001
0000
0100
0000
1000
0010
,  // measure 28
0000
0010
0100
0000
1000
0000
0001
0010
,  // measure 29
1000
0001
0100
0010
1000
0000
0000
0000
,  // measure 30
0000
0000
1000
0001
0100
0000
0000
0000
0010
0000
0000
0000
0010
0000
0100
0000
,  // measure 31
0000
0100
0000
0001
1000
0010
1000
0000
,  // measure 32
1000
0000
1010
0010
1000
0000
1000
0001
,  // measure 33
0010
0000
0001
0010
0100
0000
0001
0001
,  // measure 34
0001
0000
0010
1000
0100
0000
0100
0001
,  // measure 35
0010
0000
0010
0001
0100
0000
1000
1000
,  // measure 36
0010
0010
0100
0010
1000
0000
0100
0001
,  // measure 37
0010
0000
0010
1000
0010
0000
0100
0100
,  // measure 38
0100
0000
0001
1000
0100
0000
0010
1000
,  // measure 39
0100
0000
0001
0010
0100
0000
0001
0100
,  // measure 40
1000
0000
0000
0000
2002
0000
0000
3003
1200
0000
0000
0000
0000
0000
0302
0000
,  // measure 41
0000
0010
0010
0010
0013
1000
0100
0000
,  // measure 42
0000
0010
0000
0010
0100
0000
0100
0000
,  // measure 43
1000
0010
0001
0000
0100
1000
0000
0001
,  // measure 44
0010
0000
0000
0000
0100
0000
0001
0000
0000
0000
0010
0000
0000
0000
0001
0100
,  // measure 45
1000
0000
0010
0000
1000
0100
0000
0001
,  // measure 46
0020
0000
0000
0230
0001
0000
0301
0000
,  // measure 47
0101
0001
1000
0000
0001
0000
0100
0000
,  // measure 48
0100
0001
0010
0001
0100
1000
1000
0001
,  // measure 49
0000
1000
0000
0010
0000
0100
0000
0000
,  // measure 50
0010
0100
0001
1000
,  // measure 51
0100
0010
0000
0001
0000
0100
0000
1000
,  // measure 52
0001
0010
0100
1000
0001
0010
1000
0000
,  // measure 53
0100
0000
0001
0000
1000
0000
0010
1000
,  // measure 54
0100
0001
0010
0100
0000
0000
0001
0011
,  // measure 55
0010
1010
0100
0110
1000
1001
0000
0000
;
