#VERSION:0.83;
#TITLE:TRIP MACHINE ~luv mix~;
#SUBTITLE:;
#ARTIST:2MB;
#TITLETRANSLIT:;
#SUBTITLETRANSLIT:;
#ARTISTTRANSLIT:;
#GENRE:;
#ORIGIN:;
#CREDIT:;
#BANNER:TRIP MACHINE~luv mix~.png;
#BACKGROUND:TRIP MACHINE~luv mix~-bg.png;
#PREVIEWVID:;
#JACKET:TRIP MACHINE~luv mix~-jacket.png;
#CDIMAGE:;
#DISCIMAGE:;
#LYRICSPATH:;
#CDTITLE:;
#MUSIC:TRIP MACHINE~luv mix~.ogg;
#OFFSET:0.000000;
#SAMPLESTART:80.977997;
#SAMPLELENGTH:12.000000;
#SELECTABLE:YES;
#DISPLAYBPM:160.000000;
#BPMS:0.000=160.178,
16.000=160.142;
#STOPS:;
#DELAYS:;
#WARPS:;
#TIMESIGNATURES:0.000=4=4;
#TICKCOUNTS:0.000=4;
#COMBOS:0.000=1;
#SPEEDS:0.000=1.000=0.000=0;
#SCROLLS:0.000=1.000;
#FAKES:;
#LABELS:0.000=Song Start;
#BGCHANGES:;
#KEYSOUNDS:;
#ATTACKS:
;

//---------------dance-couple - ----------------
#NOTEDATA:;
#CHARTNAME:;
#STEPSTYPE:dance-couple;
#DESCRIPTION:;
#CHARTSTYLE:;
#DIFFICULTY:Medium;
#METER:8;
#RADARVALUES:0.292760,0.501308,0.200166,0.000000,0.004766,215.000000,194.000000,21.000000,0.000000,0.000000,0.000000,0.000000,0.000000,0.000000,0.292760,0.501308,0.200166,0.000000,0.004766,215.000000,194.000000,21.000000,0.000000,0.000000,0.000000,0.000000,0.000000,0.000000;
#CREDIT:;
#DISPLAYBPM:160.000000;
#NOTES:
00000000
00000000
00000000
00000000
,
00000000
00000000
00000000
00000000
,
00000000
00000000
00000000
00000000
,
00000000
00000000
00000000
00000000
,
00000000
00000000
00000000
00000000
,
00000000
00000000
00000000
00000000
,
00100000
00000000
00010000
00100000
10000000
00000000
00100000
00000000
,
00000100
00000000
00000100
00000000
00000010
00001000
00000100
00000000
,
01100110
00000000
00000000
00000000
10001000
00000000
00010001
10001000
,
01000100
00000000
00000000
00000000
10001000
00010001
10001000
00010001
,
10001000
00000000
00100010
00000000
00010001
00000000
01000000
10000000
,
00100000
00000000
00000000
00000000
00000010
00001000
00000100
00000000
,
10011001
00000000
00100010
10001000
,
00000100
00000001
00000000
10000000
00100000
00000000
11001100
00000000
,
00100001
00100000
00000000
10000000
00000000
00100000
00000000
00010000
,
00000000
00100000
00000000
10000000
00000000
01000000
00000000
10000000
,
00000001
00100000
00000000
01000000
00000000
00010000
00000000
01000000
,
00000000
00010000
10000000
10000000
00000000
00000000
00000000
10000000
,
00000010
00000010
00000000
00000001
00000000
00000010
00000000
00001000
,
10000000
00000010
00000000
00000001
00000000
00000100
00000000
00000001
,
00000000
00000010
00000000
00000100
00000000
00001000
00000000
00000100
,
10000000
00001000
00000001
00000001
00000000
00001000
00000000
00000000
,
00100010
00000000
00000000
00100010
,
01000100
00000000
00000000
00000000
00010001
10001000
00010001
10001000
,
00000000
00000000
01000100
01000100
,
00100010
00000000
00000000
00000000
10001000
00010001
10001000
00010001
,
00000000
00110000
00000000
01000000
00000000
00010000
00000000
10100000
,
00000000
00100000
00000000
10000000
00000000
00100000
00000000
10010000
,
00000100
00100000
00000000
01000000
00000000
00010000
00000000
01010000
,
00000000
00010000
10000000
10000000
00000000
00000000
00000000
00100000
,
00000000
00000011
00000000
00000100
00000000
00000001
00000000
00001010
,
00000000
00000010
00000000
00001000
00000000
00000010
00000000
00001001
,
00100000
00000010
00000000
00000100
00000000
00000001
00000000
00000101
,
00000000
00000001
00001000
00001000
00000000
00000010
00000000
00000000
,
01000100
00000000
00000000
00000000
,
10011001
00000000
00100010
00100010
00000000
10001000
01000100
00000000
,
01010101
00000000
00000000
00000000
00000000
00100010
00000000
00100010
,
10001000
00010001
00000000
00100010
01000100
00000000
01010101
00000000
,
00000000
00000000
00000000
00000000
,
01100110
00000000
00000000
00000000
00000000
10001000
00100010
00010001
,
10011001
00000000
00000000
00000000
00000000
01000100
00000000
00010001
,
01100110
00000000
00000000
00000000
,
10011001
00000000
00000000
00000000
00000000
10001000
00000000
00010001
,
01010101
00000000
00000000
00000000
00000000
00000000
00000000
00000000
00000000
00000000
00000000
00000000
00000000
00000000
00010001
10001000
,
00010001
00000000
00000000
00000000
00000000
00100010
00000000
00100010
,
00000000
00010001
10001000
01000100
00000000
00000000
00000000
00000000
,
10010000
00000000
00100000
10000000
01000000
00000000
00010000
00100000
,
00000000
10000000
01000000
00000000
11000000
00000000
00110000
00000000
,
00001001
00000000
00000010
00001000
00000100
00000000
00000001
00000010
,
00000000
00001000
00000100
00000000
00001100
00000000
00000011
00000000
,
01010000
00000000
00100000
10000000
01000000
00000000
00010000
00100000
,
00000000
10000000
01000000
00000000
11000000
00000000
00110000
00000000
,
00000101
00000000
00000010
00001000
00000100
00000000
00000001
00000010
,
00000000
00001000
00000100
00000000
00001100
00000000
00000011
00000000
,
00100010
00010001
00100010
00010001
10001000
00100010
10001000
00100010
,
00010001
00100010
00010001
10001000
00100010
00010001
01000100
10001000
,
00010001
00100010
00100010
00010001
10001000
00100010
10001000
00100010
,
00010001
00100010
00010001
00100010
10001000
01000100
00010001
00100010
,
00100010
10001000
00100010
10001000
00010001
00100010
00010001
00100010
,
10001000
00100010
10001000
00010001
00100010
10001000
01000100
00010001
,
10001000
00100010
00100010
10001000
00010001
00100010
00010001
00100010
,
10001000
00100010
10001000
00100010
00010001
01000100
10001000
00100010
;

//---------------dance-single - ----------------
#NOTEDATA:;
#CHARTNAME:;
#STEPSTYPE:dance-single;
#DESCRIPTION:;
#CHARTSTYLE:;
#DIFFICULTY:Challenge;
#METER:14;
#RADARVALUES:0.665858,0.819131,1.048488,0.324078,0.081020,489.000000,379.000000,110.000000,34.000000,0.000000,0.000000,0.000000,0.000000,0.000000,0.665858,0.819131,1.048488,0.324078,0.081020,489.000000,379.000000,110.000000,34.000000,0.000000,0.000000,0.000000,0.000000,0.000000;
#CREDIT:;
#OFFSET:0.000000;
#BPMS:0.000000=160.177994
,8.000000=160.000000
,152.000000=80.000000
,160.000000=160.000000
,176.000000=160.500000
,208.000000=320.000000
,272.000000=160.000000
;
#STOPS:;
#DELAYS:;
#WARPS:;
#TIMESIGNATURES:0.000000=4=4
;
#TICKCOUNTS:0.000000=4
;
#COMBOS:0.000000=1
;
#SPEEDS:0.000000=1.000000=0.000000=0
;
#SCROLLS:0.000000=1.000000
;
#FAKES:;
#LABELS:0.000000=Song Start
;
#DISPLAYBPM:160.000000;
#NOTES:
// measure 0
0000
0000
0000
0000
,  // measure 1
0000
0000
0000
0000
,  // measure 2
0000
0000
0000
0000
,  // measure 3
0000
0000
0000
0000
,  // measure 4
0000
0000
0000
0000
,  // measure 5
0000
0000
0000
0000
,  // measure 6
1001
0000
1000
0100
0001
0000
0010
0001
,  // measure 7
1100
0001
0100
0000
0010
1000
0100
0000
,  // measure 8
0101
0000
0010
1000
0100
0000
0010
0001
,  // measure 9
1100
0001
0100
0000
0010
1000
0010
0000
,  // measure 10
0110
0000
1000
0100
0001
0000
0010
0100
,  // measure 11
0101
0100
0001
0000
1000
0010
0100
0000
,  // measure 12
1001
0000
0100
0010
1000
0000
0100
1000
,  // measure 13
0010
0010
1000
0010
0010
0100
0010
0010
,  // measure 14
0101
0101
1000
0000
0110
0110
1000
0000
,  // measure 15
1100
1100
0001
0000
0101
0101
0010
0000
,  // measure 16
1100
1100
0010
0000
0110
0110
0100
0000
,  // measure 17
0101
0101
0010
0000
2100
3100
0012
0013
,  // measure 18
1100
1100
0100
0000
0101
0101
0001
0000
,  // measure 19
0110
0110
0010
0000
1100
1100
1000
0000
,  // measure 20
0011
0011
0001
0000
1001
1001
1000
0000
,  // measure 21
1010
1010
1000
0000
1002
1003
0201
0301
,  // measure 22
1010
0000
0100
0010
0100
0000
0001
0010
,  // measure 23
1100
0010
0001
0000
1000
0010
0100
0000
,  // measure 24
0101
0000
1000
0010
1000
0000
0100
0010
,  // measure 25
1001
0010
0100
0000
1000
0100
0001
0000
,  // measure 26
0110
0110
1000
0000
0101
0101
0001
0000
,  // measure 27
1010
1010
1000
0000
0110
0110
0001
0000
,  // measure 28
1100
1100
0001
0000
0101
0101
1000
0000
,  // measure 29
0110
0110
0001
0000
1200
1300
0021
0031
,  // measure 30
0101
0101
0100
0000
1100
1100
1000
0000
,  // measure 31
0110
0110
0100
0000
0101
0101
0100
0000
,  // measure 32
1010
1010
0100
0000
1100
1100
0010
0000
,  // measure 33
0110
0110
0001
0000
0210
0310
0102
0103
,  // measure 34
1000
0000
1000
0000
1000
0000
1000
0001
,  // measure 35
0100
0010
1000
0001
1000
0100
0010
1000
,  // measure 36
0010
0000
0010
0000
0010
0100
0000
0100
,  // measure 37
1000
0001
1000
0001
0010
1000
0100
1000
,  // measure 38
0000
0001
0000
0001
0000
0010
0000
0010
0000
0100
0000
0100
0000
1000
0000
1000
,  // measure 39
0001
0010
0001
0100
0001
1000
0001
0100
0001
0010
0001
1000
0001
0100
0001
1000
,  // measure 40
0001
0000
0100
0000
1000
0001
1000
0001
,  // measure 41
1001
0000
0010
0000
0100
0000
0010
0000
1001
0000
0100
0000
0000
0000
0001
1000
,  // measure 42
1001
0000
0010
1000
1001
0000
0100
0010
,  // measure 43
1001
0100
0010
1000
0001
0100
1000
0100
,  // measure 44
1100
0001
1000
0001
1000
0010
0100
1000
,  // measure 45
0101
1000
0010
1000
0200
0310
0002
0003
,  // measure 46
1010
0100
1000
0100
0001
1000
0001
1000
,  // measure 47
0101
0010
0100
0010
2000
3100
0002
0003
,  // measure 48
1001
0100
0010
0100
1000
0001
0100
1000
,  // measure 49
0110
1000
0100
1000
0002
0103
2000
3000
,  // measure 50
0101
1000
0100
1000
0020
0230
0302
0013
,  // measure 51
1001
0200
2300
3002
0203
0320
1030
0001
,  // measure 52
0200
0320
2030
3200
,  // measure 53
0302
2003
3020
0230
,  // measure 54
0301
0010
0100
0010
,  // measure 55
1001
1001
1100
1100
,  // measure 56
0010
0101
0101
0100
,  // measure 57
1000
0100
0001
1000
,  // measure 58
2000
0000
0010
3000
0002
0000
1000
0003
,  // measure 59
0101
0101
1001
1001
,  // measure 60
0010
1100
1100
0010
,  // measure 61
0100
1000
0100
0001
,  // measure 62
1000
0001
1000
0001
,  // measure 63
1010
1010
0101
0101
,  // measure 64
0010
1100
1100
0001
,  // measure 65
0100
0001
1000
0001
,  // measure 66
1000
0010
1000
0100
,  // measure 67
1001
1001
0101
0101
,  // measure 68
2000
0002
0000
0000
0000
0000
3003
0000
;

//---------------dance-single - ----------------
#NOTEDATA:;
#CHARTNAME:;
#STEPSTYPE:dance-single;
#DESCRIPTION:;
#CHARTSTYLE:;
#DIFFICULTY:Medium;
#METER:10;
#RADARVALUES:0.408502,0.461335,0.085785,0.095317,0.004766,300.000000,291.000000,9.000000,10.000000,0.000000,0.000000,0.000000,0.000000,0.000000,0.408502,0.461335,0.085785,0.095317,0.004766,300.000000,291.000000,9.000000,10.000000,0.000000,0.000000,0.000000,0.000000,0.000000;
#CREDIT:;
#OFFSET:0.000000;
#BPMS:0.000000=160.177994
,16.000000=160.141998
,152.000000=80.070999
,160.000000=160.141998
;
#STOPS:;
#DELAYS:;
#WARPS:;
#TIMESIGNATURES:0.000000=4=4
;
#TICKCOUNTS:0.000000=4
;
#COMBOS:0.000000=1
;
#SPEEDS:0.000000=1.000000=0.000000=0
;
#SCROLLS:0.000000=1.000000
;
#FAKES:;
#LABELS:0.000000=Song Start
;
#DISPLAYBPM:160.000000;
#NOTES:
// measure 0
0000
0000
0000
0000
,  // measure 1
0000
0000
0000
0000
,  // measure 2
0000
0000
0000
0000
,  // measure 3
0000
0000
0000
0000
,  // measure 4
0000
0000
0000
0000
,  // measure 5
0000
0000
0000
0000
,  // measure 6
1000
0000
0010
0001
0100
0000
0010
0001
,  // measure 7
0000
0001
0100
0000
0010
1000
0100
0000
,  // measure 8
0001
0000
0010
1000
0100
0000
0001
0100
,  // measure 9
0000
0100
1000
0000
0010
0001
0100
0000
,  // measure 10
0010
0000
1000
0100
0001
0000
0010
0001
,  // measure 11
0000
0001
0100
0000
0010
1000
0100
0000
,  // measure 12
0001
0000
1000
0100
0001
0000
0010
0001
,  // measure 13
0000
0001
0100
0000
0010
1000
0100
0000
,  // measure 14
0001
0001
0001
0000
0010
0010
0010
0000
,  // measure 15
0100
0100
0100
0000
1000
1000
1000
0000
,  // measure 16
0010
0010
0010
0000
0001
0001
0001
0000
,  // measure 17
0100
0100
0100
0000
2001
0000
3002
0000
,  // measure 18
1003
1000
1000
0000
0010
0010
0010
0000
,  // measure 19
0001
0001
0001
0000
0100
0100
0100
0000
,  // measure 20
0010
0010
0010
0000
1000
1000
1000
0000
,  // measure 21
0001
0001
0001
0000
0210
0000
0320
0000
,  // measure 22
1030
0000
0000
0001
,  // measure 23
0100
0000
0000
0000
1000
0010
0001
0000
,  // measure 24
0010
0000
0000
1000
,  // measure 25
0001
0000
0000
0000
0001
0010
1000
0000
,  // measure 26
0010
0010
1000
0000
0100
0100
0001
0000
,  // measure 27
0010
0010
1000
0000
0001
0001
1000
0000
,  // measure 28
0010
0010
0100
0000
0001
0001
1000
0000
,  // measure 29
0010
0010
0100
0000
0102
0000
2003
0000
,  // measure 30
3010
1000
1000
0000
0100
0001
0001
0000
,  // measure 31
0010
0001
0001
0000
1000
0100
0100
0000
,  // measure 32
0010
1000
1000
0000
0001
0100
0100
0000
,  // measure 33
0010
0100
0100
0000
0102
0000
0203
0000
,  // measure 34
0310
0000
0000
0000
0000
0000
0000
0010
,  // measure 35
0100
0000
0100
0001
0000
0001
1000
0000
,  // measure 36
0101
0000
0000
0000
0000
0001
0000
0001
,  // measure 37
1000
0100
0000
0010
0100
0000
0100
0001
,  // measure 38
0000
0000
0000
0000
,  // measure 39
0010
0010
0010
0010
0010
0010
0010
0010
,  // measure 40
1000
0001
0010
0001
,  // measure 41
0100
0000
0000
0000
0001
0000
0000
0000
1000
0000
0010
0000
0000
0000
0001
0100
,  // measure 42
1000
0001
0100
0010
,  // measure 43
1000
0010
0100
0001
0000
0001
0100
0000
,  // measure 44
0101
0000
0010
0100
1000
0000
0100
0001
,  // measure 45
0000
0001
0010
0000
1000
0001
0010
0000
,  // measure 46
1100
0000
0010
0001
0100
0000
0010
1000
,  // measure 47
0000
1000
0100
0000
0001
1000
0100
0000
,  // measure 48
0101
0000
0010
0001
0100
0000
0010
1000
,  // measure 49
0000
1000
0100
0000
0001
1000
0100
0000
,  // measure 50
0110
0000
0001
1000
0100
0000
0001
0010
,  // measure 51
0000
0010
0001
0000
0100
0001
0010
0000
,  // measure 52
1000
0100
0001
1000
0001
1000
0010
0001
,  // measure 53
0100
0010
0000
1000
0010
0010
0100
0100
,  // measure 54
0001
1000
1000
0000
0001
0010
0000
0010
,  // measure 55
0010
0001
0010
0100
1000
1000
0001
0001
,  // measure 56
0100
0010
0010
0000
0100
0010
0000
0001
,  // measure 57
0000
1000
0000
0001
0010
0010
0100
0100
,  // measure 58
0001
1000
1000
0000
0100
0001
0000
0001
,  // measure 59
0000
1000
0000
0010
0100
0100
0001
0001
,  // measure 60
0020
0200
0000
0000
0330
0000
0000
0000
;

//---------------dance-single - ----------------
#NOTEDATA:;
#CHARTNAME:;
#STEPSTYPE:dance-single;
#DESCRIPTION:;
#CHARTSTYLE:;
#DIFFICULTY:Hard;
#METER:11;
#RADARVALUES:0.443905,0.690572,0.219229,0.076254,0.009532,326.000000,303.000000,23.000000,8.000000,0.000000,0.000000,13.000000,0.000000,87.000000,0.443905,0.690572,0.219229,0.076254,0.009532,326.000000,303.000000,23.000000,8.000000,0.000000,0.000000,13.000000,0.000000,87.000000;
#CREDIT:;
#OFFSET:0.000000;
#BPMS:0.000000=160.177994
,16.000000=160.141998
,200.000000=80.070999
,208.000000=160.141998
;
#STOPS:;
#DELAYS:;
#WARPS:32.000000=8.000000
,48.000000=8.000000
,88.000000=8.000000
,120.000000=8.000000
,136.000000=8.000000
,160.000000=8.000000
,232.000000=8.000000
,248.000000=8.000000
,264.000000=8.000000
;
#TIMESIGNATURES:0.000000=4=4
;
#TICKCOUNTS:0.000000=4
;
#COMBOS:0.000000=1
;
#SPEEDS:0.000000=1.000000=0.000000=0
;
#SCROLLS:0.000000=1.000000
;
#FAKES:;
#LABELS:0.000000=Song Start
;
#DISPLAYBPM:160.000000;
#NOTES:
// measure 0
0000
0000
0000
0000
,  // measure 1
0000
0000
0000
0000
,  // measure 2
0000
0000
0000
0000
,  // measure 3
0000
0000
0000
0000
,  // measure 4
0000
0000
0000
0000
,  // measure 5
0000
0000
0000
0000
,  // measure 6
0010
0000
0001
1000
0100
0000
0001
1000
,  // measure 7
0000
1000
0001
0000
0100
0010
0100
0000
,  // measure 8
0001
0000
0010
0001
0100
0000
0001
1000
,  // measure 9
0010
1000
0001
1000
0010
0000
0000
0000
,  // measure 10
0010
0000
0001
1000
0100
0000
0001
1000
,  // measure 11
0000
1000
0001
0000
0100
0010
0100
0000
,  // measure 12
0001
0000
0010
0001
0100
0000
0001
1000
,  // measure 13
0010
1000
0001
1000
0010
0000
0000
0000
,  // measure 14
0010
0000
0001
1000
0100
0000
0001
1000
,  // measure 15
0000
1000
0001
0000
0100
0010
0100
0000
,  // measure 16
0001
0000
0010
0001
0100
0000
0001
1000
,  // measure 17
0010
1000
0001
1000
0010
0001
1000
0000
,  // measure 18
0101
0001
0001
0000
0100
0100
0100
0000
,  // measure 19
0010
0010
0010
0000
1000
1000
1000
0000
,  // measure 20
0100
0100
0001
0000
0010
0010
0001
0000
,  // measure 21
1000
1000
0010
0000
1001
0000
1001
0000
,  // measure 22
0040
0000
0030
1000
,  // measure 23
0001
1000
0010
0000
,  // measure 24
0101
0001
0001
0000
0100
0100
0100
0000
,  // measure 25
0010
0010
0010
0000
1000
1000
1000
0000
,  // measure 26
0100
0100
0001
0000
0010
0010
0001
0000
,  // measure 27
1000
1000
0010
0000
1001
0000
1001
0000
,  // measure 28
0040
0000
0030
1000
,  // measure 29
0001
0000
1000
0000
0010
0100
0010
0000
,  // measure 30
0110
0000
0000
0000
0000
0000
1000
0010
,  // measure 31
0001
0010
1000
0100
0010
0000
0000
0000
,  // measure 32
0040
0000
0030
1000
,  // measure 33
0001
0000
1000
0000
0010
0100
0010
0000
,  // measure 34
0110
0000
0000
0000
0000
0000
1000
0010
,  // measure 35
0001
0010
1000
0100
0010
0000
0000
0000
,  // measure 36
0101
0001
0001
0000
0100
0100
0100
0000
,  // measure 37
0010
0010
0010
0000
1000
1000
1000
0000
,  // measure 38
0100
0100
0001
0000
0010
0010
0001
0000
,  // measure 39
1000
1000
0010
0000
1001
0000
1001
0000
,  // measure 40
0110
0000
0000
0000
0000
0000
1000
0010
,  // measure 41
0001
0010
1000
0100
0010
0000
0000
0000
,  // measure 42
0101
0001
0001
0000
0100
0100
0100
0000
,  // measure 43
0010
0010
0010
0000
1000
1000
1000
0000
,  // measure 44
0100
0100
0001
0000
0010
0010
0001
0000
,  // measure 45
1000
1000
0010
0000
1001
0000
1001
0000
,  // measure 46
0110
0000
0000
0000
0000
0000
1000
0010
,  // measure 47
0001
0010
1000
0100
0010
0100
0001
0000
,  // measure 48
1100
0000
0000
0000
0000
0010
0000
0100
,  // measure 49
0001
0010
0000
1000
0001
0000
0001
0100
,  // measure 50
0000
0000
0000
0000
0000
0000
0000
0000
0000
0000
0000
0000
0000
0000
0010
0001
,  // measure 51
0100
0000
0100
0000
0100
0010
0100
0000
0100
0000
0100
0000
0100
0000
0100
0000
,  // measure 52
1001
0000
0010
0000
0100
0001
1000
0001
,  // measure 53
1000
0000
0100
0000
0001
0010
0000
0010
,  // measure 54
0100
0001
0100
0010
,  // measure 55
1000
0001
1000
0001
0000
0001
0100
0000
,  // measure 56
1001
0000
0010
0001
0100
0000
0010
1000
,  // measure 57
0000
1000
0100
0000
0001
1000
0100
0000
,  // measure 58
0044
0000
0000
0000
0033
0100
1000
0100
,  // measure 59
0001
1000
0010
0010
0010
1000
0000
0000
,  // measure 60
1001
0000
0010
0001
0100
0000
0010
1000
,  // measure 61
0000
1000
0100
0000
0001
1000
0100
0000
,  // measure 62
0044
0000
0000
0000
0033
0100
1000
0100
,  // measure 63
0001
1000
0010
0010
0010
1000
0000
0000
,  // measure 64
1001
0000
0010
0001
0100
0000
0010
1000
,  // measure 65
0000
1000
0100
0000
0001
1000
0100
0000
,  // measure 66
0044
0000
0000
0000
0033
0100
1000
0100
,  // measure 67
0001
1000
0010
0010
0010
1000
0000
0000
,  // measure 68
1001
0000
0010
0001
0100
0000
0010
1000
,  // measure 69
0000
1000
0100
0000
0001
1000
0100
0000
,  // measure 70
0044
0000
0000
0000
0033
0100
1000
0100
,  // measure 71
0001
1000
0010
0010
0010
1000
0100
0010
,  // measure 72
0004
0100
0103
0000
0010
0001
0100
0001
,  // measure 73
1000
0010
1000
0100
0440
0000
0000
0330
,  // measure 74
4000
0010
3001
0000
0100
0001
1000
0001
,  // measure 75
1000
0010
0100
0001
0404
0000
0000
0303
,  // measure 76
0040
0100
0130
0000
1000
0001
0100
0001
,  // measure 77
1000
0010
0001
0100
4400
0000
0000
3300
,  // measure 78
2000
0002
0000
0000
3003
0000
0000
0000
,  // measure 79
0020
0200
0000
0330
2000
0002
0000
3003
,  // measure 80
0002
0200
0000
0000
0303
0000
0000
0000
;

//---------------dance-single - ----------------
#NOTEDATA:;
#CHARTNAME:;
#STEPSTYPE:dance-single;
#DESCRIPTION:;
#CHARTSTYLE:;
#DIFFICULTY:Easy;
#METER:7;
#RADARVALUES:0.285951,0.297866,0.104849,0.009532,0.000000,210.000000,199.000000,11.000000,1.000000,0.000000,0.000000,0.000000,0.000000,0.000000,0.285951,0.297866,0.104849,0.009532,0.000000,210.000000,199.000000,11.000000,1.000000,0.000000,0.000000,0.000000,0.000000,0.000000;
#CREDIT:;
#DISPLAYBPM:160.000000;
#NOTES:
// measure 0
0000
0000
0000
0000
,  // measure 1
0000
0000
0000
0000
,  // measure 2
0000
0000
0000
0000
,  // measure 3
0000
0000
0000
0000
,  // measure 4
0000
0000
0000
0000
,  // measure 5
0000
0000
0000
0000
,  // measure 6
0010
0001
0100
0010
,  // measure 7
1000
0100
0001
0001
,  // measure 8
1000
0010
1000
0100
,  // measure 9
0001
0010
1000
1000
,  // measure 10
0100
0001
1000
0010
,  // measure 11
0001
1000
0010
0010
,  // measure 12
0001
0100
0001
1000
,  // measure 13
0010
0010
0010
0010
,  // measure 14
1000
0100
0000
0010
0000
1000
0000
0100
,  // measure 15
0000
0001
0000
1000
0000
0001
0000
0100
,  // measure 16
0000
0010
0000
0001
0000
0100
0000
0010
,  // measure 17
0000
1000
0000
0100
0001
0000
0001
0000
,  // measure 18
0010
0100
0000
1000
0000
0100
0000
0001
,  // measure 19
0000
1000
0000
0001
0000
1000
0000
0010
,  // measure 20
0000
1000
0000
0100
0000
0001
0000
1000
,  // measure 21
0000
0001
0000
0010
1000
0000
1000
0000
,  // measure 22
0101
0000
1000
0000
,  // measure 23
0001
0000
0100
0000
,  // measure 24
1100
0000
0010
0000
,  // measure 25
0100
0000
0100
0000
,  // measure 26
0010
0001
0000
1000
0000
0001
0000
0100
,  // measure 27
0000
0001
0000
1000
0000
0010
0000
0100
,  // measure 28
0000
0010
0000
1000
0000
0100
0000
0001
,  // measure 29
0000
1000
0000
0001
0100
0000
0100
0000
,  // measure 30
0010
0100
0000
0100
0000
0001
0000
1000
,  // measure 31
0000
0010
0000
0001
0000
0100
0000
0001
,  // measure 32
0000
1000
0000
0100
0000
1000
0000
0100
,  // measure 33
0000
0001
0000
0010
1000
0000
1000
0000
,  // measure 34
0001
0000
0000
0000
,  // measure 35
0010
0010
0010
0010
,  // measure 36
0110
0000
0000
0000
,  // measure 37
1000
1000
1000
1000
,  // measure 38
0000
0000
0000
0000
,  // measure 39
0000
0000
0000
0000
,  // measure 40
1000
1000
1000
1000
,  // measure 41
0001
0001
0001
0001
,  // measure 42
1001
0000
0010
0000
,  // measure 43
1001
0000
0110
0000
,  // measure 44
0101
0000
1100
0000
,  // measure 45
1001
0000
0000
0010
,  // measure 46
1001
1000
1000
1000
,  // measure 47
0001
0001
0001
0001
,  // measure 48
0010
0010
0100
0100
,  // measure 49
1000
0001
1000
0001
,  // measure 50
0001
0100
0001
0100
,  // measure 51
0010
1000
0010
1000
,  // measure 52
0100
0001
0100
0001
,  // measure 53
0010
0010
0010
0010
,  // measure 54
1100
1000
1000
1000
,  // measure 55
0001
0001
0001
0001
,  // measure 56
0010
1000
0100
0001
,  // measure 57
1000
0001
1000
0010
,  // measure 58
0001
0100
0100
1000
,  // measure 59
0100
0001
1000
0010
,  // measure 60
0010
0100
0100
1000
,  // measure 61
0001
1000
0001
0010
,  // measure 62
0200
0000
0300
0000
;

//---------------dance-single - ----------------
#NOTEDATA:;
#CHARTNAME:;
#STEPSTYPE:dance-single;
#DESCRIPTION:;
#CHARTSTYLE:;
#DIFFICULTY:Beginner;
#METER:3;
#RADARVALUES:0.113019,0.177290,0.114380,0.000000,0.000000,83.000000,71.000000,12.000000,0.000000,0.000000,0.000000,0.000000,0.000000,0.000000,0.113019,0.177290,0.114380,0.000000,0.000000,83.000000,71.000000,12.000000,0.000000,0.000000,0.000000,0.000000,0.000000,0.000000;
#CREDIT:;
#DISPLAYBPM:160.000000;
#NOTES:
// measure 0
0000
0000
0000
0000
,  // measure 1
0000
0000
0000
0000
,  // measure 2
0000
0000
0000
0000
,  // measure 3
0000
0000
0000
0000
,  // measure 4
0000
0000
0000
0000
,  // measure 5
0000
0000
0000
0000
,  // measure 6
0010
0000
0000
0000
,  // measure 7
0010
0000
0000
0000
,  // measure 8
0100
0000
0000
0000
,  // measure 9
0100
0000
0000
0000
,  // measure 10
0001
0000
0000
0000
,  // measure 11
0001
0000
0000
0000
,  // measure 12
1000
0000
0000
0000
,  // measure 13
1000
0000
0000
0000
,  // measure 14
0110
0000
0000
0000
,  // measure 15
0100
0000
0000
0000
,  // measure 16
0100
0000
0000
0000
,  // measure 17
0010
0000
0001
0000
,  // measure 18
0101
0000
0000
0000
,  // measure 19
1000
0000
0000
0000
,  // measure 20
1000
0000
0000
0000
,  // measure 21
0100
0000
0010
0000
,  // measure 22
0110
0000
0000
0000
,  // measure 23
0100
0000
0000
0000
,  // measure 24
0101
0000
0000
0000
,  // measure 25
0100
0000
0000
0000
,  // measure 26
0110
0000
0000
0000
,  // measure 27
1000
0000
0000
0000
,  // measure 28
0001
0000
0000
0000
,  // measure 29
0100
0000
0010
0000
,  // measure 30
0110
0000
0000
0000
,  // measure 31
0100
0000
0000
0000
,  // measure 32
0001
0000
0000
0000
,  // measure 33
0100
0000
1000
0000
,  // measure 34
1100
0000
0000
0000
,  // measure 35
0010
0000
0000
0000
,  // measure 36
0100
0000
0000
0000
,  // measure 37
0001
0000
0000
0000
,  // measure 38
0000
0000
0000
0000
,  // measure 39
0000
0000
0000
0000
,  // measure 40
0010
0000
0010
0000
,  // measure 41
0010
0000
0010
0000
,  // measure 42
0110
0000
0000
0000
,  // measure 43
1000
0000
1000
0000
,  // measure 44
0001
0000
0001
0000
,  // measure 45
0100
0000
0000
0000
,  // measure 46
1001
0000
0000
0000
,  // measure 47
1000
0000
0000
0000
,  // measure 48
0110
0000
0000
0000
,  // measure 49
0100
0000
0000
0000
,  // measure 50
1100
0000
0000
0000
,  // measure 51
0010
0000
0000
0000
,  // measure 52
0101
0000
0000
0000
,  // measure 53
0010
0000
0000
0000
,  // measure 54
0100
0000
0100
0000
,  // measure 55
0001
0000
0001
0000
,  // measure 56
1000
0000
1000
0000
,  // measure 57
0010
0000
0010
0000
,  // measure 58
0100
0000
0100
0000
,  // measure 59
1000
0000
0001
0000
,  // measure 60
0100
0000
0001
0000
,  // measure 61
1000
0000
1000
0000
,  // measure 62
0010
0000
0000
0000
;
