#TITLE:TRIP MACHINE PhoeniX;
#SUBTITLE:;
#ARTIST:DE-SIRE alterative;
#TITLETRANSLIT:;
#SUBTITLETRANSLIT:;
#ARTISTTRANSLIT:;
#GENRE:;
#CREDIT:;
#BANNER:TRIP MACHINE PhoeniX.png;
#BACKGROUND:TRIP MACHINE PhoeniX-bg.png;
#LYRICSPATH:;
#CDTITLE:;
#MUSIC:TRIP MACHINE PhoeniX.ogg;
#OFFSET:0.750000;
#SAMPLESTART:0.750000;
#SAMPLELENGTH:16.000000;
#SELECTABLE:YES;
#DISPLAYBPM:160.000000;
#BPMS:0.000000=160.000000
,4.000000=159.992996
;
#STOPS:
;
#BGCHANGES:2.000=TRIP MACHINE PhoeniX.avi=1.000=0=0=0=StretchNoLoop====,
99999=-nosongbg-=1.000=0=0=0 // don't automatically add -songbackground-
;
#KEYSOUNDS:;
#ATTACKS:;

//---------------dance-single - ----------------
#NOTES:
     dance-single:
     :
     Beginner:
     2:
     0.095984,0.192118,0.073488,0.052491,0.000000,64.000000,57.000000,7.000000,5.000000,0.000000,0.000000,0.095984,0.192118,0.073488,0.052491,0.000000,64.000000,57.000000,7.000000,5.000000,0.000000,0.000000:
// measure 0
0000
0000
0000
0000
,  // measure 1
0000
0000
0000
0000
,  // measure 2
0000
0000
0000
0000
,  // measure 3
0000
0000
0000
0000
,  // measure 4
0000
0000
0000
0000
,  // measure 5
0000
0000
1000
0000
,  // measure 6
1000
0000
1000
0000
,  // measure 7
1000
0000
1000
0000
,  // measure 8
0000
0000
1001
0000
,  // measure 9
0010
0000
0000
0000
,  // measure 10
0000
0000
0000
0000
,  // measure 11
0100
0000
0000
0000
,  // measure 12
0000
0000
0000
0000
,  // measure 13
0001
0000
0000
0000
,  // measure 14
0000
0000
0000
0000
,  // measure 15
1000
0000
0000
0000
,  // measure 16
0000
0000
0000
0000
,  // measure 17
0010
0000
0000
0000
,  // measure 18
0010
0000
0000
0000
,  // measure 19
1000
0000
0000
0000
,  // measure 20
0001
0000
0000
0000
,  // measure 21
0100
0000
0000
0000
,  // measure 22
0010
0000
0000
0000
,  // measure 23
1000
0000
1000
0000
,  // measure 24
1000
0000
0010
0000
,  // measure 25
0101
0000
0000
0000
,  // measure 26
1100
0000
0000
0000
,  // measure 27
0000
0000
0000
0000
,  // measure 28
0100
0000
0000
0000
,  // measure 29
0000
0000
0000
0000
,  // measure 30
0001
0000
0000
0000
,  // measure 31
0010
0000
0000
0000
,  // measure 32
0101
0000
0000
0000
,  // measure 33
1000
0000
0000
0000
,  // measure 34
0110
0000
0000
0000
,  // measure 35
0100
0000
0000
0000
,  // measure 36
0101
0000
0000
0000
,  // measure 37
0001
0000
0000
0000
,  // measure 38
0110
0000
0000
0000
,  // measure 39
0000
0000
0000
0000
,  // measure 40
0001
0000
0000
0000
,  // measure 41
0000
0000
0000
0000
,  // measure 42
0100
0000
0000
0000
,  // measure 43
0000
0000
0000
0000
,  // measure 44
0010
0000
0000
0000
,  // measure 45
0000
0000
0000
0000
,  // measure 46
1000
0000
0000
0000
,  // measure 47
0000
0000
0000
0000
,  // measure 48
0001
0000
0100
0000
,  // measure 49
0010
0000
1000
0000
,  // measure 50
0100
0000
0001
0000
,  // measure 51
1000
0000
0000
0000
,  // measure 52
0010
0000
0010
0000
,  // measure 53
1000
0000
0100
0000
,  // measure 54
0001
0000
1000
0000
,  // measure 55
0010
0000
0100
0000
,  // measure 56
0000
0010
0000
0000
2000
0000
0000
0000
,  // measure 57
0000
0000
3002
0000
,  // measure 58
0000
0000
0203
0000
,  // measure 59
0000
0000
0000
0000
0320
0000
0000
0200
,  // measure 60
0000
0000
0000
0000
,  // measure 61
0330
0000
0000
0000
;
