#VERSION:0.83;
#TITLE:TRIP MACHINE EVOLUTION;
#SUBTITLE:;
#ARTIST:DE-JAVU;
#TITLETRANSLIT:;
#SUBTITLETRANSLIT:;
#ARTISTTRANSLIT:;
#GENRE:;
#ORIGIN:;
#CREDIT:;
#BANNER:TRIP MACHINE EVOLUTION.png;
#BACKGROUND:TRIP MACHINE EVOLUTION-bg.png;
#PREVIEWVID:;
#JACKET:TRIP MACHINE EVOLUTION-jacket.png;
#CDIMAGE:;
#DISCIMAGE:;
#LYRICSPATH:;
#CDTITLE:;
#MUSIC:TRIP MACHINE EVOLUTION.ogg;
#OFFSET:0.000000;
#SAMPLESTART:43.583000;
#SAMPLELENGTH:12.000000;
#SELECTABLE:YES;
#DISPLAYBPM:*;
#BPMS:0.000=380.000,
8.000=189.986,
201.000=190.500,
233.000=190.000;
#STOPS:8.000=1.580;
#DELAYS:;
#WARPS:;
#TIMESIGNATURES:0.000=4=4;
#TICKCOUNTS:0.000=4;
#COMBOS:0.000=1;
#SPEEDS:0.000=1.000=0.000=0;
#SCROLLS:0.000=1.000;
#FAKES:;
#LABELS:0.000=Song Start;
#BGCHANGES:0.000=TRIP MACHINE EVOLUTION.avi=1.000=0=0=0=StretchNoLoop====,
99999=-nosongbg-=1.000=0=0=0 // don't automatically add -songbackground-
;
#KEYSOUNDS:;
#ATTACKS:
;

//---------------dance-single - ----------------
#NOTEDATA:;
#CHARTNAME:;
#STEPSTYPE:dance-single;
#DESCRIPTION:;
#CHARTSTYLE:;
#DIFFICULTY:Beginner;
#METER:5;
#RADARVALUES:0.189109,0.263404,0.088251,0.049028,0.000000,135.000000,126.000000,9.000000,5.000000,0.000000,0.000000,0.000000,0.000000,0.000000,0.189109,0.263404,0.088251,0.049028,0.000000,135.000000,126.000000,9.000000,5.000000,0.000000,0.000000,0.000000,0.000000,0.000000;
#CREDIT:;
#DISPLAYBPM:*;
#NOTES:
// measure 0
0000
0000
0000
0000
,  // measure 1
0000
0000
0000
0000
,  // measure 2
2000
3000
0000
0000
,  // measure 3
0000
1000
0000
0000
,  // measure 4
0000
0001
0000
0000
,  // measure 5
0000
1000
0000
0000
,  // measure 6
0000
0001
0000
0000
,  // measure 7
0000
0100
0000
0000
,  // measure 8
0000
0001
0000
0000
,  // measure 9
0000
0020
0000
0000
,  // measure 10
0000
0130
0000
1000
,  // measure 11
0000
0001
0000
1000
,  // measure 12
0000
0010
0000
0100
,  // measure 13
0000
0001
0000
1000
,  // measure 14
0000
0001
0000
0100
,  // measure 15
0000
0010
0000
1000
,  // measure 16
0000
0100
0000
0001
,  // measure 17
0000
1000
0000
0001
,  // measure 18
0000
1000
0000
0010
,  // measure 19
0000
0001
0000
0100
,  // measure 20
0000
1000
0000
0100
,  // measure 21
0000
0001
0000
0010
,  // measure 22
0000
1000
0000
0001
,  // measure 23
0000
0100
0000
0001
,  // measure 24
0000
0010
0000
1000
,  // measure 25
0000
0100
0000
1000
,  // measure 26
0000
0001
0000
0000
,  // measure 27
0000
0000
0000
0000
,  // measure 28
0000
1000
0000
0000
,  // measure 29
0000
0000
0000
0000
,  // measure 30
0000
0010
0000
0000
,  // measure 31
0000
0000
0000
0000
,  // measure 32
0000
0100
0000
0000
,  // measure 33
0000
0002
0000
0003
,  // measure 34
0000
1000
0000
0100
,  // measure 35
0000
1000
0000
0001
,  // measure 36
0000
0100
0000
0001
,  // measure 37
0000
1000
0000
0010
,  // measure 38
0000
0100
0000
0010
,  // measure 39
0000
1000
0000
0100
,  // measure 40
0000
0001
0000
1000
,  // measure 41
0000
0001
0000
1000
,  // measure 42
0000
0010
0000
0100
,  // measure 43
0000
1000
0000
0100
,  // measure 44
0000
0001
0000
1000
,  // measure 45
0000
0100
0000
1000
,  // measure 46
0000
0010
0000
0100
,  // measure 47
0000
0001
0000
1000
,  // measure 48
0000
0001
0000
0100
,  // measure 49
0000
1000
0000
0010
,  // measure 50
0000
0110
0000
0000
,  // measure 51
0101
0000
0000
0010
,  // measure 52
0000
1010
0000
0000
,  // measure 53
1100
0000
0000
0001
,  // measure 54
0000
0101
0000
0000
,  // measure 55
1010
0000
0000
0010
,  // measure 56
0000
0011
0000
0000
,  // measure 57
0101
0000
0000
2000
,  // measure 58
0000
3000
0000
0000
,  // measure 59
0000
1100
0000
0001
,  // measure 60
0000
1000
0000
0001
,  // measure 61
0000
0100
0000
0010
,  // measure 62
0000
1000
0000
0100
,  // measure 63
0000
1000
0000
0100
,  // measure 64
0000
0001
0000
1000
,  // measure 65
0000
0001
0000
0010
,  // measure 66
0000
0001
0000
0100
,  // measure 67
0000
0010
0000
1000
,  // measure 68
0000
0100
0000
1000
,  // measure 69
0000
0100
0000
0001
,  // measure 70
0000
1000
0000
0010
,  // measure 71
0000
1000
0000
0100
,  // measure 72
0000
0001
0000
1000
,  // measure 73
0000
0010
0000
0100
,  // measure 74
0000
1000
0000
0100
,  // measure 75
0000
0001
0001
0010
,  // measure 76
0010
2000
0000
3000
;

//---------------dance-single - ----------------
#NOTEDATA:;
#CHARTNAME:;
#STEPSTYPE:dance-single;
#DESCRIPTION:;
#CHARTSTYLE:;
#DIFFICULTY:Easy;
#METER:10;
#RADARVALUES:0.395028,0.564438,0.186307,0.127473,0.000000,282.000000,263.000000,19.000000,13.000000,0.000000,0.000000,0.000000,0.000000,0.000000,0.395028,0.564438,0.186307,0.127473,0.000000,282.000000,263.000000,19.000000,13.000000,0.000000,0.000000,0.000000,0.000000,0.000000;
#CREDIT:;
#DISPLAYBPM:*;
#NOTES:
// measure 0
0000
0000
0000
0000
,  // measure 1
0000
0000
0000
0000
,  // measure 2
0200
0310
0000
0100
,  // measure 3
0000
0001
0000
1000
,  // measure 4
0000
0001
0000
0100
,  // measure 5
0000
0010
0000
1000
,  // measure 6
0000
0100
0000
0001
,  // measure 7
0000
1000
0000
0010
,  // measure 8
0000
1000
0000
0001
,  // measure 9
0000
0020
0000
0000
,  // measure 10
0000
1030
0100
0001
,  // measure 11
1000
0001
0010
0001
,  // measure 12
0100
1000
0100
0001
,  // measure 13
1000
0001
1000
0010
,  // measure 14
1000
0100
0001
1000
,  // measure 15
0100
0010
1000
0100
,  // measure 16
0001
1000
0001
0100
,  // measure 17
1000
0100
0001
0010
,  // measure 18
1000
0010
0001
0100
,  // measure 19
1000
0010
1000
0001
,  // measure 20
0100
1000
0100
0001
,  // measure 21
0010
1000
0001
0100
,  // measure 22
0001
1000
0001
0100
,  // measure 23
1000
0010
0001
1000
,  // measure 24
0001
0100
0010
1000
,  // measure 25
0001
1000
0001
0100
,  // measure 26
1000
0010
0000
0100
,  // measure 27
0000
0001
0000
1000
,  // measure 28
0000
0010
0000
0010
,  // measure 29
0000
2000
0000
0010
,  // measure 30
0010
3001
0000
1000
,  // measure 31
0000
0010
0000
0100
,  // measure 32
0000
1000
0000
0001
,  // measure 33
0000
0002
0000
0013
,  // measure 34
0010
1010
1000
0100
,  // measure 35
0001
1000
0001
1000
,  // measure 36
0010
0001
0100
1000
,  // measure 37
0100
0001
1000
0001
,  // measure 38
1000
0010
0001
0100
,  // measure 39
0001
1000
0010
0001
,  // measure 40
0100
1000
0001
1000
,  // measure 41
0010
0010
0010
1000
,  // measure 42
0100
0001
1000
0010
,  // measure 43
1000
0100
0001
0010
,  // measure 44
0001
0100
1000
0100
,  // measure 45
0001
1000
0010
1000
,  // measure 46
0100
0001
1000
0010
,  // measure 47
0001
0100
0001
1000
,  // measure 48
0010
1000
0100
0001
,  // measure 49
1000
0010
0001
0100
,  // measure 50
0001
0210
0001
1300
,  // measure 51
2100
0100
3001
0010
,  // measure 52
0010
2100
0100
3010
,  // measure 53
0120
0100
0031
1000
,  // measure 54
0001
0120
0100
0031
,  // measure 55
1002
1000
0103
0010
,  // measure 56
1000
0201
0001
1300
,  // measure 57
0120
0100
0031
0100
,  // measure 58
0010
0000
0000
0000
,  // measure 59
0000
0010
0100
0010
,  // measure 60
1000
0100
0001
1000
,  // measure 61
0001
1000
0010
0001
,  // measure 62
0100
0001
1000
0010
,  // measure 63
0100
0010
1000
0100
,  // measure 64
0001
1000
0001
1000
,  // measure 65
0010
0001
0100
0001
,  // measure 66
0010
1000
0100
0100
,  // measure 67
0100
0010
1000
0100
,  // measure 68
0001
1000
0001
1000
,  // measure 69
0010
0001
0100
1000
,  // measure 70
0100
0001
1000
0010
,  // measure 71
0100
0110
1000
0100
,  // measure 72
0001
0110
1000
0100
,  // measure 73
0001
0110
0001
0101
,  // measure 74
0010
0110
0100
1100
,  // measure 75
0100
1001
0110
1001
,  // measure 76
0110
0200
0000
0300
;

//---------------dance-single - ----------------
#NOTEDATA:;
#CHARTNAME:;
#STEPSTYPE:dance-single;
#DESCRIPTION:;
#CHARTSTYLE:;
#DIFFICULTY:Challenge;
#METER:19;
#RADARVALUES:1.092630,2.876978,0.706007,0.539311,0.147085,780.000000,706.000000,72.000000,55.000000,0.000000,6.000000,0.000000,0.000000,0.000000,1.092630,2.876978,0.706007,0.539311,0.147085,780.000000,706.000000,72.000000,55.000000,0.000000,6.000000,0.000000,0.000000,0.000000;
#CREDIT:;
#OFFSET:0.000000;
#BPMS:0.000000=380.000000
,8.000000=189.985992
,37.000000=95.000000
,39.000000=380.000000
,167.000000=190.000000
,195.000000=95.000000
,196.500000=380.000000
,324.500000=189.955994
,349.000000=380.000000
;
#STOPS:8.000000=1.580000
,196.000000=0.316000
,324.500000=0.079000
,324.750000=0.079000
,325.000000=0.079000
,325.250000=0.079000
,325.500000=0.079000
,326.250000=0.080000
,326.500000=0.078000
,326.750000=0.078000
,327.000000=0.078000
,327.250000=0.078000
,330.000000=0.079000
,330.250000=0.079000
,330.500000=0.079000
,330.750000=0.079000
,331.000000=0.079000
,331.750000=0.079000
,332.000000=0.079000
,332.250000=0.079000
,332.500000=0.079000
,332.750000=0.079000
,335.250000=0.079000
,335.500000=0.079000
,335.750000=0.079000
,336.000000=0.079000
,336.250000=0.079000
,337.000000=0.079000
,337.250000=0.079000
,337.500000=0.079000
,337.750000=0.079000
,338.000000=0.079000
,340.750000=0.079000
,341.000000=0.079000
,341.250000=0.079000
,341.500000=0.079000
,341.750000=0.079000
,342.750000=0.078000
,343.000000=0.078000
,343.250000=0.078000
,343.500000=0.080000
,343.750000=0.080000
,347.000000=0.158000
,347.500000=0.158000
,348.000000=0.158000
;
#DELAYS:;
#WARPS:;
#TIMESIGNATURES:0.000000=4=4
;
#TICKCOUNTS:0.000000=4
;
#COMBOS:0.000000=1
;
#SPEEDS:0.000000=1.000000=0.000000=0
;
#SCROLLS:0.000000=1.000000
;
#FAKES:;
#LABELS:0.000000=Song Start
;
#DISPLAYBPM:*;
#NOTES:
// measure 0
0000
0000
0000
0000
,  // measure 1
0000
0000
0000
0000
,  // measure 2
2222
3333
0100
0001
0010
0100
1000
0001
,  // measure 3
0100
0010
0000
0000
1000
0000
0001
1000
,  // measure 4
0100
0010
0001
0010
1000
0100
0010
0001
,  // measure 5
0100
1000
0001
0000
1000
0000
0100
0010
,  // measure 6
1000
0010
0110
1000
0001
0100
1000
0010
,  // measure 7
0001
0100
0000
0000
0010
0000
0100
0001
,  // measure 8
0010
0010
1000
0010
0100
1000
0001
0100
,  // measure 9
1000
0000
0100
0010
2002
0000
0000
0000
0000
0000
0000
0000
3113
0000
0000
0000
,  // measure 10
0010
0000
1000
0000
0100
0010
0001
0010
,  // measure 11
1000
0001
0100
0000
0001
0000
1000
0000
,  // measure 12
0010
0000
0001
0000
0100
0010
1000
0100
,  // measure 13
0010
1000
0001
0000
0100
0000
1000
0000
,  // measure 14
0001
0000
1000
0000
0001
0010
1000
0100
,  // measure 15
0010
0001
0100
0000
0001
0000
0100
0000
,  // measure 16
1000
0000
0001
0000
0100
0010
1000
0010
,  // measure 17
0001
1000
0100
0000
0010
0000
1100
0000
,  // measure 18
0100
0000
0001
0000
1000
0010
0001
0100
,  // measure 19
0010
0100
1000
0000
0100
0000
1000
0000
,  // measure 20
0001
0000
0100
0000
1000
0001
0010
0001
,  // measure 21
0100
1000
0001
0000
1000
0000
0001
0000
,  // measure 22
0100
0000
1000
0000
0100
0010
0001
1000
,  // measure 23
0010
0100
1000
0000
0001
0000
1000
0000
,  // measure 24
0001
0000
0100
0000
1000
0001
0100
0010
,  // measure 25
0001
1000
0010
0000
1000
0000
0011
0000
,  // measure 26
0100
0000
1000
0000
0010
0100
1000
0010
,  // measure 27
0001
0010
0100
0000
0001
0000
0010
0000
,  // measure 28
1000
0000
0100
0000
0001
1000
0010
0100
,  // measure 29
1000
0100
0001
0000
1000
0000
0001
0000
,  // measure 30
0100
0000
1000
0000
0100
1000
0001
0100
,  // measure 31
0010
0100
1000
0000
0001
0000
1000
0000
,  // measure 32
0001
0000
0100
0000
1000
0010
0100
0010
,  // measure 33
1000
0100
0001
0000
0100
0000
1010
0000
,  // measure 34
0010
0000
1000
0000
0001
1000
0100
0001
,  // measure 35
1000
0010
0100
0000
0001
0000
0010
0000
,  // measure 36
1000
0000
0001
0000
1000
0010
0001
0010
,  // measure 37
0100
0001
1000
0000
0100
0000
0100
0000
,  // measure 38
0010
0000
1000
0000
0001
1000
0100
1000
,  // measure 39
0001
0100
0010
0000
1000
0000
0001
0000
,  // measure 40
0100
0101
1000
0011
,  // measure 41
0100
0000
1010
0000
0100
0000
0011
1000
,  // measure 42
0200
0302
1003
0002
0023
1030
0200
0302
,  // measure 43
1003
0002
2003
3010
0001
0100
2000
3001
,  // measure 44
2000
3002
0103
0020
2030
3001
0200
0000
,  // measure 45
0010
0001
0001
0000
1000
0000
0310
1000
,  // measure 46
0002
0203
0301
2000
3020
0031
0200
2300
,  // measure 47
3001
2000
3002
0013
1000
0100
0002
1003
,  // measure 48
0002
2003
3010
0200
2300
3001
0020
0000
,  // measure 49
0200
1330
0000
0100
0000
1000
0000
0100
,  // measure 50
0000
0001
0010
1000
0010
0001
0100
0010
,  // measure 51
0000
1001
0000
0100
0000
1000
0000
0001
,  // measure 52
0000
0100
1000
0001
0100
1000
0001
0010
,  // measure 53
0000
1100
0000
0010
0000
1000
0000
0100
,  // measure 54
0000
0001
0100
1000
0010
0001
0100
0010
,  // measure 55
0000
0101
0000
0100
0000
1000
0000
0010
,  // measure 56
0000
1000
0010
0100
0010
0001
0100
1000
,  // measure 57
0000
0011
0000
0100
0000
1000
0000
0010
,  // measure 58
0000
0100
0001
1000
0010
0100
0001
1000
,  // measure 59
0000
0101
0000
0001
0000
0001
0000
0010
,  // measure 60
0000
1000
0001
1000
0100
0010
1000
0100
,  // measure 61
0000
0110
0000
0100
0000
1000
0000
0100
,  // measure 62
0000
0001
0100
1000
0001
0010
0001
0100
,  // measure 63
0000
1010
0000
1000
0000
0100
0000
0001
,  // measure 64
0000
0010
1000
0001
0100
1000
0010
0100
,  // measure 65
0000
1010
0000
0010
0000
0100
0000
0010
,  // measure 66
0000
1000
0100
0001
1000
0100
0010
1000
,  // measure 67
0000
0110
0000
0001
0000
0001
0000
0001
,  // measure 68
0000
0010
0100
1000
0010
0001
0010
0100
,  // measure 69
0000
1100
0000
0010
0000
0100
0000
0001
,  // measure 70
0000
0010
0100
1000
0010
0100
0001
0100
,  // measure 71
0000
0101
0000
1000
0000
0100
0000
0010
,  // measure 72
0000
1000
0100
0001
0100
1000
0100
0001
,  // measure 73
0000
0110
0000
1000
0000
0100
0000
0010
,  // measure 74
0000
1000
0010
0100
0010
0001
1000
0010
,  // measure 75
0000
1001
0000
1000
0000
0001
0000
0100
,  // measure 76
0000
1000
0001
0010
0100
1000
0010
0100
,  // measure 77
0000
0011
0000
1000
0000
0001
0000
0100
,  // measure 78
0000
1000
0010
0100
1000
0001
0100
0010
,  // measure 79
0000
1010
0000
0001
0000
0100
0000
0001
,  // measure 80
0000
1000
0010
0100
0001
1000
0100
0010
,  // measure 81
0000
0000
0101
0110
0011
0110
1100
0000
0000
0101
0110
0011
0110
1100
0000
0000
,  // measure 82
0010
0000
1000
0000
0001
0000
1000
0000
1001
0110
1001
0110
1001
0000
0000
1010
,  // measure 83
0101
1010
0101
1010
0000
0100
0001
0100
0001
0010
1000
0010
1000
0101
1010
0101
,  // measure 84
1010
0101
0000
0000
1100
0011
1100
0011
1100
0000
0000
0000
0001
0000
1000
0000
,  // measure 85
0010
0000
1000
0110
1001
0110
1001
0110
0000
0000
0000
0101
1010
0101
1010
0101
,  // measure 86
0000
0000
1000
0001
1000
0001
1000
0001
1000
0001
0000
0000
0120
0000
0102
0000
,  // measure 87
1200
1333
1000
0001
,  // measure 88
1000
0100
0010
1000
0100
0010
0001
0000
,  // measure 89
1000
0001
1000
0010
,  // measure 90
0001
0010
0100
0001
1000
0001
0100
0000
,  // measure 91
0001
1000
0001
1000
,  // measure 92
0010
1000
0100
1000
0010
0100
1000
0000
,  // measure 93
0100
0002
1000
0023
,  // measure 94
1000
0032
0010
0203
,  // measure 95
1300
0100
1000
0001
,  // measure 96
1000
0100
0010
1000
0001
0010
0100
0000
,  // measure 97
0001
1000
0010
1000
,  // measure 98
0100
0010
0001
0010
1000
0100
0001
0000
,  // measure 99
1000
0010
0100
0001
,  // measure 100
1000
0100
0010
1000
0001
0010
0100
0000
,  // measure 101
1000
0100
2000
3002
,  // measure 102
2003
3020
2030
3200
,  // measure 103
0302
2003
3001
1000
,  // measure 104
0010
0100
0001
1000
0100
0010
0001
0000
,  // measure 105
1000
0001
0100
1000
,  // measure 106
0010
0100
0001
1000
0001
0010
0100
0000
,  // measure 107
1000
0010
0010
0100
,  // measure 108
0001
0010
1000
0100
0001
1000
0100
0000
,  // measure 109
1000
0020
1000
0032
,  // measure 110
0100
2003
0010
3100
,  // measure 111
0001
0000
0100
1000
0001
0100
0010
0001
,  // measure 112
1000
0010
0001
0100
1000
0000
0001
0000
,  // measure 113
0100
0010
1000
0001
0100
1000
0001
0100
,  // measure 114
0010
0100
1000
0100
0001
0100
1000
0000
,  // measure 115
0001
0000
0100
0001
1000
0000
0010
0000
,  // measure 116
0100
0000
0010
1000
0100
0000
0010
0000
,  // measure 117
1000
0000
0100
1000
0001
0000
0010
0100
,  // measure 118
1000
0000
0001
0010
0100
1000
0001
1000
,  // measure 119
0010
0100
1000
0000
1000
0000
1100
0000
,  // measure 120
0001
0001
0101
1000
,  // measure 121
0001
2002
0000
0000
,  // measure 122
0000
3003
0000
0000
;

//---------------dance-single - ----------------
#NOTEDATA:;
#CHARTNAME:;
#STEPSTYPE:dance-single;
#DESCRIPTION:;
#CHARTSTYLE:;
#DIFFICULTY:Medium;
#METER:12;
#RADARVALUES:0.525303,0.604028,0.058834,0.294170,0.000000,375.000000,369.000000,6.000000,30.000000,0.000000,0.000000,6.000000,0.000000,0.000000,0.525303,0.604028,0.058834,0.294170,0.000000,375.000000,369.000000,6.000000,30.000000,0.000000,0.000000,6.000000,0.000000,0.000000;
#CREDIT:;
#OFFSET:0.000000;
#BPMS:0.000000=380.000000
,8.000000=189.985992
;
#STOPS:8.000000=1.580000
,135.000000=0.316000
;
#DELAYS:;
#WARPS:;
#TIMESIGNATURES:0.000000=4=4
;
#TICKCOUNTS:0.000000=4
;
#COMBOS:0.000000=1
;
#SPEEDS:0.000000=1.000000=0.000000=0
;
#SCROLLS:0.000000=1.000000
;
#FAKES:;
#LABELS:0.000000=Song Start
;
#DISPLAYBPM:*;
#NOTES:
// measure 0
0000
0000
0000
0000
,  // measure 1
0000
0000
0000
0000
,  // measure 2
0020
1030
0100
0001
,  // measure 3
1000
0001
1000
0010
,  // measure 4
0001
0100
0001
1000
,  // measure 5
0010
1000
0100
0001
,  // measure 6
1000
0001
1000
0010
,  // measure 7
0100
0010
1000
0100
,  // measure 8
0001
1000
0010
1000
,  // measure 9
0100
0002
0000
0000
,  // measure 10
0000
0103
1000
0001
,  // measure 11
1000
0010
0001
1000
,  // measure 12
0001
1000
0010
0100
,  // measure 13
0010
1000
0100
0001
,  // measure 14
1000
0001
1000
0010
,  // measure 15
0001
0100
0001
1000
,  // measure 16
0001
1000
0010
1000
,  // measure 17
0001
1000
0001
1000
,  // measure 18
0010
0001
0100
1000
,  // measure 19
0001
1000
0001
0100
,  // measure 20
0010
1000
0100
0001
,  // measure 21
1000
0001
1000
0010
,  // measure 22
1000
0100
0001
0010
,  // measure 23
0001
0100
1000
0010
,  // measure 24
0001
1000
0001
1000
,  // measure 25
0010
0000
1000
0000
0100
0100
0001
0001
,  // measure 26
0100
0100
1010
0000
0200
0301
0000
2000
,  // measure 27
3010
0000
0200
0301
0000
0020
0031
0000
,  // measure 28
0001
0000
1000
0000
0020
0130
0000
0002
,  // measure 29
1003
0000
0020
0000
0000
0100
0100
0000
,  // measure 30
0130
0000
0001
0000
0200
0310
0000
0020
,  // measure 31
1030
0000
0200
0301
0000
2000
3010
0000
,  // measure 32
0010
0000
0001
0000
0200
1300
0000
0200
,  // measure 33
1300
0020
0000
0031
,  // measure 34
0011
0000
0010
0000
0100
1000
0001
0000
,  // measure 35
0010
0000
0001
0000
0100
0010
1000
0000
,  // measure 36
0100
0001
1000
0000
0010
0001
0000
1000
,  // measure 37
0000
0001
0000
0100
0000
0010
0000
0100
,  // measure 38
1000
0000
0100
0000
0001
0010
1000
0000
,  // measure 39
0100
0000
0001
0000
1000
0010
0100
0000
,  // measure 40
0001
0100
1000
0000
0010
0001
0000
1000
,  // measure 41
0000
0100
0000
0001
0000
1000
0000
0010
,  // measure 42
0100
0000
0010
0000
0100
0010
0100
0000
,  // measure 43
0001
0000
1000
0000
0100
0001
1000
0000
,  // measure 44
0010
0100
0010
0000
1000
0001
0000
0100
,  // measure 45
0000
0010
0000
1000
0000
0100
0000
0001
,  // measure 46
0100
0000
0010
0000
1000
0000
0100
0010
,  // measure 47
0100
0000
0001
0000
0100
0000
0001
0100
,  // measure 48
1000
0000
0010
0100
0010
0000
0001
0100
,  // measure 49
0000
0010
0000
1000
0000
0100
0000
0100
,  // measure 50
1000
0100
0010
0001
0001
0000
1000
0100
,  // measure 51
0010
0001
0001
0000
0100
0010
0100
0010
,  // measure 52
1000
0100
0010
0001
0001
0000
1000
0100
,  // measure 53
0010
0001
0001
0000
4004
0000
0000
3003
,  // measure 54
0001
0010
0100
1000
1000
0000
0001
0010
,  // measure 55
0100
1000
1000
0000
1000
0100
1000
0100
,  // measure 56
0001
0010
0100
1000
1000
0000
0001
0010
,  // measure 57
0100
1000
1000
0000
4400
0000
3300
0000
,  // measure 58
2000
0000
3200
0000
0320
0002
0033
0000
,  // measure 59
0101
0000
0010
0000
1000
0001
0100
0000
,  // measure 60
0001
0000
1000
0010
0001
0010
1000
0100
,  // measure 61
0100
0000
0001
0000
1000
0001
0010
0000
,  // measure 62
0001
0200
0000
0320
0000
0032
0000
0103
,  // measure 63
0010
0000
0100
0000
0010
0001
1000
0000
,  // measure 64
0100
0020
0031
0100
1000
0010
0001
0010
,  // measure 65
1000
0000
0010
0000
0001
1000
0100
0000
,  // measure 66
1000
0100
0001
0100
1000
0100
0001
0100
,  // measure 67
2000
0000
0010
0000
0100
0001
0010
0000
,  // measure 68
0100
3002
0103
0010
0001
0100
1000
0010
,  // measure 69
0001
1000
0010
1000
,  // measure 70
0100
0020
0000
0230
0000
0320
0000
0031
,  // measure 71
1000
1000
0010
0010
0001
0000
0100
0000
,  // measure 72
0001
0001
1000
1000
0010
0000
0100
0000
,  // measure 73
0010
0010
0100
0100
1000
1000
0100
0100
,  // measure 74
0001
1000
0001
1000
0404
0000
0000
0303
,  // measure 75
1000
0001
0001
0000
1000
0001
0001
0000
,  // measure 76
0020
0000
0000
0000
,  // measure 77
0030
0000
0000
0000
;

//---------------dance-single - ----------------
#NOTEDATA:;
#CHARTNAME:;
#STEPSTYPE:dance-single;
#DESCRIPTION:;
#CHARTSTYLE:;
#DIFFICULTY:Hard;
#METER:18;
#RADARVALUES:0.923132,1.588638,0.666784,0.254947,0.004903,659.000000,591.000000,68.000000,26.000000,0.000000,0.000000,6.000000,0.000000,0.000000,0.923132,1.588638,0.666784,0.254947,0.004903,659.000000,591.000000,68.000000,26.000000,0.000000,0.000000,6.000000,0.000000,0.000000;
#CREDIT:;
#OFFSET:0.000000;
#BPMS:0.000000=380.000000
,8.000000=189.985992
,38.000000=380.000000
,166.000000=189.975998
,194.000000=95.000000
,196.000000=380.000000
,324.000000=190.000000
,358.500000=380.000000
;
#STOPS:8.000000=1.580000
,37.000000=0.947000
,356.500000=0.158000
,357.000000=0.158000
,357.500000=0.158000
;
#DELAYS:;
#WARPS:;
#TIMESIGNATURES:0.000000=4=4
;
#TICKCOUNTS:0.000000=4
;
#COMBOS:0.000000=1
;
#SPEEDS:0.000000=1.000000=0.000000=0
;
#SCROLLS:0.000000=1.000000
;
#FAKES:;
#LABELS:0.000000=Song Start
;
#DISPLAYBPM:*;
#NOTES:
// measure 0
0000
0000
0000
0000
,  // measure 1
0000
0000
0000
0000
,  // measure 2
2002
3003
0010
0000
0100
0000
1000
0010
,  // measure 3
0001
0010
1000
0000
0100
0000
1000
0001
,  // measure 4
0010
1000
0001
0100
1000
0010
1000
0100
,  // measure 5
0001
1000
0001
0000
0100
0000
0010
0010
,  // measure 6
0010
0010
1010
0100
1000
0001
0100
0001
,  // measure 7
1000
0100
0001
0000
0010
0000
1000
0100
,  // measure 8
0001
1000
0010
0001
0100
1000
0001
0100
,  // measure 9
0010
0000
1000
0100
0002
0000
0000
0000
0103
0000
0000
0000
0010
0000
0000
0000
,  // measure 10
1000
0000
0100
1000
0001
0000
1000
0000
,  // measure 11
0001
1000
0010
0001
,  // measure 12
0100
0000
0001
0010
1000
0000
0001
0000
,  // measure 13
1000
0010
1000
0100
,  // measure 14
0001
0000
1000
0100
0010
0000
0001
0000
,  // measure 15
0100
0001
1000
0010
,  // measure 16
0100
0000
0010
0001
1000
0000
0100
0000
,  // measure 17
0001
0010
1001
0010
,  // measure 18
1000
0000
0100
0010
0001
0000
1000
0000
,  // measure 19
0001
1000
0010
0001
,  // measure 20
0100
0000
0001
0100
1000
0000
0010
0000
,  // measure 21
1000
0100
0001
1000
,  // measure 22
0001
0000
0100
0010
0001
0000
1000
0000
,  // measure 23
0010
1000
0100
0001
,  // measure 24
1000
0000
0001
0100
1000
0000
0010
0000
,  // measure 25
1000
0100
0011
1000
,  // measure 26
0100
0000
0001
0010
1000
0000
0001
0000
,  // measure 27
1000
0010
0001
0100
,  // measure 28
1000
0000
0001
0100
0010
0000
0001
0000
,  // measure 29
0010
1000
0100
0001
,  // measure 30
1000
0000
0001
0010
1000
0000
0001
0000
,  // measure 31
0100
1000
0010
1000
,  // measure 32
0100
0000
0001
1000
0100
0000
0001
0000
,  // measure 33
1000
1000
0101
0010
,  // measure 34
1000
0000
0100
1000
0001
0000
1000
0000
,  // measure 35
0001
1000
0010
0001
,  // measure 36
0100
0000
0001
0100
1000
0000
0010
0000
,  // measure 37
1000
0100
0001
1000
,  // measure 38
0010
0000
1000
0001
0100
0000
0001
0000
,  // measure 39
1000
0100
0010
1000
,  // measure 40
1010
0001
0101
0010
,  // measure 41
1001
0000
0010
0000
0110
1000
0100
0001
,  // measure 42
1000
0010
1000
0100
0011
1000
0010
0001
,  // measure 43
0100
0001
1000
0010
1001
0100
0001
0100
,  // measure 44
0001
1000
0010
0100
0020
0000
0100
1000
,  // measure 45
1000
0000
1000
0000
0130
0010
1000
0001
,  // measure 46
0100
0001
0010
1000
0101
1000
0010
1000
,  // measure 47
0001
1000
0100
1000
1010
0001
1000
0010
,  // measure 48
0001
0010
0100
0000
0020
0000
0030
0000
,  // measure 49
0110
0000
0100
0000
0001
0000
0010
0001
,  // measure 50
1000
0001
1000
0001
,  // measure 51
0100
0000
1000
0000
0010
0000
1000
0100
,  // measure 52
0001
1000
0001
0100
,  // measure 53
0001
0000
0010
0000
1000
0000
0001
0010
,  // measure 54
0100
1000
0010
1000
,  // measure 55
0001
0000
0100
0000
0010
0000
0100
1000
,  // measure 56
0001
0010
1000
0100
,  // measure 57
0011
0000
0100
0000
0001
0000
0010
0100
,  // measure 58
1000
0001
1000
0001
,  // measure 59
0100
0000
1000
0000
0010
0000
1000
0010
,  // measure 60
0001
0100
0001
0010
,  // measure 61
1000
0000
0001
0000
1000
0000
0010
0100
,  // measure 62
1000
0001
0100
0001
,  // measure 63
0010
0000
1000
0000
0001
0000
1000
0010
,  // measure 64
0001
0100
0001
0010
,  // measure 65
1100
0000
0001
0000
0010
0000
1000
0100
,  // measure 66
0001
1000
0001
0100
,  // measure 67
1000
0000
0010
0000
0001
0000
1000
0010
,  // measure 68
0100
1000
0100
0001
,  // measure 69
0010
0000
1000
0000
0001
0000
1000
0100
,  // measure 70
0001
1000
0010
0001
,  // measure 71
0100
0000
0001
0000
0010
0000
1000
0001
,  // measure 72
0010
1000
0001
0001
,  // measure 73
1010
0000
0100
0000
0001
0000
0010
0001
,  // measure 74
1000
0001
1000
0001
,  // measure 75
0100
0000
1000
0000
0010
0000
1000
0010
,  // measure 76
0001
0100
0001
0010
,  // measure 77
1000
0000
0001
0000
0100
0000
0001
1000
,  // measure 78
0010
1000
0001
0010
,  // measure 79
0100
0000
0001
0000
0100
0000
1000
0010
,  // measure 80
1000
0100
1000
0100
,  // measure 81
0101
0101
1010
1010
1100
0000
0101
0101
,  // measure 82
1010
1010
1100
0000
0001
1000
0001
1000
,  // measure 83
1010
1010
0101
0101
0011
0000
1010
1010
,  // measure 84
0101
0000
0101
0000
0011
0000
0000
0000
4004
0000
0000
0000
0000
0000
0000
3003
,  // measure 85
0110
0110
0101
0101
1001
0000
0110
0110
,  // measure 86
0101
0101
1001
0000
0100
0010
0100
0010
,  // measure 87
1100
1100
0011
0011
1001
0000
1100
1100
,  // measure 88
0011
0011
1001
0000
0440
0000
0000
0000
,  // measure 89
0330
0002
0023
2030
3000
0100
0000
0010
,  // measure 90
0000
1000
0000
0100
1000
0001
0000
1000
,  // measure 91
0000
0001
0000
1000
0000
0010
0000
0001
,  // measure 92
0000
0100
0000
0001
0010
1000
0000
0001
,  // measure 93
0000
1000
0000
0010
0000
1000
0000
0100
,  // measure 94
0000
0001
0000
1000
0100
0010
0000
0001
,  // measure 95
0000
0100
0000
0001
0000
1000
0000
0020
,  // measure 96
0000
0130
0000
0020
0001
1030
0000
0200
,  // measure 97
0000
0301
0000
0020
0000
0130
0000
0010
,  // measure 98
0000
1000
0000
0100
0010
0001
0000
1000
,  // measure 99
0000
0001
0000
1000
0000
0010
0000
0001
,  // measure 100
0000
0100
0000
0001
0100
1000
0000
0010
,  // measure 101
0000
1000
0000
0100
0000
0001
0000
1000
,  // measure 102
0000
0001
0000
0100
0010
0001
0000
1000
,  // measure 103
0000
0010
0000
1000
0000
0100
0000
0002
,  // measure 104
0000
2003
0000
3002
0000
2003
0000
3020
,  // measure 105
0000
2030
0000
3200
0000
0302
0000
1000
,  // measure 106
0000
0100
0000
1000
0010
1000
0000
0100
,  // measure 107
0000
1000
0000
0010
0000
1000
0000
0103
,  // measure 108
0000
1000
0000
0001
0100
0010
0000
0001
,  // measure 109
0000
0010
0000
1000
0000
0100
0000
0001
,  // measure 110
0000
1000
0000
0001
0010
1000
0000
0001
,  // measure 111
0000
0100
0000
1000
0000
0010
0000
2000
,  // measure 112
0000
3100
0000
0002
1000
0103
0000
0002
,  // measure 113
0000
1003
0000
0200
0000
0301
0000
0010
,  // measure 114
0000
1000
0000
0100
1000
0001
0000
1000
,  // measure 115
0000
0001
0000
1000
0000
0110
0000
0001
,  // measure 116
0000
0100
0000
0001
0100
1000
0000
0010
,  // measure 117
0000
1000
0000
0100
0000
0001
0000
1000
,  // measure 118
0000
0010
0000
1000
0000
0100
0000
0001
,  // measure 119
0000
1000
0000
0100
0000
0010
0000
1000
,  // measure 120
0000
0010
0000
0001
0000
4400
0000
0000
,  // measure 121
0000
0000
0000
0000
3300
1001
0000
1001
,  // measure 122
0000
0110
0000
1000
0000
0101
0000
0101
,  // measure 123
0000
0101
0000
0010
0000
2002
0000
0000
,  // measure 124
0000
0000
0000
0000
0000
3003
0000
0000
;
