#VERSION:0.83;
#TITLE:TRIP MACHINE CLIMAX;
#SUBTITLE:;
#ARTIST:DE-SIRE;
#TITLETRANSLIT:;
#SUBTITLETRANSLIT:;
#ARTISTTRANSLIT:;
#GENRE:Dance Dance Revolution 4th Mix,Dancing Stage Euromix 2;
#ORIGIN:;
#CREDIT:;
#BANNER:TRIP MACHINE CLIMAX(DDR X).png;
#BACKGROUND:TRIP MACHINE CLIMAX-bg.png;
#PREVIEWVID:;
#JACKET:;
#CDIMAGE:;
#DISCIMAGE:TRIP MACHINE CLIMAX.png;
#LYRICSPATH:;
#CDTITLE:;
#MUSIC:TRIP MACHINE CLIMAX.mp3;
#OFFSET:-1.361000;
#SAMPLESTART:65.949997;
#SAMPLELENGTH:12.000000;
#SELECTABLE:YES;
#DISPLAYBPM:180.000000;
#BPMS:0.000=180.000;
#STOPS:;
#DELAYS:;
#WARPS:;
#TIMESIGNATURES:0.000=4=4;
#TICKCOUNTS:0.000=4;
#COMBOS:0.000=1;
#SPEEDS:0.000=1.000=0.000=0;
#SCROLLS:0.000=1.000;
#FAKES:;
#LABELS:0.000=Song Start;
#BGCHANGES:;
#KEYSOUNDS:;
#ATTACKS:
;

//---------------dance-couple - ----------------
#NOTEDATA:;
#CHARTNAME:;
#STEPSTYPE:dance-couple;
#DESCRIPTION:;
#CHARTSTYLE:;
#DIFFICULTY:Medium;
#METER:8;
#RADARVALUES:0.368978,0.565819,0.218885,0.000000,0.021889,236.000000,216.000000,20.000000,0.000000,0.000000,0.000000,0.000000,0.000000,0.000000,0.368978,0.565819,0.218885,0.000000,0.021889,236.000000,216.000000,20.000000,0.000000,0.000000,0.000000,0.000000,0.000000,0.000000;
#CREDIT:;
#DISPLAYBPM:180.000000;
#NOTES:
00000000
00000000
00000000
00000000
,
00000000
00000000
00000000
00000000
,
00000000
00000000
00000000
00000000
,
00000000
00000000
00000000
00000000
,
00000000
00000000
00000000
00000000
,
00000000
00000000
00000000
00000000
,
00100000
00000010
01000000
00000100
,
11001100
00110011
01000100
01000100
,
00100001
10000000
00100000
01000000
00010000
01000000
00010000
00000000
,
10100001
10000000
01000000
00000000
00110000
00010000
01000000
00000000
,
10000001
00010000
00100000
01100000
,
10000001
00100000
00010000
01000000
10000000
01000000
00010000
00000000
,
00010010
00001000
00000010
00000100
00000001
00000100
00000001
00000000
,
00011010
00001000
00000100
00000000
00000011
00000001
00000100
00000000
,
00011000
00000001
00000010
00000110
,
00011000
00000010
00000001
00000100
00001000
00000100
00000001
00000000
,
00101000
00010000
01000000
00100000
10000000
10000000
00010000
00000000
,
00101000
10000000
01000000
10000000
00010000
01000000
00100000
00000000
,
10001000
00010000
01000000
00000000
01100000
00010000
10000000
00000000
,
00101000
00010000
01000000
10000000
,
10000010
00000001
00000100
00000010
00001000
00001000
00000001
00000000
,
10000010
00001000
00000100
00001000
00000001
00000100
00000010
00000000
,
10001000
00000001
00000100
00000000
00000110
00000001
00001000
00000000
,
10000010
00000001
00000100
00001000
,
00000000
00000000
10000000
00010000
,
00001000
00000000
00000001
00000000
00100010
10001000
01000100
00000000
,
00110011
11001100
00100000
00100000
,
00000010
00000000
00000010
00000000
00010001
10001000
00000000
01100110
,
00000000
00010001
00000000
10001000
00100010
01000100
00010001
00000000
,
10001000
10001000
01000000
00010000
,
00000100
00000001
00100000
01000000
,
00000010
00000100
00010001
00100010
,
10001000
00000000
01000100
00000000
00010001
01000100
00000000
10001000
,
01000100
00000000
00000000
00000000
00010001
01000100
00010001
00000000
,
10001000
01000100
00100010
00010001
01000100
00000000
10001000
00010001
,
00000000
00000000
00110011
11001100
,
10011001
00000000
00000000
00000000
00010001
00100010
00000000
10001000
,
00100010
00000000
00000000
00000000
00000000
01000100
00000000
00000000
,
00000000
00010001
00000000
10001000
00100010
00000000
00010001
01000100
,
00000000
00000000
00000000
00000000
00000000
00000000
10001000
00000000
01000100
00000000
00010001
00000000
,
10001000
00000000
00100010
00000000
00010001
00000000
01001100
00000000
00000000
00000011
00000000
00000000
,
00001000
00000010
00000001
00000000
01000010
00000100
00000001
00000000
,
00000010
00000100
00001000
00000000
01000010
00001000
00000001
00000010
,
00000100
00001000
00000010
00000001
01000010
00000100
00000001
00001000
,
00000100
00001001
11000100
00110000
,
10000000
00100000
00010000
00000000
00100100
01000000
00010000
00000000
,
00100000
01000000
10000000
00000000
00100100
10000000
00010000
00100000
,
01000000
10000000
00100000
00010000
00100100
01000000
00010000
10000000
,
01000000
00000000
10010000
00000000
00100100
00000001
00000100
00001000
,
00000100
00000010
00000100
00000100
00100010
00000010
00000010
00000000
,
00001000
00000001
00101000
00000010
,
00000001
00000000
00000100
00000000
00101000
00000100
00000001
00000010
,
00001000
00000001
00000100
00000000
01000010
00010000
01000000
10000000
,
01000000
00100000
01000000
01000000
00100010
00100000
00100000
00000000
,
10000000
00010000
10000010
00100000
,
00010000
00000000
01000000
00000000
10000010
01000000
00010000
00100000
,
10000000
00010000
01000000
00000000
10000010
01000000
00000000
00010000
,
01000000
00000000
10010000
00000000
00010010
00100000
01000000
10000000
,
00100000
01000000
10010000
00000000
00101000
00000100
00000000
00000001
,
00000100
00000000
00001001
00000000
00100001
00000010
00000100
00001000
,
00000010
00000100
00001001
00000000
00100010
01000100
00010001
00000000
,
10001000
00000000
10001000
00000000
00100010
10001000
01000100
00000000
,
00110011
00000000
11001100
00000000
00100010
00010001
00000000
01000100
,
00010001
00000000
10101010
00000000
10001000
00100010
01000100
00010001
,
00100010
01000100
10001000
00000000
00000000
00010001
00000000
00000000
;

//---------------dance-single - ----------------
#NOTEDATA:;
#CHARTNAME:;
#STEPSTYPE:dance-single;
#DESCRIPTION:;
#CHARTSTYLE:;
#DIFFICULTY:Challenge;
#METER:17;
#RADARVALUES:0.855217,1.169669,0.787988,0.196997,0.010944,547.000000,475.000000,72.000000,18.000000,0.000000,0.000000,0.000000,0.000000,0.000000,0.855217,1.169669,0.787988,0.196997,0.010944,547.000000,475.000000,72.000000,18.000000,0.000000,0.000000,0.000000,0.000000,0.000000;
#CREDIT:;
#OFFSET:-1.361000;
#BPMS:0.000000=360.000000
,193.000000=120.000000
,194.000000=360.000000
,258.000000=180.000000
,290.000000=360.000000
,318.000000=180.000000
,320.000000=360.000000
,348.000000=180.000000
,350.000000=360.000000
,414.000000=180.000000
,422.000000=360.000000
,438.000000=180.000000
,442.000000=360.000000
,466.000000=180.000000
;
#STOPS:;
#DELAYS:;
#WARPS:;
#TIMESIGNATURES:0.000000=4=4
;
#TICKCOUNTS:0.000000=4
;
#COMBOS:0.000000=1
;
#SPEEDS:0.000000=1.000000=0.000000=0
;
#SCROLLS:0.000000=1.000000
;
#FAKES:;
#LABELS:0.000000=Song Start
;
#DISPLAYBPM:180.000000;
#NOTES:
// measure 0
0000
0000
0000
0000
,  // measure 1
0000
0000
0000
0000
,  // measure 2
0000
0000
0000
0000
,  // measure 3
0000
0000
0000
0000
,  // measure 4
0000
0000
0000
0000
,  // measure 5
0000
0000
0000
0000
,  // measure 6
0000
0000
0000
0000
,  // measure 7
0000
0000
0000
0000
,  // measure 8
0000
0000
0000
0000
,  // measure 9
0110
0000
0000
0000
,  // measure 10
0110
0000
0000
0000
,  // measure 11
0110
0000
0000
0000
,  // measure 12
0110
0000
0000
0000
,  // measure 13
0110
0000
0000
0000
,  // measure 14
0000
0000
1001
0000
,  // measure 15
0110
0000
1001
0000
,  // measure 16
0010
0100
0001
1000
,  // measure 17
1100
0001
0100
0010
,  // measure 18
1001
0100
0001
0010
,  // measure 19
0110
0001
0100
1000
,  // measure 20
1001
0010
0100
1000
,  // measure 21
1010
0100
0010
0001
,  // measure 22
1000
0001
1000
0001
1000
0001
1000
0001
,  // measure 23
0100
0010
0100
0010
0100
0010
0100
0010
,  // measure 24
0110
0010
0001
0100
,  // measure 25
0110
0001
0010
1000
,  // measure 26
0101
0100
1000
0010
,  // measure 27
0011
1000
0100
0001
,  // measure 28
0020
0100
1030
0100
,  // measure 29
0002
0010
0103
0001
,  // measure 30
2000
0010
0001
0010
0001
0010
0001
0010
,  // measure 31
3002
0010
0100
1000
0100
0010
0100
1000
,  // measure 32
0103
1000
0001
0100
,  // measure 33
0011
0010
1000
0001
,  // measure 34
0100
0001
0100
1000
,  // measure 35
0010
0100
1000
0100
,  // measure 36
0001
0010
1000
0001
,  // measure 37
0110
0001
1000
0001
,  // measure 38
0100
0000
0010
0000
0001
0100
0001
0100
,  // measure 39
0010
1000
0010
1000
0100
0010
0100
0010
,  // measure 40
1000
0010
0001
0001
,  // measure 41
1001
0100
0001
1000
,  // measure 42
0010
0100
1000
0100
,  // measure 43
0001
1000
0001
0100
,  // measure 44
0110
1000
0001
1000
,  // measure 45
0101
0010
0100
0010
,  // measure 46
1010
0010
1010
0010
,  // measure 47
0101
0100
0101
0100
,  // measure 48
0000
0020
0130
1000
,  // measure 49
0001
0000
0010
0100
0001
0100
0010
0000
,  // measure 50
0010
0000
0100
0010
0001
0010
1000
0000
,  // measure 51
0001
1000
0110
0100
,  // measure 52
0110
0010
0001
0010
,  // measure 53
0100
0000
1000
0001
0100
0010
1000
0001
,  // measure 54
0100
0010
1000
0011
,  // measure 55
1000
0011
1000
0110
,  // measure 56
0000
0110
0010
1100
,  // measure 57
0001
0000
1000
0100
0010
0001
0010
0000
,  // measure 58
0001
0000
0100
0000
0010
0000
0001
0010
,  // measure 59
0100
0010
1000
0000
0011
0000
0010
0000
,  // measure 60
0011
0001
1000
0100
,  // measure 61
1000
0010
0001
1000
0100
1000
0001
0000
,  // measure 62
1000
0000
0010
0000
0100
0000
1000
0001
,  // measure 63
0100
0010
0001
0000
0000
0000
0011
0000
,  // measure 64
1100
0000
1100
0000
0100
0001
0000
0010
,  // measure 65
1000
0000
0010
0200
0001
0300
0100
0000
,  // measure 66
0010
2000
0001
3010
0100
0000
0010
0001
,  // measure 67
0000
0001
0100
0000
0110
0000
0110
0000
,  // measure 68
1001
0000
0000
0000
0100
0002
0000
0103
,  // measure 69
0010
0000
1000
0000
0001
0020
0100
0030
,  // measure 70
1000
0001
0000
0001
0010
1000
0001
0100
,  // measure 71
0001
0000
1000
0000
0010
0000
0000
0000
1000
0000
0000
0100
0000
0000
0010
0000
,  // measure 72
0001
0000
0000
1000
0000
0000
0010
0000
1000
0000
0000
0000
0100
0000
0000
0000
,  // measure 73
0001
1000
0001
0100
,  // measure 74
0010
0001
1000
0001
,  // measure 75
0100
1000
0010
0100
,  // measure 76
0010
0100
0001
1010
,  // measure 77
0001
1001
0100
0110
,  // measure 78
0100
0110
0001
1010
,  // measure 79
0001
1100
0011
0011
,  // measure 80
0001
1000
0001
0100
,  // measure 81
1000
0100
0001
0100
,  // measure 82
0010
1000
0001
0100
,  // measure 83
0001
1000
0100
0001
,  // measure 84
0010
1000
0001
1100
,  // measure 85
0100
0101
0010
1100
,  // measure 86
0001
1010
1000
0101
,  // measure 87
1001
1001
0100
1000
,  // measure 88
0001
0100
0001
0100
,  // measure 89
1000
0010
1000
0100
,  // measure 90
0001
0010
0011
0100
,  // measure 91
0001
1000
0101
0110
,  // measure 92
1010
0110
0011
1100
,  // measure 93
0001
0100
0001
1000
,  // measure 94
0001
0100
1002
0000
,  // measure 95
1000
0100
0103
0001
,  // measure 96
0100
1000
0100
0010
,  // measure 97
1000
0001
0100
0001
,  // measure 98
1000
0001
0101
0110
,  // measure 99
1100
1001
1001
0101
,  // measure 100
0110
1000
0100
0010
,  // measure 101
1000
0001
0100
0001
,  // measure 102
1000
0000
0100
0000
0010
1000
0010
1000
,  // measure 103
0010
0000
0001
0000
1000
0100
0000
0100
,  // measure 104
0001
0000
0010
0000
0001
0100
1000
0100
,  // measure 105
0002
0010
2003
0010
3100
0000
0001
0000
,  // measure 106
1000
0000
0001
1000
0010
0001
0100
0000
,  // measure 107
0010
1000
0100
0001
,  // measure 108
1000
0000
0001
1000
0010
0001
0100
0000
,  // measure 109
0010
1000
0200
2300
,  // measure 110
3002
0023
1030
0100
,  // measure 111
0010
0000
0100
0010
1000
0100
0001
0000
,  // measure 112
1000
0010
0001
0100
,  // measure 113
0010
0000
0100
0010
1000
0100
0001
0000
,  // measure 114
1000
0010
0001
0100
,  // measure 115
1000
0000
0010
0001
0100
1000
0010
0100
,  // measure 116
1000
0000
0001
0000
0000
2002
0000
0000
,  // measure 117
0000
0000
0000
0000
,  // measure 118
0000
0000
0000
3003
;
