#VERSION:0.83;
#TITLE:TRIP MACHINE (xac nanoglide mix);
#SUBTITLE:;
#ARTIST:DE-SIRE;
#TITLETRANSLIT:;
#SUBTITLETRANSLIT:;
#ARTISTTRANSLIT:;
#GENRE:;
#ORIGIN:;
#CREDIT:;
#BANNER:TRIP MACHINE (xac nanoglide mix).png;
#BACKGROUND:TRIP MACHINE (xac nanoglide mix)-bg.png;
#PREVIEWVID:;
#JACKET:TRIP MACHINE (xac nanoglide mix)-jacket.png;
#CDIMAGE:;
#DISCIMAGE:;
#LYRICSPATH:;
#CDTITLE:;
#MUSIC:TRIP MACHINE (xac nanoglide mix) long version.ogg;
#OFFSET:1.055000;
#SAMPLESTART:11.646000;
#SAMPLELENGTH:15.000000;
#SELECTABLE:YES;
#DISPLAYBPM:170.000000;
#BPMS:0.000=170.616,
4.000=169.994;
#STOPS:;
#DELAYS:;
#WARPS:;
#TIMESIGNATURES:0.000=4=4;
#TICKCOUNTS:0.000=4;
#COMBOS:0.000=1;
#SPEEDS:0.000=1.000=0.000=0;
#SCROLLS:0.000=1.000;
#FAKES:;
#LABELS:0.000=Sync,
4.000=Intro,
36.000=Phase 1,
100.000=Phase 2,
164.000=Phase 3,
228.000=Break,
244.000=Chorus,
372.000=Get start in,
388.000=Phase 4,
460.000=Post-Ending,
492.000=Ending;
#BGCHANGES:;
#KEYSOUNDS:;
#ATTACKS:
;

//---------------dance-single - ----------------
#NOTEDATA:;
#CHARTNAME:;
#STEPSTYPE:dance-single;
#DESCRIPTION:;
#CHARTSTYLE:;
#DIFFICULTY:Hard;
#METER:16;
#RADARVALUES:0.807206,0.909264,0.390750,0.406174,0.560417,1099.000000,1023.000000,76.000000,79.000000,0.000000,0.000000,0.000000,0.000000,0.000000,0.807206,0.909264,0.390750,0.406174,0.560417,1099.000000,1023.000000,76.000000,79.000000,0.000000,0.000000,0.000000,0.000000,0.000000;
#CREDIT:;
#DISPLAYBPM:170.000000;
#NOTES:
// measure 0
0000
0000
0000
0000
,  // measure 1
0000
0000
0000
0000
,  // measure 2
0000
0000
0000
0000
,  // measure 3
0000
0000
0000
0000
,  // measure 4
0000
0000
0000
0000
,  // measure 5
0000
0000
0000
0000
,  // measure 6
0000
0000
0000
0000
,  // measure 7
2002
0000
0000
3003
,  // measure 8
0100
0000
0001
1000
0000
0100
0010
0000
,  // measure 9
1000
0000
0001
0200
0010
0000
0000
0302
1000
0000
0013
0000
0000
0000
1000
0200
,  // measure 10
0000
0000
0310
0001
0000
0000
0010
2000
0001
0000
3100
0010
0001
0000
0000
0000
,  // measure 11
0100
0000
0010
0200
0001
0000
0000
0320
1000
0000
0130
0000
0001
0000
0010
0000
,  // measure 12
0001
0000
1000
0010
0000
0000
1000
0100
0000
0000
0001
0100
0010
0001
0100
0000
,  // measure 13
0010
0000
1000
0020
0100
0000
0000
2030
0100
0000
3001
0000
0000
0000
1000
0020
,  // measure 14
0000
0000
0130
0001
0000
0000
0100
0002
1000
0000
0013
0100
1000
0000
0001
0000
,  // measure 15
1000
0000
0100
0020
0001
0000
0000
0230
1000
0000
0310
0000
0100
0000
0010
0000
,  // measure 16
0000
0000
0100
2000
0010
0000
3001
0000
0010
0000
1000
0010
0100
1000
0010
0000
,  // measure 17
0110
0000
0000
1000
0020
0000
0000
0000
2030
0000
0100
0000
3020
0000
0100
0000
,  // measure 18
1030
0000
0001
0020
0000
0000
0130
0001
0000
0000
1000
0010
0100
1000
0010
0000
,  // measure 19
0100
0000
0001
1000
0200
0000
0000
0310
0002
0000
0010
0000
0103
0000
0010
0000
,  // measure 20
1000
0000
0001
0020
0000
0000
0130
0001
0000
0000
0001
0100
0010
0001
0100
0000
,  // measure 21
0010
0000
0000
1000
0020
0000
0000
0130
0002
0000
0100
0000
0023
0000
0100
0000
,  // measure 22
0031
0000
1000
0100
0000
0000
0001
0010
1000
0000
0001
0100
0010
0001
0100
0000
,  // measure 23
0010
0000
1000
0001
0200
0000
0000
0310
2000
0000
0010
0000
3100
0000
0010
0000
,  // measure 24
1001
0000
0000
0101
0000
0000
1010
0000
0000
0110
0000
0000
1100
0000
0101
0000
,  // measure 25
1000
0000
0000
0000
0010
0100
0000
0100
1000
0000
0010
0100
0001
0000
0001
0010
,  // measure 26
1000
0000
0010
0001
0100
0000
0100
0010
1000
0000
1000
0100
0001
0000
0001
0100
,  // measure 27
1000
0001
0010
0001
0100
1000
0010
0100
,  // measure 28
0000
0000
0000
0011
0000
0000
0000
0000
0000
1000
0000
0000
0010
0000
0100
0000
1000
0000
0010
0000
0100
0000
0001
0000
,  // measure 29
0100
0000
0000
0000
0010
1000
0000
0010
0001
0000
0010
0100
1000
0000
1000
0100
,  // measure 30
0001
0000
0100
0010
1000
0000
0001
0100
0010
0000
0010
1000
0100
0000
0001
0100
,  // measure 31
1000
0010
0001
1000
0010
0001
0100
0010
,  // measure 32
1000
0000
0000
0001
0000
0000
0100
0000
0000
0001
0000
0000
1000
0000
0010
0000
1000
0000
0010
0000
0100
0000
0001
0000
,  // measure 33
0220
0000
0000
0000
0330
0001
0000
0001
0010
0000
1000
0001
0100
0000
0100
1000
,  // measure 34
0010
0000
1000
0100
0001
0000
0001
1000
0010
0000
0010
0001
0100
0000
0100
0001
,  // measure 35
0010
0100
1000
0100
0001
0010
1000
0001
,  // measure 36
0000
0000
0000
1100
0000
0000
0000
0000
0000
0010
0000
0000
1000
0000
0001
0000
0010
0000
1000
0000
0001
0000
0100
0000
,  // measure 37
0000
0000
0000
0000
0000
0000
0000
0000
1000
0000
0000
1000
0000
0000
1000
0001
,  // measure 38
1000
0000
0000
0000
0100
0000
0000
0000
0001
0010
0001
0100
0001
0010
0100
1000
,  // measure 39
0010
0000
0100
0000
0001
0000
1000
0010
0001
0000
0010
0000
0001
0100
1000
0000
,  // measure 40
1100
0000
0000
0110
0000
0000
0011
0000
0100
0000
0010
1000
0001
0010
0001
0010
,  // measure 41
0100
0000
1000
0000
0020
0000
0100
0000
1030
0000
0010
0000
0100
0000
1000
0100
,  // measure 42
0010
0000
0000
0110
0001
0010
0200
0001
,  // measure 43
0310
0000
0100
0010
1000
0000
0100
0010
0001
0000
0010
0000
0000
0000
0001
0000
,  // measure 44
0110
1000
1000
1000
1000
1000
0010
0100
,  // measure 45
0001
0000
1000
0010
0000
0100
1000
0000
0010
0000
0100
0001
1000
0000
0010
0100
,  // measure 46
0001
0000
0100
0000
0000
0000
0110
0000
1000
0000
0001
0000
1000
0100
0010
0001
,  // measure 47
0120
0000
1030
0001
0020
0000
0031
1000
0020
0000
0130
0001
0020
0000
0130
1000
,  // measure 48
0001
0010
0100
0001
0010
1000
0001
0010
,  // measure 49
1001
0000
0000
0010
0100
0000
0011
0000
0000
0010
0100
0000
2010
0000
3001
0010
,  // measure 50
0100
0000
0000
0000
0010
0000
0001
0100
0010
0000
0100
0000
0001
0010
0100
0000
,  // measure 51
1100
0000
0000
1000
0001
0000
0011
0000
0000
0100
1000
0000
0100
0010
0001
0100
,  // measure 52
0020
0000
1000
0000
0130
0000
0002
0000
0100
0000
0013
0000
0100
1000
0001
0000
,  // measure 53
1001
0000
0000
0001
0100
0000
1010
0000
0000
1000
0100
0000
0011
0000
1000
0000
,  // measure 54
0010
0000
1100
0000
0000
0000
0011
0000
1000
0000
0100
0010
0100
1000
0010
0001
,  // measure 55
0200
0000
0301
1000
0200
0000
1300
0001
0200
0000
0310
1000
0200
0000
0310
0001
,  // measure 56
1000
0000
0100
0010
0000
0001
1000
0000
0110
0000
0001
1000
0010
0100
0001
0010
,  // measure 57
0200
0010
0302
0010
,  // measure 58
2003
0010
3200
0010
,  // measure 59
2300
0100
3020
0100
,  // measure 60
0032
0000
0000
0000
0000
0000
0000
0000
0000
0000
0000
0000
0000
0000
0000
0000
0000
0000
0000
0000
0000
0000
0000
0000
0000
0000
0000
0000
0000
0000
0000
0000
0000
0000
0000
0000
0000
0000
0000
0000
0000
0000
0000
0000
0000
0000
0000
0000
0100
0000
0000
0000
0000
0000
0000
0000
0000
0000
0000
0000
0000
0000
0000
0000
0000
0000
0000
0000
0000
0000
0000
0000
0000
0000
0000
0000
0000
0000
0000
0000
0000
0000
0000
0000
0000
0000
0000
0000
0000
0000
0000
0000
0000
0000
0000
0000
0023
0000
0000
0000
0000
0000
0000
0000
0000
0000
0000
0000
0000
0000
0000
0000
0000
0000
0000
0000
0000
0000
0000
0000
0000
0000
0000
0000
0000
0000
0000
0000
0000
0000
0000
0000
0000
0000
0000
0000
0000
0000
0000
0000
0000
0000
0000
0000
0100
0000
0000
0000
0000
0000
0000
0000
0000
0000
0000
0000
0000
0000
0000
0000
0000
0000
0000
0000
0000
0000
0000
0000
0000
0000
0000
0000
0000
0000
0000
0000
0000
0000
0000
0000
0000
0000
0000
0000
0000
0000
0000
0000
0000
0000
0000
0030
,  // measure 61
0200
0001
0310
2000
0100
3001
0020
0001
,  // measure 62
0130
2000
0001
3010
0200
0001
0310
1000
,  // measure 63
0002
0100
1003
0200
0010
1300
0002
0010
,  // measure 64
0103
0000
0020
0000
1000
0000
0130
0000
0002
0000
0100
0000
1003
0100
0010
0001
,  // measure 65
1100
1000
0001
0000
0001
1000
0000
0100
,  // measure 66
0010
0000
0010
0100
0000
0001
1000
0100
,  // measure 67
0011
0001
1000
0000
1000
0010
0000
0010
,  // measure 68
0100
0000
0100
0001
0000
0001
1000
0010
,  // measure 69
0101
0100
1000
0000
1000
0001
0000
0001
,  // measure 70
0100
0000
0100
0010
0000
0010
1000
0001
,  // measure 71
1010
1000
0100
0000
0100
0001
0000
0001
,  // measure 72
0010
0000
1000
0000
0001
0000
0100
0000
0010
1000
0010
1000
0010
0100
0010
0100
,  // measure 73
1001
0000
0010
1000
0010
0100
0010
0000
,  // measure 74
1100
0000
0001
0100
0010
0100
1000
0100
,  // measure 75
0011
0000
1000
0100
0010
0100
0001
0000
,  // measure 76
1010
0000
0100
1000
0100
0010
0100
0000
,  // measure 77
0101
0000
0010
0100
0010
1000
0100
0000
,  // measure 78
0101
0000
0001
0100
0001
1000
0010
0000
,  // measure 79
1010
0000
0100
0000
0001
0100
1000
0000
0100
0000
1000
0010
0100
0000
0001
0000
,  // measure 80
0010
1000
0001
0000
0100
0000
0010
0100
1000
0001
1000
0001
1000
0100
1000
0100
,  // measure 81
1001
0100
0100
1000
0010
1000
0100
0001
,  // measure 82
1100
0001
0100
1000
0010
0100
0001
1000
,  // measure 83
0101
1000
0010
1000
0001
1000
0001
0100
,  // measure 84
1001
0100
0010
1000
0010
0100
1000
1000
,  // measure 85
0110
0001
1000
0001
0100
1000
0100
0001
,  // measure 86
1100
0010
0001
1000
0001
0100
1000
0100
,  // measure 87
0101
0010
1000
0001
0100
0001
1000
0100
,  // measure 88
0102
0010
1000
0100
1000
0010
0100
0010
,  // measure 89
1003
0100
0010
0001
0100
1000
0100
1000
,  // measure 90
0110
1000
0001
0100
0001
1000
0100
0001
,  // measure 91
1100
0010
0001
1000
0001
0100
1000
0100
,  // measure 92
0101
0010
1000
0100
0001
1000
0001
0100
,  // measure 93
1100
0000
0000
0000
0101
0000
0010
0000
1001
0000
0000
0000
0000
0000
0001
0100
,  // measure 94
0010
0000
0000
0000
1001
0000
0010
0000
0000
0000
0100
1000
0001
0000
0000
0000
,  // measure 95
0200
0000
0000
0000
0010
0000
0300
0010
0200
0000
0010
0000
0000
0000
0310
0000
,  // measure 96
1000
0000
0010
0100
0001
0000
0100
0010
1000
0100
0010
0001
0100
0000
0000
0000
,  // measure 97
0110
0000
1000
0000
0010
0000
0100
0010
1000
0000
0100
0000
0010
0000
1000
0010
,  // measure 98
0001
0000
0000
0001
0010
0010
0001
1000
,  // measure 99
1001
0000
0000
0100
0010
0000
1100
0000
0000
0100
0010
0000
0102
0000
1003
0000
,  // measure 100
0100
0000
0010
0001
0010
0000
0100
0000
0010
0100
1000
0000
1000
0100
0010
0000
,  // measure 101
0011
0000
0000
0001
1000
0000
1100
0000
0000
0010
0001
0000
0010
0100
1000
0010
,  // measure 102
0200
0000
0001
0000
0310
0000
2000
0000
0010
0000
3100
0000
0010
0001
1000
0000
,  // measure 103
1001
0000
0000
1000
0010
0000
0101
0000
0000
0001
0010
0000
1100
0000
0001
0000
,  // measure 104
0100
0010
0010
1000
0001
0010
0100
1000
,  // measure 105
0120
0000
1030
0001
0020
0000
0031
1000
0020
0000
0130
0001
0020
0000
0130
1000
,  // measure 106
0001
0010
0100
0001
0010
1000
0001
0010
,  // measure 107
1001
0000
0000
0010
0100
0000
0011
0000
0000
0010
0100
0000
2010
0000
3001
0010
,  // measure 108
0100
0000
0000
0000
0010
0000
0001
0100
0010
0000
0100
0000
0001
0010
0100
0000
,  // measure 109
1100
0000
0000
1000
0001
0000
0011
0000
0000
0100
1000
0000
0100
0010
0001
0100
,  // measure 110
0020
0000
1000
0000
0130
0000
0002
0000
0100
0000
0013
0000
0100
1000
0001
0000
,  // measure 111
1001
0000
0000
0001
0100
0000
1010
0000
0000
1000
0100
0000
0011
0000
1000
0000
,  // measure 112
0010
0000
1100
0000
0000
0000
0011
0000
1000
0000
0100
0010
0100
1000
0010
0001
,  // measure 113
0200
0000
0301
1000
0200
0000
1300
0001
0200
0000
0310
1000
0200
0000
0310
0001
,  // measure 114
1000
0000
0100
0010
0000
0001
1000
0000
0110
0000
0001
1000
0010
0100
0001
0010
,  // measure 115
0100
0000
1000
0000
0001
0010
1000
0000
0010
0100
1000
0000
0100
0001
0010
0000
,  // measure 116
1000
0001
0100
0000
0010
0100
0010
0000
1000
0100
1000
0000
0001
0000
0100
0000
,  // measure 117
0010
0100
1000
0001
0010
0001
0100
1000
,  // measure 118
0100
0010
1000
0100
0001
1000
0001
1000
,  // measure 119
0001
0000
0010
0000
0100
0001
0100
0000
0010
1000
0010
0000
0100
1000
0100
0000
,  // measure 120
0010
0001
0100
0000
0010
1000
0100
0000
0001
1000
0100
0000
0010
0000
1000
0000
,  // measure 121
0100
0001
0100
0010
1000
0100
0001
1000
,  // measure 122
0001
1000
0001
1000
0010
0100
0010
1000
,  // measure 123
0100
0000
0000
0000
0010
0001
0000
0100
1000
0000
0010
1000
0001
0000
0001
0010
,  // measure 124
1000
0000
0010
0001
1000
0000
1000
0010
0001
0000
1000
0100
0002
0000
0000
0000
,  // measure 125
0000
0000
0000
0003
,  // measure 126
0000
0000
0000
0000
,  // measure 127
0000
0000
0000
0000
1000
0001
0000
0100
0010
0000
1000
0010
0001
0000
0001
1000
,  // measure 128
0010
0000
1000
0001
0010
0000
0010
1000
0001
0000
0010
0100
2000
0000
0000
0000
,  // measure 129
0000
0000
0000
0000
,  // measure 130
0000
0000
0000
0000
,  // measure 131
3000
0000
0000
0000
;

//---------------dance-single - ----------------
#NOTEDATA:;
#CHARTNAME:;
#STEPSTYPE:dance-single;
#DESCRIPTION:;
#CHARTSTYLE:;
#DIFFICULTY:Beginner;
#METER:4;
#RADARVALUES:0.159385,0.252959,0.015424,0.010283,0.000000,217.000000,214.000000,3.000000,2.000000,0.000000,0.000000,0.000000,0.000000,0.000000,0.159385,0.252959,0.015424,0.010283,0.000000,217.000000,214.000000,3.000000,2.000000,0.000000,0.000000,0.000000,0.000000,0.000000;
#CREDIT:;
#DISPLAYBPM:170.000000;
#NOTES:
// measure 0
0000
0000
0000
0000
,  // measure 1
0000
0000
0000
0000
,  // measure 2
0000
0000
0000
0000
,  // measure 3
0000
0000
0000
0000
,  // measure 4
0000
0000
0000
0000
,  // measure 5
0000
0000
0000
0000
,  // measure 6
0000
0000
0000
0000
,  // measure 7
0000
0000
0000
0000
,  // measure 8
0000
0000
0000
0000
,  // measure 9
1000
0000
1000
0000
,  // measure 10
1000
0100
1000
0000
,  // measure 11
0001
0000
0001
0000
,  // measure 12
0001
0100
0001
0000
,  // measure 13
0100
0000
0100
0000
,  // measure 14
0100
0001
0100
0000
,  // measure 15
0010
0000
0010
0000
,  // measure 16
0010
1000
0010
0000
,  // measure 17
1000
0000
0001
0000
,  // measure 18
1000
0001
1000
0000
,  // measure 19
0010
0000
0100
0000
,  // measure 20
0010
0100
0010
0000
,  // measure 21
1000
0000
0100
0000
,  // measure 22
0001
0100
0001
0000
,  // measure 23
0001
0000
0100
0000
,  // measure 24
0010
0000
0000
0000
,  // measure 25
0100
0000
0100
0000
,  // measure 26
0100
0000
0000
0000
,  // measure 27
0001
0000
0001
0000
,  // measure 28
0001
0001
0001
0000
,  // measure 29
0100
0000
0100
0000
,  // measure 30
0100
0000
0000
0000
,  // measure 31
1000
0000
1000
0000
,  // measure 32
0010
0000
0010
0000
,  // measure 33
0200
1300
0000
1000
,  // measure 34
0000
1000
0000
0000
,  // measure 35
0001
0000
0001
0000
,  // measure 36
0001
0000
0000
0000
,  // measure 37
0010
0000
0010
0010
,  // measure 38
0010
0000
0100
0000
,  // measure 39
0001
0000
0010
0000
,  // measure 40
1000
1000
1000
0000
,  // measure 41
0010
0010
0000
0000
,  // measure 42
1000
0000
0001
0001
,  // measure 43
0100
0100
0000
0000
,  // measure 44
0010
0000
0000
0000
,  // measure 45
0100
0100
0000
0000
,  // measure 46
0001
0000
1000
0000
,  // measure 47
0010
0010
0010
0010
,  // measure 48
0100
0000
0100
0000
,  // measure 49
1000
0000
0000
0000
,  // measure 50
0001
0000
0100
0000
,  // measure 51
0010
0000
0000
0000
,  // measure 52
1000
1000
1000
0000
,  // measure 53
0100
0000
0001
0000
,  // measure 54
0001
0000
0100
0000
,  // measure 55
0010
0010
0000
0000
,  // measure 56
0100
0000
0100
0000
,  // measure 57
0010
0000
0000
0000
,  // measure 58
1000
0000
0000
0000
,  // measure 59
0100
0000
0000
0000
,  // measure 60
0001
0000
0000
0000
,  // measure 61
0010
0000
0000
0000
,  // measure 62
0001
0000
0000
0000
,  // measure 63
0100
0000
0000
0000
,  // measure 64
1000
0000
0000
0000
,  // measure 65
1001
0000
0000
0000
,  // measure 66
0001
0000
0000
0000
,  // measure 67
1000
0000
0000
0000
,  // measure 68
0001
0000
0000
0000
,  // measure 69
0100
0000
0000
0000
,  // measure 70
0001
0000
0000
0000
,  // measure 71
1000
0000
0000
0000
,  // measure 72
0100
0000
0100
0000
,  // measure 73
0010
0000
0100
0000
,  // measure 74
0001
0000
0000
0000
,  // measure 75
0010
0000
0100
0000
,  // measure 76
1000
0000
0000
0000
,  // measure 77
0001
0000
0100
0000
,  // measure 78
1000
0000
0000
0000
,  // measure 79
0010
0000
0100
0000
,  // measure 80
0010
0000
0000
0000
,  // measure 81
0010
0000
1000
0000
,  // measure 82
0001
0000
0000
0000
,  // measure 83
0100
0000
0001
0000
,  // measure 84
1000
0000
0000
0000
,  // measure 85
0001
0000
0010
0000
,  // measure 86
1000
0000
0000
0000
,  // measure 87
0100
0000
1000
0000
,  // measure 88
0020
0000
0000
0000
,  // measure 89
0030
0000
0100
0000
,  // measure 90
0001
0000
0000
0000
,  // measure 91
1000
0000
0100
0000
,  // measure 92
1000
0000
0000
0000
,  // measure 93
0010
0010
0010
0000
,  // measure 94
0100
0000
0000
0000
,  // measure 95
0001
0000
1000
0000
,  // measure 96
0001
1000
0001
1000
,  // measure 97
0001
0000
0000
0000
,  // measure 98
0100
0000
0000
0000
,  // measure 99
1000
0000
1000
0000
,  // measure 100
0001
0001
0100
0000
,  // measure 101
0001
0000
0001
0000
,  // measure 102
1000
1000
0100
0000
,  // measure 103
1000
0000
0010
0000
,  // measure 104
0001
0000
0000
0000
,  // measure 105
0010
0000
1000
0000
,  // measure 106
0010
0000
0000
0000
,  // measure 107
0010
0000
0001
0000
,  // measure 108
1000
1000
0100
0000
,  // measure 109
0010
0000
1000
0000
,  // measure 110
0001
0001
0100
0000
,  // measure 111
0010
0000
0100
0000
,  // measure 112
1000
0000
0001
0000
,  // measure 113
0010
0010
0010
0000
,  // measure 114
1000
0001
1000
0000
,  // measure 115
0101
0000
0100
0000
,  // measure 116
0010
0000
0001
0000
,  // measure 117
1000
0000
0001
0000
,  // measure 118
0100
0000
0001
0000
,  // measure 119
0010
0000
1000
0000
,  // measure 120
0100
0000
0001
0000
,  // measure 121
1000
0000
0010
0000
,  // measure 122
0001
0000
0100
0000
,  // measure 123
1001
0000
0000
0000
;

//---------------dance-single - ----------------
#NOTEDATA:;
#CHARTNAME:;
#STEPSTYPE:dance-single;
#DESCRIPTION:;
#CHARTSTYLE:;
#DIFFICULTY:Easy;
#METER:8;
#RADARVALUES:0.313628,0.440300,0.149102,0.133677,0.000000,427.000000,398.000000,29.000000,26.000000,0.000000,0.000000,0.000000,0.000000,0.000000,0.313628,0.440300,0.149102,0.133677,0.000000,427.000000,398.000000,29.000000,26.000000,0.000000,0.000000,0.000000,0.000000,0.000000;
#CREDIT:;
#DISPLAYBPM:170.000000;
#NOTES:
// measure 0
0000
0000
0000
0000
,  // measure 1
0000
0000
0000
0000
,  // measure 2
0000
0000
0000
0000
,  // measure 3
0000
0000
0000
0000
,  // measure 4
0000
0000
0000
0000
,  // measure 5
0000
0000
0000
0000
,  // measure 6
0000
0000
0000
0000
,  // measure 7
0200
0000
0000
0300
,  // measure 8
0010
0000
0000
0110
,  // measure 9
0001
0101
0000
0010
,  // measure 10
0000
0001
0000
0001
0000
0001
0000
0000
,  // measure 11
0100
1100
0000
0010
,  // measure 12
0000
1000
0000
1000
0000
1000
0000
0000
,  // measure 13
0010
1010
0000
0100
,  // measure 14
0000
0010
0000
0010
0000
0010
0000
0000
,  // measure 15
0100
0101
0000
1000
,  // measure 16
0000
0010
0000
0010
0000
0010
0000
0000
,  // measure 17
1000
0200
0000
0310
,  // measure 18
0000
0001
0000
0010
0000
0001
0000
0000
,  // measure 19
1000
0020
0000
0130
,  // measure 20
0000
0001
0000
1000
0000
0001
0000
0000
,  // measure 21
0100
0020
0000
1030
,  // measure 22
0000
0100
0000
0010
0000
0100
0000
0000
,  // measure 23
0010
0002
0000
1003
,  // measure 24
0001
0000
0000
0010
0000
0000
0100
0000
,  // measure 25
0110
0001
0010
1000
,  // measure 26
0100
0001
0010
1000
,  // measure 27
0001
0100
0000
0100
,  // measure 28
0010
0100
0000
0100
,  // measure 29
1010
0001
0100
1000
,  // measure 30
0010
0001
0100
1000
,  // measure 31
0001
0100
0000
0100
,  // measure 32
0000
0010
0000
0010
,  // measure 33
0200
0301
1000
0001
,  // measure 34
1000
0100
0001
0010
,  // measure 35
1000
0000
1000
0100
,  // measure 36
0001
0000
0001
0001
,  // measure 37
1000
0000
0100
0100
,  // measure 38
0010
0000
1000
1000
,  // measure 39
0001
0000
0010
0000
,  // measure 40
0100
0000
0000
0010
0000
0000
0110
0000
,  // measure 41
1000
0000
0020
0000
0000
0130
0001
0000
,  // measure 42
0101
0000
1000
0001
,  // measure 43
0010
0000
0200
0000
0000
1300
0001
0000
,  // measure 44
0100
0000
0000
0010
0000
0100
0000
0010
,  // measure 45
1000
1001
0100
0010
,  // measure 46
2000
0000
3100
0010
,  // measure 47
0000
1000
0000
0001
0000
1000
0000
0010
,  // measure 48
0100
0001
1000
0000
,  // measure 49
0100
0010
0010
0000
,  // measure 50
1000
0000
0001
0001
,  // measure 51
1000
0000
0100
0001
,  // measure 52
0020
0000
0130
0000
,  // measure 53
0100
0100
0100
0000
,  // measure 54
1000
1000
1000
0000
,  // measure 55
0001
0010
1000
0001
,  // measure 56
0011
1001
1100
0000
,  // measure 57
0200
0300
0020
0030
,  // measure 58
0200
0300
0020
0030
,  // measure 59
2000
3000
0200
0300
,  // measure 60
0020
0030
0002
0003
,  // measure 61
0100
0001
0010
1000
,  // measure 62
0100
1000
0010
0001
,  // measure 63
0100
0001
0010
1000
,  // measure 64
0100
0010
0000
0010
,  // measure 65
1010
0000
1000
0010
,  // measure 66
0001
0100
0001
0010
,  // measure 67
1000
0001
0100
1000
,  // measure 68
0010
0100
1000
0001
,  // measure 69
1000
0001
0100
0001
,  // measure 70
0010
1000
0001
0100
,  // measure 71
0001
0100
0001
0100
,  // measure 72
1000
0000
1000
0000
,  // measure 73
1001
0000
0100
0000
0000
1000
0100
0000
,  // measure 74
0010
0000
0100
0000
0000
0001
0100
0000
,  // measure 75
0010
0000
0100
0000
0000
1000
0100
0000
,  // measure 76
0010
0001
0100
1000
,  // measure 77
0010
0000
0100
0000
0000
0001
1000
0000
,  // measure 78
0100
0000
0001
0000
0000
0010
0100
0000
,  // measure 79
1000
1000
0001
0001
,  // measure 80
0010
0010
0010
0010
,  // measure 81
1010
0000
1000
0000
0000
0001
0100
0000
,  // measure 82
0010
0000
1000
0000
0000
0010
1000
0000
,  // measure 83
0100
0000
0001
0000
0000
0100
1000
0000
,  // measure 84
0001
0000
0100
0000
0000
0001
1000
0000
,  // measure 85
0001
0000
0100
0000
0000
1000
0010
0000
,  // measure 86
0100
0000
0010
0000
0000
0001
1000
0000
,  // measure 87
0100
0000
1000
0000
0000
0100
0010
0000
,  // measure 88
0002
0000
0000
0000
0000
1003
0100
0000
,  // measure 89
0010
0000
0001
0000
0000
0100
1000
0000
,  // measure 90
0100
0000
0010
0000
0000
0001
0100
0000
,  // measure 91
1000
0000
0100
0000
0000
1000
0010
0000
,  // measure 92
0001
0000
0010
0000
0000
0100
1000
0000
,  // measure 93
0020
0001
1030
0000
,  // measure 94
1001
0000
0010
0000
,  // measure 95
0200
1000
0010
0001
,  // measure 96
0310
1001
0110
1001
,  // measure 97
0100
1001
0000
0000
,  // measure 98
1001
0000
0100
0010
,  // measure 99
1001
0010
0000
0020
,  // measure 100
0000
0000
0000
1000
0000
1030
0001
0000
,  // measure 101
1010
1000
0000
0010
,  // measure 102
0101
1000
0001
1000
,  // measure 103
0001
0100
0000
0100
,  // measure 104
0002
0000
0000
1000
0000
1003
0100
0000
,  // measure 105
0000
1000
0000
0001
0000
1000
0000
0001
,  // measure 106
0100
0000
0001
1000
,  // measure 107
0100
1001
0000
1000
,  // measure 108
0002
0000
0000
0100
0000
0103
0010
0000
,  // measure 109
0100
0010
0000
0100
,  // measure 110
1001
0100
0100
0100
,  // measure 111
0010
1000
1000
0010
,  // measure 112
0002
0000
0000
1000
0000
1003
0010
0000
,  // measure 113
0100
0010
1000
0100
,  // measure 114
0010
0001
0100
0000
,  // measure 115
1100
1000
1000
0100
,  // measure 116
0001
1000
0001
1000
,  // measure 117
0001
0010
1000
0100
,  // measure 118
0001
1000
0001
1000
,  // measure 119
0010
0001
0100
0001
,  // measure 120
1000
0100
1000
0001
,  // measure 121
0100
0010
0001
1000
,  // measure 122
0001
1000
0010
0001
,  // measure 123
0110
0000
1000
0000
,  // measure 124
0010
0000
0001
0200
,  // measure 125
0000
0000
0000
0000
,  // measure 126
0000
0000
0000
0000
,  // measure 127
0000
0000
0000
0000
,  // measure 128
0000
0000
0000
0000
,  // measure 129
0000
0000
0000
0000
,  // measure 130
0000
0000
0000
0000
,  // measure 131
0000
0000
0000
0300
;

//---------------dance-single - ----------------
#NOTEDATA:;
#CHARTNAME:;
#STEPSTYPE:dance-single;
#DESCRIPTION:;
#CHARTSTYLE:;
#DIFFICULTY:Medium;
#METER:12;
#RADARVALUES:0.553072,0.601549,0.293062,0.169668,0.038561,753.000000,696.000000,57.000000,33.000000,0.000000,0.000000,0.000000,0.000000,0.000000,0.553072,0.601549,0.293062,0.169668,0.038561,753.000000,696.000000,57.000000,33.000000,0.000000,0.000000,0.000000,0.000000,0.000000;
#CREDIT:;
#DISPLAYBPM:170.000000;
#NOTES:
// measure 0
0000
0000
0000
0000
,  // measure 1
0000
0000
0000
0000
,  // measure 2
0000
0000
0000
0000
,  // measure 3
0000
0000
0000
0000
,  // measure 4
0000
0000
0000
0000
,  // measure 5
0000
0000
0000
0000
,  // measure 6
0000
0000
0000
0000
,  // measure 7
2002
0000
0000
3003
,  // measure 8
0100
0000
0000
0000
0000
0100
0010
0000
,  // measure 9
1000
0100
0010
0000
0000
0010
0100
0001
,  // measure 10
0100
0010
0001
0100
0001
1000
0100
0000
,  // measure 11
1000
0000
0100
0000
0010
0000
0000
0000
0000
0000
1000
0001
0000
0000
0010
0000
,  // measure 12
0100
1000
0010
0100
1000
0100
0010
0000
,  // measure 13
0010
0000
1000
0000
0001
0000
0000
0000
0000
0000
0010
1000
0000
0000
0001
0000
,  // measure 14
0010
0001
0100
0010
0001
0010
1000
0000
,  // measure 15
0010
0000
1000
0000
0001
0000
0000
0000
0000
0000
0001
0100
0000
0000
1000
0000
,  // measure 16
0001
0010
0001
1000
0100
0010
0001
0000
,  // measure 17
0010
0000
0000
0000
1200
0000
0000
0000
0000
0000
0310
0001
0000
0000
0100
0000
,  // measure 18
0001
1000
0000
0001
1000
0100
0010
0000
,  // measure 19
0001
0000
1000
0000
0020
0000
0000
0000
0000
0000
0130
0001
0000
0000
1000
0000
,  // measure 20
0100
0010
0000
0101
0000
0010
1000
0001
,  // measure 21
1000
0000
0000
0000
0012
0000
0000
0000
0000
0000
1003
0100
0000
0000
0010
0000
,  // measure 22
0001
0100
0000
0010
1000
0100
0010
0000
,  // measure 23
0001
0000
0100
0000
0020
0000
0000
0000
0000
0000
0130
0001
0000
0000
1000
0000
,  // measure 24
1001
0000
0000
0100
0000
0000
0010
0000
0000
1000
0000
0000
0001
0000
0000
0000
,  // measure 25
0110
0000
1000
0100
0001
0010
0001
0100
,  // measure 26
0010
1000
0001
0010
1000
0010
0001
2000
,  // measure 27
0000
3100
0010
0001
0000
0010
0100
0010
,  // measure 28
0000
1100
0000
0001
0100
0010
1000
0001
,  // measure 29
0100
0000
1000
0010
1000
0100
0001
0100
,  // measure 30
0010
0001
1000
0010
0100
0001
0010
0002
,  // measure 31
0000
0103
0010
0100
0000
0001
0010
0100
,  // measure 32
0000
0010
1000
0100
0000
0001
1000
0001
,  // measure 33
0020
0000
0130
1000
0001
1000
0001
1000
,  // measure 34
0010
0001
0100
0001
1000
0010
0100
0001
,  // measure 35
1000
0010
0100
0010
0000
0001
1000
0100
,  // measure 36
0000
0010
0100
1000
0100
0001
0100
0001
,  // measure 37
0100
0000
0000
0000
0100
0000
0000
0000
0010
0000
0000
1000
0000
0000
0100
0000
,  // measure 38
0010
0000
0100
0000
1000
0001
1000
0001
,  // measure 39
1000
0000
0100
0000
0001
0100
0001
1000
,  // measure 40
0010
0000
0000
0010
0000
0000
0010
0000
0001
0000
0100
0000
0010
0000
1000
0000
,  // measure 41
0100
0010
0200
0000
0000
1300
0010
1000
,  // measure 42
1100
0000
0001
0000
1000
0100
0010
0000
,  // measure 43
0001
0010
1000
0010
0100
1000
0000
1001
,  // measure 44
0100
0010
0100
0010
0100
0010
0100
0010
,  // measure 45
1000
0100
0010
0000
0001
0010
1000
0010
,  // measure 46
0101
0000
1000
0100
0010
0001
0010
0100
,  // measure 47
0010
1000
0010
1000
0010
1000
0010
1000
,  // measure 48
0100
0001
0001
0001
0010
0010
0010
0100
,  // measure 49
1000
0000
0001
1000
0001
0100
0010
0000
,  // measure 50
1100
0000
0100
0001
1000
0010
0100
0010
,  // measure 51
1000
0100
1000
0000
0001
0100
0001
0000
,  // measure 52
2000
0100
0001
0000
3010
0000
0100
0000
,  // measure 53
0010
0000
1000
0000
0100
0000
0000
0000
0001
0000
0000
0001
0000
0000
0100
0000
,  // measure 54
0010
0000
1000
0000
0100
0010
0100
0010
,  // measure 55
1000
0001
0100
0001
0010
1000
0010
0100
,  // measure 56
1000
0000
0000
0001
0000
0000
1000
0000
0010
0000
0100
0000
0010
0000
0000
0000
,  // measure 57
0120
0000
2030
0000
,  // measure 58
3200
0000
0302
0000
,  // measure 59
0203
0000
0320
0000
,  // measure 60
0032
0000
0203
0000
,  // measure 61
0320
1000
0230
1000
,  // measure 62
0302
0010
2003
0100
,  // measure 63
3020
1000
0230
0001
,  // measure 64
0320
0000
0100
0000
0130
0001
1000
0001
,  // measure 65
0100
0000
0010
0000
1000
0001
1000
0000
,  // measure 66
0100
0000
0001
0000
1000
0010
0100
0000
,  // measure 67
0001
0000
0001
0000
0010
1000
0100
0000
,  // measure 68
0001
0000
1000
0000
0010
0100
0010
0000
,  // measure 69
1000
0000
0100
0000
0001
1000
0001
0000
,  // measure 70
0100
0000
0010
0000
0100
0001
0100
0000
,  // measure 71
0001
0000
1000
0000
0001
0100
0001
0000
,  // measure 72
0010
0100
0010
0100
0010
0100
0010
0100
,  // measure 73
1000
0000
1001
0100
0000
0010
0001
0000
,  // measure 74
0100
0000
1010
0100
0000
1000
0100
0000
,  // measure 75
1000
0000
0011
0100
0000
1000
0010
0000
,  // measure 76
0001
0000
0011
0100
0000
0010
0001
0000
,  // measure 77
0100
0000
0110
1000
0000
0100
0001
0000
,  // measure 78
1000
0000
0110
0001
0000
1000
0100
0000
,  // measure 79
0010
0100
0001
0010
0100
0010
1000
0001
,  // measure 80
0100
0010
0100
0010
0100
0010
0100
0010
,  // measure 81
0101
0000
1001
0100
0000
0100
1000
0000
,  // measure 82
0110
0000
1001
0100
0000
0001
1000
0000
,  // measure 83
1010
0000
0110
1000
0000
0100
0001
0000
,  // measure 84
0110
0000
1100
0001
0000
0010
0001
0000
,  // measure 85
0011
0000
1100
0100
0000
0010
1000
0000
,  // measure 86
1010
0000
0101
0001
0000
1000
0010
0000
,  // measure 87
0110
0000
0101
1000
0000
0100
0001
0000
,  // measure 88
2100
0000
0001
0100
0000
0100
3010
0000
,  // measure 89
0101
0000
0110
1000
0000
0001
1000
0000
,  // measure 90
0011
0000
1100
0001
0000
0010
1000
0000
,  // measure 91
1010
0000
0101
0010
0000
1000
0010
0000
,  // measure 92
0110
0000
1001
0100
0000
1000
0001
0000
,  // measure 93
1200
0010
0001
0310
,  // measure 94
1100
0000
0001
0100
0000
0010
1000
0000
,  // measure 95
0120
0001
0100
1000
,  // measure 96
0130
0001
1000
0010
0100
0001
0010
0100
,  // measure 97
0110
0000
1001
0000
0000
0000
0000
0001
,  // measure 98
0101
0000
0000
1000
0001
0010
0100
0010
,  // measure 99
1001
0000
0001
0010
0000
0100
2000
0000
,  // measure 100
0000
0100
0000
3010
0100
0010
1000
0001
,  // measure 101
0100
0000
0001
0010
0000
1000
0100
0000
,  // measure 102
0010
0001
0010
0100
0010
1000
0010
0100
,  // measure 103
0010
0000
0110
0000
0000
0010
0001
0000
,  // measure 104
0010
0100
0010
0001
1000
0100
0010
0001
,  // measure 105
0100
0001
0100
1000
0100
0010
0100
0010
,  // measure 106
1000
0000
0000
1000
0100
0001
0100
0010
,  // measure 107
0100
0000
1010
0000
0000
0011
0000
2000
,  // measure 108
0000
0010
0000
3100
0010
0001
1000
0010
,  // measure 109
1000
0000
0001
0101
0000
1010
0000
0000
,  // measure 110
1001
0100
0010
0100
0010
0100
0010
0100
,  // measure 111
1000
0000
0001
0010
0100
0010
0000
0001
,  // measure 112
0100
1010
0000
1000
0001
0010
0010
0100
,  // measure 113
1000
0010
0001
0010
1000
0100
0001
0100
,  // measure 114
1000
0000
0000
0010
0000
0000
0100
0000
0110
0000
0000
0001
0000
0000
0010
0000
,  // measure 115
1000
0000
0001
0010
1000
0010
0100
0001
,  // measure 116
1000
0001
1000
0100
0001
1000
0100
1000
,  // measure 117
0100
0000
0010
0000
0001
0100
1000
0000
,  // measure 118
0100
0000
0001
0000
0010
1000
0010
0000
,  // measure 119
0001
0000
0010
1000
0001
1000
0001
0100
,  // measure 120
0010
1000
0100
0001
1000
0010
0001
0000
,  // measure 121
0100
0000
0010
0000
1000
0100
1000
0000
,  // measure 122
0001
0000
0100
0000
0010
0100
0010
0000
,  // measure 123
0110
0000
1000
0100
0001
0100
1000
0001
,  // measure 124
0100
1000
0100
0001
1000
0010
0100
0020
,  // measure 125
0000
0000
0000
0000
,  // measure 126
0030
0000
0000
0000
,  // measure 127
0000
0000
0100
0001
1000
0001
1000
0010
,  // measure 128
0100
0010
1000
0100
0001
1000
0010
0002
,  // measure 129
0000
0000
0000
0000
,  // measure 130
0003
0000
0000
0000
;
