#VERSION:0.83;
#TITLE:TRIP MACHINE (Resuscitation Mix);
#SUBTITLE:;
#ARTIST:EBB;
#TITLETRANSLIT:;
#SUBTITLETRANSLIT:;
#ARTISTTRANSLIT:;
#GENRE:;
#ORIGIN:;
#CREDIT:;
#BANNER:TRIP MACHINE -Resuscitation MIX-.png;
#BACKGROUND:TRIP MACHINE -Resuscitation MIX- bg.png;
#PREVIEWVID:;
#JACKET:;
#CDIMAGE:;
#DISCIMAGE:;
#LYRICSPATH:;
#CDTITLE:;
#MUSIC:TRIP MACHINE -Resuscitation MIX-.ogg;
#OFFSET:0.000000;
#SAMPLESTART:15.000000;
#SAMPLELENGTH:12.000000;
#SELECTABLE:YES;
#DISPLAYBPM:*;
#BPMS:0.000=160.000;
#STOPS:;
#DELAYS:;
#WARPS:;
#TIMESIGNATURES:0.000=4=4;
#TICKCOUNTS:0.000=4;
#COMBOS:0.000=1;
#SPEEDS:0.000=1.000=0.000=0;
#SCROLLS:0.000=1.000;
#FAKES:;
#LABELS:0.000=Song Start;
#BGCHANGES:;
#KEYSOUNDS:;
#ATTACKS:
;

//---------------dance-single - ----------------
#NOTEDATA:;
#CHARTNAME:;
#STEPSTYPE:dance-single;
#DESCRIPTION:;
#CHARTSTYLE:;
#DIFFICULTY:Challenge;
#METER:13;
#RADARVALUES:0.609654,1.076614,0.405632,0.092957,0.164788,505.000000,457.000000,48.000000,11.000000,0.000000,0.000000,0.000000,0.000000,0.000000,0.609654,1.076614,0.405632,0.092957,0.164788,505.000000,457.000000,48.000000,11.000000,0.000000,0.000000,0.000000,0.000000,0.000000;
#CREDIT:;
#OFFSET:0.000000;
#BPMS:0.000000=160.000000
,36.000000=320.000000
,100.000000=160.000000
,140.000000=80.000000
,180.000000=160.000000
,196.000000=320.000000
,388.000000=160.000000
;
#STOPS:32.000000=1.500000
;
#DELAYS:;
#WARPS:;
#TIMESIGNATURES:0.000000=4=4
;
#TICKCOUNTS:0.000000=4
;
#COMBOS:0.000000=1
;
#SPEEDS:0.000000=1.000000=0.000000=0
;
#SCROLLS:0.000000=1.000000
;
#FAKES:;
#LABELS:0.000000=Song Start
;
#DISPLAYBPM:160.000000:320.000000;
#NOTES:
// measure 0
0000
0000
0000
0000
,  // measure 1
0000
0000
0000
0000
,  // measure 2
0000
0000
0000
0000
,  // measure 3
0000
0000
0000
0000
0000
0000
0000
0001
,  // measure 4
0001
0000
0001
0000
0010
0100
1000
0100
,  // measure 5
0001
1000
0001
0100
0010
1000
0100
0010
,  // measure 6
0001
1000
0001
0000
0100
0010
1000
0100
,  // measure 7
0001
1000
0001
0100
0001
1000
0010
0100
,  // measure 8
0100
0100
0010
0010
,  // measure 9
1000
0100
1000
0001
,  // measure 10
1000
0001
1000
0100
,  // measure 11
0010
1000
0010
1000
,  // measure 12
0100
0001
0100
0001
,  // measure 13
0010
0001
1000
0100
,  // measure 14
1000
0001
1000
0010
,  // measure 15
0100
0010
1000
0100
,  // measure 16
1000
0100
0001
1000
,  // measure 17
0001
1000
0100
0000
0001
0000
1000
0000
,  // measure 18
0010
0001
0100
1000
,  // measure 19
0010
1000
0010
1000
,  // measure 20
0100
1000
0100
0001
,  // measure 21
1000
0010
0001
0000
1000
0000
0010
0000
,  // measure 22
0100
0010
0100
0100
,  // measure 23
1000
1000
0100
0010
,  // measure 24
0001
1000
1000
0001
,  // measure 25
0001
0000
1000
0000
0100
0010
0100
0000
,  // measure 26
1000
0100
0001
1000
0000
1000
0000
1000
,  // measure 27
0010
0100
0010
0000
0001
0000
1000
0000
,  // measure 28
0100
0010
0100
1000
0000
1000
0100
0000
,  // measure 29
0001
0010
0001
0000
0001
0010
0001
0000
,  // measure 30
1000
0100
1000
0000
1000
0100
1000
0000
,  // measure 31
0010
0100
0010
1000
0100
0001
1000
0001
,  // measure 32
0100
0010
0100
0010
0100
0010
0100
0010
0100
0010
0100
0010
0100
0010
0100
0010
,  // measure 33
0100
1000
0001
0010
1000
0100
0000
0001
,  // measure 34
0000
1000
0010
0100
0000
0001
0000
0010
,  // measure 35
0110
0000
0010
0000
0001
0000
0000
0000
1100
0000
0000
0101
0000
0000
0010
0000
,  // measure 36
1100
0000
0100
0000
0001
0000
0000
0000
0101
0000
0000
0001
0000
0001
1000
0010
,  // measure 37
0110
0000
0100
0000
1000
0000
0000
0000
1100
0000
0000
0110
0000
1000
0001
1000
,  // measure 38
0101
0000
0001
0000
0010
0000
0000
0000
1100
0000
0000
0010
0000
0001
0100
1000
,  // measure 39
0101
0001
0000
0000
0000
0000
0000
0000
0110
0000
0000
0101
0000
1000
0010
1000
,  // measure 40
1100
0100
0000
0000
0000
0000
0000
0000
0110
0000
0000
1100
0000
0101
0000
0000
,  // measure 41
1001
0000
0010
0000
0010
0000
0000
0000
0110
0000
0000
0101
0000
0000
0000
0000
,  // measure 42
1010
0000
0100
0000
0001
0000
0000
0000
0110
0000
0000
0101
0000
0010
0001
0010
,  // measure 43
1100
1000
0000
0000
0000
0000
0000
0000
0000
0101
0010
0101
0000
1010
0100
1010
,  // measure 44
0000
1100
0000
0000
0000
0000
0000
0000
0000
1100
0010
1100
0000
0011
0100
0011
,  // measure 45
1000
0010
0000
0000
0000
0000
0000
0000
,  // measure 46
0000
0110
1000
0110
0000
1010
0001
1010
,  // measure 47
0000
1100
0001
1000
0010
0100
0001
1000
,  // measure 48
0010
1001
0100
1001
0000
1001
0100
1001
,  // measure 49
1000
0001
1000
0001
,  // measure 50
1000
0001
1000
0001
,  // measure 51
0100
0001
0100
0001
,  // measure 52
0100
0001
0100
0001
,  // measure 53
0010
0001
0010
0001
,  // measure 54
0010
0001
0010
0001
,  // measure 55
0200
2300
3020
0032
,  // measure 56
0203
2300
3020
0032
,  // measure 57
0103
0010
0100
0010
,  // measure 58
0100
0010
0100
0010
,  // measure 59
1000
0010
1000
0010
,  // measure 60
1000
0010
1000
0010
,  // measure 61
0001
0010
0001
0010
,  // measure 62
0001
0010
0001
0010
,  // measure 63
0200
0000
0000
0301
0000
0000
0020
0000
,  // measure 64
0032
0000
0103
0000
,  // measure 65
0001
0100
1000
0010
,  // measure 66
1000
0010
1000
0100
,  // measure 67
1000
0100
0001
1000
,  // measure 68
0010
0001
0100
0001
,  // measure 69
1000
0010
0100
0010
,  // measure 70
1000
0000
0100
0000
1000
0000
0100
0011
,  // measure 71
0000
0000
0000
0000
0000
1100
0000
0000
,  // measure 72
0000
1100
0000
0110
0000
0000
0000
0000
,  // measure 73
0101
0001
1000
0001
,  // measure 74
0100
0001
1000
0010
,  // measure 75
0100
0001
1000
0100
,  // measure 76
1000
0100
0010
0010
,  // measure 77
0100
1000
0100
1000
,  // measure 78
0100
0100
0100
0001
,  // measure 79
1000
0001
0010
0100
,  // measure 80
0010
1000
0100
1000
,  // measure 81
0011
0100
0001
1000
,  // measure 82
0001
0100
1000
0100
,  // measure 83
1000
0010
0100
0001
,  // measure 84
1000
0100
1000
0001
,  // measure 85
0010
0100
0001
1000
,  // measure 86
0100
0001
1000
0010
,  // measure 87
0100
1000
0100
1000
,  // measure 88
0001
0100
0001
1000
,  // measure 89
0100
0100
0100
0100
,  // measure 90
0100
0100
0100
0100
,  // measure 91
0010
0010
0010
0010
,  // measure 92
0010
0010
0010
0010
,  // measure 93
0100
0100
0100
0001
,  // measure 94
0010
1000
0010
0001
,  // measure 95
0001
0010
0100
0010
0100
0010
0100
0001
,  // measure 96
1000
0001
0100
0001
1000
0001
0010
1000
,  // measure 97
0100
0000
0000
0000
,  // measure 98
0010
0000
0000
0000
;

//---------------dance-single - ----------------
#NOTEDATA:;
#CHARTNAME:;
#STEPSTYPE:dance-single;
#DESCRIPTION:;
#CHARTSTYLE:;
#DIFFICULTY:Hard;
#METER:11;
#RADARVALUES:0.517905,0.578870,0.169013,0.118309,0.114084,429.000000,409.000000,20.000000,14.000000,0.000000,0.000000,0.000000,0.000000,0.000000,0.517905,0.578870,0.169013,0.118309,0.114084,429.000000,409.000000,20.000000,14.000000,0.000000,0.000000,0.000000,0.000000,0.000000;
#CREDIT:;
#OFFSET:0.000000;
#BPMS:0.000000=160.000000
,32.000000=320.000000
,48.000000=160.000000
,120.000000=80.000000
,160.000000=160.000000
,272.000000=80.000000
;
#STOPS:;
#DELAYS:;
#WARPS:;
#TIMESIGNATURES:0.000000=4=4
;
#TICKCOUNTS:0.000000=4
;
#COMBOS:0.000000=1
;
#SPEEDS:0.000000=1.000000=0.000000=0
;
#SCROLLS:0.000000=1.000000
;
#FAKES:;
#LABELS:0.000000=Song Start
;
#DISPLAYBPM:160.000000:320.000000;
#NOTES:
// measure 0
0000
0000
0000
0000
,  // measure 1
0000
0000
0000
0000
,  // measure 2
0000
0000
0000
0000
,  // measure 3
0000
0000
0000
0000
0000
0000
0000
1000
,  // measure 4
1000
0000
1000
0000
1000
0001
0100
0010
,  // measure 5
1000
0100
0001
1000
0001
0010
0100
0010
,  // measure 6
1000
0100
0100
0000
0010
1000
0100
0001
,  // measure 7
1000
0001
0100
0010
1000
0100
0001
1000
,  // measure 8
0001
0000
0000
0000
,  // measure 9
0000
0000
0000
0000
,  // measure 10
1000
0000
0001
0000
,  // measure 11
1000
0000
0001
0000
,  // measure 12
0100
0010
1000
0100
0001
1000
0001
0100
,  // measure 13
0010
0100
1000
0100
0001
0010
1000
0001
,  // measure 14
0100
0001
0100
1000
0100
0010
0100
0001
,  // measure 15
0010
1000
0001
0100
1000
0100
1000
0100
,  // measure 16
0010
0100
0010
0000
1000
0000
0100
0000
0001
0000
1000
0000
0001
0000
0100
0000
,  // measure 17
0010
1000
0100
1000
0100
0001
0100
0010
,  // measure 18
0001
0010
0001
0000
0100
0000
1000
0000
0100
0000
0001
0000
1000
0000
0010
0000
,  // measure 19
1000
0100
0001
1000
0001
0100
1000
0100
,  // measure 20
0011
0000
0010
0000
0010
0100
1000
0000
,  // measure 21
1000
0001
0100
0001
0010
0001
0100
0000
,  // measure 22
0010
0000
0010
0000
0001
0100
1000
0000
,  // measure 23
0100
0010
1000
0100
0001
1000
0001
0000
,  // measure 24
1000
1000
0100
0100
,  // measure 25
0010
0010
0001
0001
,  // measure 26
0100
0010
1000
0100
0001
1000
0001
1000
,  // measure 27
0010
0010
0010
0010
0010
0010
0010
0010
,  // measure 28
0100
0100
0100
1000
0001
0010
0000
0100
,  // measure 29
0000
1000
0001
1000
0000
0000
0000
0000
,  // measure 30
0101
0000
0100
0000
0010
0000
0000
0000
1100
0000
0000
0001
0000
0000
0000
0000
,  // measure 31
0110
0000
0001
0000
1000
0000
0000
0000
1100
0000
0000
0010
0000
0000
0010
0000
,  // measure 32
0101
0000
0001
0000
0100
0000
0000
0000
1001
0000
0000
0010
0000
0000
0100
0000
,  // measure 33
0110
0000
0100
0000
0010
0000
0000
0000
1100
0000
0000
0001
0000
0000
1000
0000
,  // measure 34
0101
0000
0000
0000
0000
0000
0000
0000
1001
0000
0000
0010
0000
0000
0000
0000
,  // measure 35
0101
0000
0000
0000
0000
0000
0000
0000
0002
0000
0000
0203
0000
2300
0000
0000
,  // measure 36
3020
0000
0000
0000
0000
0000
0000
0000
0230
0000
0000
0302
0000
0000
0003
0000
,  // measure 37
2000
0000
0000
0000
0000
0000
0000
3020
0000
0000
0230
0000
0000
0000
0300
0000
,  // measure 38
2000
0001
0000
0000
3000
0000
0000
0000
0000
0010
0100
0010
0000
1000
0001
1000
,  // measure 39
0000
0100
0000
0000
0000
0000
0000
0000
0000
0001
0100
0001
0000
0010
1000
0010
,  // measure 40
0000
0100
0001
0000
0000
0000
0000
0000
,  // measure 41
0000
0010
0100
0010
0000
1000
0001
1000
,  // measure 42
0000
0100
0000
0000
0000
0000
0000
0000
,  // measure 43
0000
0010
0100
0010
0000
0100
1000
0100
,  // measure 44
0110
0010
0001
0010
0001
0010
0001
0010
,  // measure 45
0100
1000
0100
1000
0100
1000
0100
1000
,  // measure 46
0010
0100
0010
0100
0010
0100
0010
0100
,  // measure 47
0020
0000
0000
0031
0000
0000
0200
0000
1300
0000
0000
0000
0010
0000
0000
0000
,  // measure 48
0100
0010
0100
0010
0100
0010
0100
0010
,  // measure 49
1000
0010
1000
0010
1000
0010
1000
0010
,  // measure 50
0001
0010
0001
0010
0001
0010
0001
0010
,  // measure 51
0002
0000
0000
0103
0000
0000
0020
0000
1030
0000
0000
0000
0100
0000
0000
0000
,  // measure 52
0010
1000
0100
0010
1000
0010
0001
0100
,  // measure 53
0001
1000
0100
0001
0010
1000
0100
0001
,  // measure 54
1000
0001
1000
0001
0100
1000
0100
1000
,  // measure 55
0110
0000
0000
1001
0000
1001
0000
0000
0000
1001
0000
1001
0000
0000
0000
0000
,  // measure 56
0101
0010
0001
1000
0100
0100
1000
0100
,  // measure 57
1000
0100
0001
0010
1000
0100
1000
0001
,  // measure 58
0010
0001
0100
0001
0010
1000
0100
0001
,  // measure 59
1000
0010
0001
1000
0100
1000
0010
0000
,  // measure 60
0101
0100
0100
1000
0100
0001
1000
0001
,  // measure 61
1000
0010
0100
0001
0001
1000
0100
1000
,  // measure 62
0001
0010
1000
0010
1000
0010
0100
0001
,  // measure 63
0100
0010
1000
0100
0001
0010
0001
0100
,  // measure 64
1000
0010
1000
0010
1000
0010
1000
0010
,  // measure 65
0001
0100
0001
0100
0001
0100
0001
0100
,  // measure 66
1000
0001
1000
0001
1000
0001
1000
0001
,  // measure 67
0100
0010
1000
0100
1000
0001
1000
0010
,  // measure 68
0001
0000
0010
0000
;

//---------------dance-single - ----------------
#NOTEDATA:;
#CHARTNAME:;
#STEPSTYPE:dance-single;
#DESCRIPTION:;
#CHARTSTYLE:;
#DIFFICULTY:Beginner;
#METER:3;
#RADARVALUES:0.102615,0.192675,0.101408,0.050704,0.000000,85.000000,73.000000,12.000000,6.000000,0.000000,0.000000,0.000000,0.000000,0.000000,0.102615,0.192675,0.101408,0.050704,0.000000,85.000000,73.000000,12.000000,6.000000,0.000000,0.000000,0.000000,0.000000,0.000000;
#CREDIT:;
#DISPLAYBPM:160.000000:320.000000;
#NOTES:
// measure 0
0000
0000
0000
0000
,  // measure 1
0000
0000
0000
0000
,  // measure 2
0000
0000
0000
0000
,  // measure 3
0000
0000
0000
0000
,  // measure 4
0010
0000
0000
0000
,  // measure 5
0001
0000
0000
0000
,  // measure 6
0100
0000
0000
0000
,  // measure 7
1000
0000
0000
0000
,  // measure 8
1001
0000
0000
0000
,  // measure 9
0000
0000
0000
0000
,  // measure 10
0110
0000
0000
0000
,  // measure 11
1000
0000
0000
0000
,  // measure 12
0001
0000
0000
0000
,  // measure 13
0100
0000
0000
0000
,  // measure 14
0010
0000
0000
0000
,  // measure 15
1000
0000
0000
0000
,  // measure 16
0001
0000
0000
0000
,  // measure 17
0100
0000
0000
0000
,  // measure 18
1100
0000
0000
0000
,  // measure 19
1000
0000
0000
0000
,  // measure 20
0010
0000
0000
0000
,  // measure 21
0100
0000
0000
0000
,  // measure 22
0001
0000
0000
0000
,  // measure 23
1000
0000
0000
0000
,  // measure 24
0001
0000
0000
0000
,  // measure 25
0010
0000
0000
0000
,  // measure 26
1001
0000
0000
0000
,  // measure 27
0100
0000
0000
0000
,  // measure 28
1001
0000
0000
0000
,  // measure 29
0010
0000
0000
0000
,  // measure 30
0001
0000
0000
0000
,  // measure 31
0100
0000
0000
0000
,  // measure 32
1000
0000
0000
0000
,  // measure 33
1000
0000
0000
0000
,  // measure 34
0010
0000
0000
0000
,  // measure 35
0100
0000
0000
0000
,  // measure 36
0001
0000
0000
0000
,  // measure 37
1000
0000
0000
0000
,  // measure 38
0100
0000
0000
0000
,  // measure 39
1000
0000
0000
0000
,  // measure 40
0002
0000
0000
0000
,  // measure 41
0013
0000
0000
0000
,  // measure 42
0200
0000
0000
0000
,  // measure 43
0310
0000
0000
0000
,  // measure 44
2000
0000
0000
0000
,  // measure 45
0000
3001
0000
0000
0000
0000
0000
0000
,  // measure 46
0000
0020
0000
0000
0000
0000
0000
0000
,  // measure 47
0000
0130
0000
0000
0000
0000
0000
0000
,  // measure 48
0000
2000
0000
0000
0000
0000
0000
0000
,  // measure 49
0000
3100
0000
0000
0000
0000
0000
0000
,  // measure 50
0000
0002
0000
0000
0000
0000
0000
0000
,  // measure 51
0000
0013
0000
0000
0000
0000
0000
0000
,  // measure 52
1001
0000
0000
0000
,  // measure 53
0101
0000
0000
0000
,  // measure 54
1001
0000
0000
0000
,  // measure 55
0010
0000
0000
0000
,  // measure 56
1100
0000
0000
0000
,  // measure 57
0101
0000
0000
0000
,  // measure 58
0110
0000
0000
0000
,  // measure 59
0100
0000
0000
0000
,  // measure 60
1000
0000
0000
0000
,  // measure 61
1000
0000
0000
0000
,  // measure 62
0010
0000
0000
0000
,  // measure 63
0100
0000
0100
0000
,  // measure 64
0010
0000
0000
0000
,  // measure 65
0010
0000
0000
0000
,  // measure 66
0001
0000
0000
0000
,  // measure 67
0100
0000
0000
0000
,  // measure 68
0101
0000
0000
0000
,  // measure 69
0010
0000
0000
0000
,  // measure 70
1000
0000
0000
0000
,  // measure 71
0100
0000
0000
0000
,  // measure 72
0001
0000
0000
0000
,  // measure 73
0001
0000
0000
0000
,  // measure 74
1000
0000
0000
0000
,  // measure 75
1000
0000
0000
0000
,  // measure 76
0100
0000
0000
0000
;

//---------------dance-single - ----------------
#NOTEDATA:;
#CHARTNAME:;
#STEPSTYPE:dance-single;
#DESCRIPTION:;
#CHARTSTYLE:;
#DIFFICULTY:Easy;
#METER:4;
#RADARVALUES:0.156941,0.224787,0.126760,0.109859,0.000000,130.000000,115.000000,15.000000,13.000000,0.000000,0.000000,0.000000,0.000000,0.000000,0.156941,0.224787,0.126760,0.109859,0.000000,130.000000,115.000000,15.000000,13.000000,0.000000,0.000000,0.000000,0.000000,0.000000;
#CREDIT:;
#DISPLAYBPM:160.000000:320.000000;
#NOTES:
// measure 0
0000
0000
0000
0000
,  // measure 1
0000
0000
0000
0000
,  // measure 2
0000
0000
0000
0000
,  // measure 3
0000
0000
0000
0000
,  // measure 4
0001
0000
0000
0000
,  // measure 5
1000
0000
0000
0000
,  // measure 6
0100
0000
0000
0000
,  // measure 7
1000
0000
0000
0000
,  // measure 8
0020
0000
0000
0000
,  // measure 9
0130
0000
0000
0000
,  // measure 10
0001
0000
1000
0000
,  // measure 11
0010
0000
0100
0000
,  // measure 12
0010
0000
0100
0000
,  // measure 13
0001
0000
1000
0000
,  // measure 14
0010
0100
0010
0000
,  // measure 15
0100
0000
1000
0000
,  // measure 16
0001
0100
0001
0000
,  // measure 17
0010
0000
0001
0000
,  // measure 18
0100
0000
0000
0000
,  // measure 19
1000
0000
0000
0000
,  // measure 20
0100
0000
0000
0000
,  // measure 21
0010
0000
0000
0000
,  // measure 22
0010
0000
0000
0000
,  // measure 23
0010
0000
0000
0000
,  // measure 24
1000
0000
1000
0000
,  // measure 25
0001
0000
0001
0000
,  // measure 26
0100
0000
0000
0000
,  // measure 27
0000
0000
0000
0000
,  // measure 28
1001
0000
0000
0000
,  // measure 29
0110
0000
0000
0000
,  // measure 30
1100
0000
0000
0000
,  // measure 31
0101
0000
0000
0000
,  // measure 32
1001
0000
0000
0000
,  // measure 33
0110
0000
0000
0000
,  // measure 34
1100
0000
0000
0000
,  // measure 35
0101
0000
0000
0000
,  // measure 36
1001
0000
0000
0000
,  // measure 37
0110
0000
0000
0000
,  // measure 38
0101
0000
0000
0000
,  // measure 39
0110
0000
0100
0000
,  // measure 40
2000
0000
3000
0000
,  // measure 41
0001
0000
0000
0000
,  // measure 42
0200
0000
0310
0000
,  // measure 43
1000
0000
0000
0000
,  // measure 44
0001
0000
0000
0000
,  // measure 45
0000
0200
0000
0300
0000
0020
0000
0030
,  // measure 46
0000
0010
0000
0000
0000
0000
0000
0000
,  // measure 47
0000
2000
0000
3000
0000
2000
0000
3000
,  // measure 48
0000
0001
0000
0000
0000
0000
0000
0000
,  // measure 49
0000
0200
0000
0300
0000
0200
0000
0300
,  // measure 50
0000
0010
0000
0000
0000
0000
0000
0000
,  // measure 51
0000
0002
0000
0003
0000
0002
0000
0003
,  // measure 52
0100
0000
1000
0000
,  // measure 53
0001
0000
0100
0000
,  // measure 54
0001
0000
0010
0000
,  // measure 55
0200
0000
0001
0000
,  // measure 56
1300
0000
0100
0000
,  // measure 57
0001
0000
0010
0000
,  // measure 58
0001
0000
0100
0000
,  // measure 59
0020
0000
1000
0000
,  // measure 60
0130
0000
0001
0000
,  // measure 61
1000
0000
0001
0000
,  // measure 62
0100
0000
0010
0000
,  // measure 63
1010
0000
0000
0000
,  // measure 64
1001
0000
0010
0000
,  // measure 65
0100
0000
0100
0000
,  // measure 66
0001
0000
1000
0000
,  // measure 67
0001
0000
0010
0000
,  // measure 68
0101
0000
0010
0000
,  // measure 69
1000
0000
0100
0000
,  // measure 70
1000
0000
0010
0000
,  // measure 71
0100
0000
0010
0000
,  // measure 72
0100
0000
1000
0000
,  // measure 73
0010
0000
0100
0000
,  // measure 74
0001
0000
0100
0000
,  // measure 75
1000
0001
1000
0001
,  // measure 76
0001
0000
0000
0000
;

//---------------dance-single - ----------------
#NOTEDATA:;
#CHARTNAME:;
#STEPSTYPE:dance-single;
#DESCRIPTION:;
#CHARTSTYLE:;
#DIFFICULTY:Medium;
#METER:8;
#RADARVALUES:0.301809,0.431829,0.143661,0.152112,0.076056,250.000000,233.000000,17.000000,18.000000,0.000000,0.000000,0.000000,0.000000,0.000000,0.301809,0.431829,0.143661,0.152112,0.076056,250.000000,233.000000,17.000000,18.000000,0.000000,0.000000,0.000000,0.000000,0.000000;
#CREDIT:;
#OFFSET:0.000000;
#BPMS:0.000000=160.000000
,112.000000=80.000000
,160.000000=160.000000
;
#STOPS:;
#DELAYS:;
#WARPS:;
#TIMESIGNATURES:0.000000=4=4
;
#TICKCOUNTS:0.000000=4
;
#COMBOS:0.000000=1
;
#SPEEDS:0.000000=1.000000=0.000000=0
;
#SCROLLS:0.000000=1.000000
;
#FAKES:;
#LABELS:0.000000=Song Start
;
#DISPLAYBPM:160.000000:320.000000;
#NOTES:
// measure 0
0000
0000
0000
0000
,  // measure 1
0000
0000
0000
0000
,  // measure 2
0000
0000
0000
0000
,  // measure 3
0000
0000
0000
0000
,  // measure 4
0001
0100
0010
1000
,  // measure 5
0100
0001
1000
0001
,  // measure 6
0100
0010
1000
0001
,  // measure 7
0100
0100
0010
0010
,  // measure 8
2000
0000
0000
0000
,  // measure 9
3001
1000
0001
1000
,  // measure 10
0101
0010
1000
0100
,  // measure 11
1000
0001
0100
0001
,  // measure 12
1000
0010
0100
0010
,  // measure 13
1000
0100
1000
0001
,  // measure 14
0100
0010
0001
0000
1000
0000
0010
0000
,  // measure 15
1000
0010
1000
0100
,  // measure 16
0001
0010
1000
0000
0001
0000
0100
0000
,  // measure 17
0010
1000
0100
0001
,  // measure 18
1000
1000
0010
0010
,  // measure 19
0100
0001
0100
0000
0010
0000
1000
0000
,  // measure 20
0100
1000
0010
0100
,  // measure 21
1000
0001
0100
0000
0001
0000
1000
0000
,  // measure 22
0001
0001
0010
0010
,  // measure 23
0100
0100
1000
1000
,  // measure 24
0010
0100
0010
0100
,  // measure 25
1000
0001
1000
0001
1000
0001
1000
0001
,  // measure 26
0100
0000
0000
0000
,  // measure 27
0010
0000
0000
0000
,  // measure 28
0101
0000
1001
0000
,  // measure 29
0110
0000
1100
0000
,  // measure 30
1100
0000
0101
0000
,  // measure 31
0101
0000
1010
0000
,  // measure 32
0110
0000
1100
0000
,  // measure 33
1001
0000
2000
0000
,  // measure 34
3002
0000
0023
0000
,  // measure 35
0230
0000
0302
0000
,  // measure 36
0023
0000
0000
0000
0030
0000
0000
0000
0000
0001
0000
0010
0000
0100
0000
0100
,  // measure 37
0000
0020
0000
0000
0000
0030
0000
0000
0000
0001
0000
0001
0000
1000
0000
1000
,  // measure 38
0000
0200
0000
0000
0000
0300
0000
0000
0000
0010
0000
0010
0000
0100
0000
0100
,  // measure 39
0000
0002
0000
0000
0000
0003
0000
0000
0000
0001
0000
0001
0000
0010
0000
0000
,  // measure 40
1001
1000
1000
1000
,  // measure 41
0100
0100
0100
0100
,  // measure 42
0010
0010
0010
0010
,  // measure 43
0200
2300
3002
0203
,  // measure 44
0301
0001
0001
0001
,  // measure 45
1000
1000
1000
1000
,  // measure 46
0100
0100
0100
0100
,  // measure 47
0002
0023
0032
0203
,  // measure 48
1300
0010
0100
0010
,  // measure 49
1000
0100
0001
1000
,  // measure 50
0001
0100
0010
0100
,  // measure 51
0110
0000
0000
0101
0000
0000
0000
1001
,  // measure 52
1001
0010
0100
0010
,  // measure 53
1000
0100
0001
1000
,  // measure 54
0001
1000
0001
0100
,  // measure 55
1000
0010
1000
0010
,  // measure 56
1000
0100
0001
1000
,  // measure 57
0001
0100
0001
1000
,  // measure 58
0010
0001
0100
0001
,  // measure 59
1000
0010
0100
0010
,  // measure 60
0100
0100
0100
0100
,  // measure 61
0001
0001
0001
0001
,  // measure 62
1000
0001
1000
0001
1000
0001
1000
0001
,  // measure 63
0100
0001
0100
0001
0100
0001
0100
0001
;
