#VERSION:0.83;
#TITLE:Subterranean;
#SUBTITLE:;
#ARTIST:Tommy Tallarico;
#TITLETRANSLIT:;
#SUBTITLETRANSLIT:;
#ARTISTTRANSLIT:;
#GENRE:;
#ORIGIN:;
#CREDIT:;
#BANNER:banner.png;
#BACKGROUND:background.png;
#PREVIEWVID:;
#JACKET:jacket.png;
#CDIMAGE:;
#DISCIMAGE:;
#LYRICSPATH:;
#CDTITLE:;
#MUSIC:Subterranean.mp3;
#OFFSET:-13.364000;
#SAMPLESTART:86.635994;
#SAMPLELENGTH:12.000000;
#SELECTABLE:YES;
#BPMS:0.000=55.000,
20.000=110.000,
244.000=55.000,
248.000=110.000,
472.000=55.000;
#STOPS:;
#DELAYS:;
#WARPS:;
#TIMESIGNATURES:0.000=4=4;
#TICKCOUNTS:0.000=4;
#COMBOS:0.000=1;
#SPEEDS:0.000=1.000=0.000=0;
#SCROLLS:0.000=1.000;
#FAKES:;
#LABELS:0.000=Song Start;
#BGCHANGES:;
#KEYSOUNDS:;
#ATTACKS:
;

//---------------dance-single - ----------------
#NOTEDATA:;
#CHARTNAME:;
#STEPSTYPE:dance-single;
#DESCRIPTION:;
#CHARTSTYLE:;
#DIFFICULTY:Hard;
#METER:7;
#RADARVALUES:0.379156,0.625086,0.135353,0.135353,0.286889,902.000000,856.000000,46.000000,46.000000,0.000000,0.000000,0.000000,0.000000,0.000000,0.379156,0.625086,0.135353,0.135353,0.286889,902.000000,856.000000,46.000000,46.000000,0.000000,0.000000,0.000000,0.000000,0.000000;
#CREDIT:;
#NOTES:
0000
0000
0000
0000
,
0020
0000
0000
0000
,
0032
0000
0000
0000
,
2003
0000
0000
0000
,
3200
0000
0000
0000
0000
0000
0000
0000
0000
0000
0000
0000
0000
0000
0001
0301
,
0101
0000
0000
0001
1000
0000
0010
0000
0000
0000
0100
0000
0001
0000
0000
0000
,
0100
0000
0000
0100
0001
0000
0100
0000
0000
0000
0001
0000
1000
0000
0000
0000
,
0010
0000
0000
0010
0100
0000
0001
0000
0000
0000
0100
0000
0001
0000
0000
0000
,
0010
0000
0000
1000
0001
0000
0100
0000
0000
0000
0010
0000
1000
0000
0000
0000
,
0001
0000
0000
0100
1000
0000
0001
0000
0000
0000
0100
0000
1000
0000
0000
0000
,
0100
0000
0000
0001
0010
0000
0100
0000
0000
0000
0001
0000
1000
0000
0000
0000
,
0001
0000
0000
0100
0100
0000
0010
0000
0000
0000
0010
0000
0100
0000
0000
0000
,
0100
0000
0000
0010
1000
0000
0001
0000
0000
0000
0100
0000
0001
0000
0000
0000
,
0001
0000
0100
0000
1000
0000
0010
0100
0000
0100
1000
0000
0001
0000
1000
0000
,
0100
0000
0001
0000
1000
0000
0010
0001
0000
0001
1000
0000
0010
0000
0100
0000
,
0001
0000
0100
0000
0001
0000
1000
0100
0000
0100
0001
0000
0010
0000
1000
0000
,
0100
0000
0001
0000
1000
0000
0010
0100
0000
0100
0001
0000
0100
0000
1000
0000
,
0100
0000
0001
0000
0010
0000
0100
1000
0000
1000
0001
0000
0010
0000
0001
0000
,
1000
0000
0100
0000
1000
0000
0010
0100
0000
0100
0001
0000
0100
0000
0001
0000
,
1000
0000
0010
0000
0001
0000
0100
1000
0000
1000
0001
0000
0100
0000
0010
0000
,
1000
0000
0001
0000
0010
0000
0100
0001
0000
0001
1000
0000
0100
0000
0001
0000
,
0210
0000
0010
0000
0301
0000
1000
0100
,
0001
0000
0000
0100
0001
0000
1000
0000
0100
0000
0010
0000
1000
0000
0000
0000
,
0201
0000
0010
0000
0301
0000
0010
0100
,
1000
0000
0000
0100
0001
0000
0100
0000
0001
0000
1000
0000
0010
0000
0000
0000
,
2010
0000
0100
0000
3001
0000
0010
0100
,
0001
0000
0000
0100
0010
0000
1000
0000
0001
0000
1000
0000
0100
0000
0000
0000
,
0012
0000
0100
0000
1003
0000
0010
0100
,
0100
0000
0000
0001
1000
0000
0100
0000
0001
0000
1000
0000
0010
0000
0000
0000
,
0200
0000
0000
0000
0301
0000
0010
0100
,
1000
0000
0000
0000
0000
0000
0001
0000
0000
0000
0000
0000
0100
0000
1000
0000
0000
0010
0000
0000
0001
0000
0000
0000
,
2000
0000
0000
0000
3010
0000
0001
0100
,
1000
0000
0000
0000
0000
0000
0010
0000
0000
0000
0000
0000
0001
0000
0010
0000
0000
0100
0000
0000
1000
0000
0000
0000
,
0002
0000
0000
0000
0013
1000
0001
1000
,
0100
0000
0000
0000
0000
0000
0010
0000
0000
0001
0000
0000
1000
0000
1000
0000
0000
0100
0000
0000
0010
0000
0000
0000
,
0200
0000
0000
0000
0000
0000
0000
0000
0310
0000
1000
0001
1000
0001
1000
0000
,
0010
0000
0100
0000
0000
0001
0000
0000
0100
0000
0000
0010
0000
0000
0100
0000
0000
0001
0000
0000
0100
0000
0000
0000
,
1010
0000
1000
0001
0000
0001
0100
1000
,
0010
0000
0100
0010
0100
0010
1000
0000
,
1100
0000
0001
0100
0000
0100
0010
0001
,
1000
0000
0001
0100
0010
0100
0001
0000
,
0110
0000
0100
0010
0000
0010
1000
0001
,
0100
0000
0001
1000
0001
1000
0001
0000
,
1010
0000
0100
0001
0000
0001
1000
0100
,
0100
0010
0010
0001
0100
0010
1000
1000
,
0022
0000
0033
0000
0100
0000
0010
1000
,
0001
0000
0100
0001
1000
0010
0100
0000
,
2020
0000
3030
0000
0100
0000
0001
1000
,
0001
0000
0100
1000
0100
0001
0010
0000
,
0220
0000
0330
0000
0001
0000
1000
0010
,
0100
0000
0001
1000
0001
1000
0100
0000
,
2002
0000
3003
0000
0010
0000
0100
0001
,
0100
0000
0010
1000
0001
1000
0010
0000
,
0101
0000
0000
1000
0010
0000
0100
0000
0001
0000
1000
0000
0001
0000
0000
0000
,
0010
0000
0000
0000
0000
0000
0000
0000
0000
0001
0000
0000
0100
0000
0000
0000
0000
0000
0100
0000
0000
0000
0000
0000
0001
0000
0000
0000
1000
0000
0000
0000
0000
0000
0001
0000
0000
0000
0000
0000
1000
0000
0000
0000
0000
0000
0000
0000
,
0011
0000
0000
1000
0001
0000
0100
0000
0001
0000
1000
0000
0010
0000
0000
0000
,
0100
0000
0000
0001
0100
0000
0010
0000
1000
0000
0010
0000
0001
0000
0000
0000
,
1010
0000
0000
0100
0010
0000
1000
0000
0001
0000
0100
0000
1000
0000
0000
0000
,
0010
0000
0000
0000
0000
0000
0000
0000
0000
1000
0000
0000
0100
0000
0000
0000
0000
0000
0001
0000
0000
0000
0000
0000
0010
0000
0000
0000
0100
0000
0000
0000
0000
0000
0010
0000
0000
0000
0000
0000
0001
0000
0000
0000
0000
0000
0000
0000
,
1100
0000
0000
0001
0100
0000
0010
0000
1000
0000
0010
0000
0100
0000
0000
0000
,
0110
0000
0000
0001
1000
0000
0100
0000
0001
0000
1000
0000
1000
0000
0000
0000
,
0000
0000
0000
0001
0001
0000
0000
0001
0001
0000
0000
0001
0001
0000
0000
0001
,
0002
0000
0000
1000
0010
0000
0100
0000
0000
0000
0100
0000
1000
0000
0000
0000
,
0103
0000
0010
0001
0000
0001
1000
0000
,
1000
0000
0000
0001
0010
0000
0001
0000
0000
0000
0100
0000
0010
0000
0100
0000
,
1000
0100
0001
1000
0000
0010
0100
0000
,
0001
0000
0000
0100
0010
0000
0100
0000
0000
0000
1000
0000
0001
0000
0000
0000
,
0100
0000
0000
0000
0000
0000
0000
0000
0000
0001
0000
0000
1000
0000
0000
0000
0000
0000
0100
0000
0000
0000
0000
0000
0010
0000
0000
0000
0010
0000
0000
0000
0010
0000
0000
0000
0001
0000
0000
0000
0001
0000
0000
0000
0001
0000
0000
0000
,
1000
0000
0000
0001
0100
0000
0010
0000
0000
0000
1000
0000
0001
0000
0020
0000
,
0000
0000
0000
0000
0031
1000
0010
0000
,
1000
0001
1000
0000
0010
0000
0100
0001
0100
0000
0000
0000
1000
0001
1000
0000
,
0010
0100
0010
0000
1000
0000
0001
0100
0001
0000
0000
0000
0010
1000
0010
0000
,
0100
0010
0100
0000
0010
0000
1000
0001
1000
0000
0000
0000
0100
0001
0100
0000
,
0010
0100
1000
0000
0001
0000
0100
0010
0100
0000
0000
0000
1000
0001
1000
0000
,
0001
0000
0010
0100
1000
0100
0010
0000
,
0100
0010
0010
0000
0100
0001
1000
0001
,
0100
0000
1000
0001
0010
0001
0100
0001
,
2000
0000
0000
0000
0000
3000
0000
0000
,
0001
0010
0001
0100
1000
0001
1000
0001
0100
0001
0100
1000
0010
1000
0010
0100
,
0010
1000
0100
0001
1000
0001
0100
0001
1000
0010
0100
1000
0100
0001
1000
0001
,
0100
1000
0010
0100
0010
0100
0010
0100
0001
1000
0001
1000
0001
1000
0100
0010
,
0001
1000
0001
1000
0100
0001
1000
0001
0010
0100
1000
0001
0010
0100
1000
0010
,
0100
0010
1000
0100
0001
1000
0010
0100
0001
1000
0001
0100
1000
0010
0100
0001
,
1000
0001
0100
0010
1000
0100
0001
1000
0001
0100
0010
0100
0010
1000
0100
1000
,
0001
0100
0010
1000
0100
1000
0100
1000
0001
0010
0001
0010
0001
0100
1000
0010
,
0100
0001
0100
0001
0100
1000
0100
1000
0100
0010
1000
0001
0100
0001
1000
0010
,
0200
0000
0000
0000
0310
0001
0010
1000
,
0001
0000
0000
0000
0100
0000
0010
0000
0100
0000
1000
0000
0000
1000
0000
0000
,
2000
0000
0000
0000
3000
0010
0001
1000
,
0002
0000
0000
0000
0003
0000
1000
0001
,
0100
0000
0010
0000
1000
0010
0010
0100
,
0001
0000
0100
0010
1000
0000
0010
0001
,
1000
0001
0100
0010
0200
0000
0010
0001
,
0002
0000
0000
0303
,
0110
0000
0000
1100
0000
0000
0101
0000
,
0011
0000
0000
0101
0001
0000
0110
0000
,
1100
0000
0000
0101
0000
0000
1001
0000
,
0110
0000
0000
0110
0010
0000
1100
0000
,
0101
0000
0000
0101
0000
0000
1001
0000
,
0110
0000
0000
0110
0010
0000
1100
0000
,
0101
0000
0000
1001
0000
0000
0110
0000
,
0101
0000
0000
1001
0000
0000
0110
0000
,
0020
0000
0000
1000
0001
0000
1000
0000
0001
0000
1000
0000
0001
0000
0000
0000
,
0100
0000
0000
1000
0001
0000
0100
0000
0001
0000
0100
0000
0001
0000
0000
0000
,
1030
0000
0000
0001
0100
0000
0010
0000
1000
0000
0010
0000
1000
0000
0000
0000
,
0001
0000
0000
0100
0010
0000
0100
0000
0001
0000
0100
0000
0001
0000
0000
0000
,
0010
0000
0000
1000
0001
0000
0100
0000
0001
0000
1000
0000
0001
0000
0000
0000
,
0100
0000
0000
1000
0010
0000
0100
0000
0001
0000
0100
0000
0001
0000
0000
0000
,
2000
0000
0001
0010
3001
0100
1000
0000
,
0010
0000
0100
0001
1000
0001
1000
0000
,
0101
0000
0001
1000
0001
0100
0010
0000
,
0100
0000
0001
1000
0100
0000
0001
0000
,
1010
0000
0100
0001
1000
0001
0100
0000
,
0010
0000
0001
0100
1000
0100
0001
0000
,
0110
0000
0100
0001
1000
0010
1000
0000
,
0100
0000
0010
0100
2000
0000
3001
0000
,
0100
0000
0010
1000
0001
0100
0001
0000
,
0011
0000
0000
1000
0010
0000
0100
0000
0001
0000
1000
0000
0001
0000
0000
0000
,
0020
0000
0000
0001
0001
0000
0000
0100
0230
0000
0000
0001
0302
0000
0000
1000
,
2003
0000
0000
0001
0001
0000
0000
0010
0010
0000
0000
0100
3100
0000
0000
0001
,
0002
0000
0000
1000
1000
0000
0000
0100
0203
0000
0000
0010
0320
0000
0000
1000
,
2030
0000
0000
0001
0001
0000
0000
0100
0100
0000
0000
0001
3001
0000
0000
0010
,
0020
0000
0000
0001
0001
0000
0000
0100
0230
0000
0000
1000
2300
0000
0000
0001
,
3002
0000
0000
0010
0010
0000
0000
1000
1000
0000
0000
0100
0100
0000
0000
0100
,
0203
0000
0000
0001
1000
0000
0000
0010
1000
0000
0000
0010
1000
0000
0000
1000
,
0320
0000
0000
0001
0100
0000
0000
0001
0100
0000
0000
0001
1000
0000
0000
0001
,
2000
0000
0000
0000
,
0000
0000
0000
0000
0000
0000
0000
0000
3030
0000
0000
0010
0010
0000
0000
0010
,
0010
0000
0000
0010
0010
0000
0000
0010
0010
0000
0000
0010
0010
0000
0000
0000
;

//---------------dance-single - ----------------
#NOTEDATA:;
#CHARTNAME:;
#STEPSTYPE:dance-single;
#DESCRIPTION:;
#CHARTSTYLE:;
#DIFFICULTY:Beginner;
#METER:1;
#RADARVALUES:0.058008,0.112549,0.076504,0.041194,0.000000,138.000000,112.000000,26.000000,14.000000,0.000000,0.000000,0.000000,0.000000,0.000000,0.058008,0.112549,0.076504,0.041194,0.000000,138.000000,112.000000,26.000000,14.000000,0.000000,0.000000,0.000000,0.000000,0.000000;
#CREDIT:;
#NOTES:
0000
0000
0000
0000
,
0000
0000
0000
0000
,
0000
0000
0000
0000
,
0000
0000
0000
0000
,
0000
0000
0000
0000
,
0100
0000
0000
0000
,
0100
0000
0000
0000
,
0001
0000
0000
0000
,
0001
0000
0000
0000
,
1000
0000
0000
0000
,
1000
0000
0000
0000
,
0010
0000
0000
0000
,
0010
0000
0000
0000
,
0100
0000
0000
0000
,
0001
0000
0000
0000
,
1000
0000
0000
0000
,
0010
0000
0000
0000
,
0100
0000
0000
0000
,
1000
0000
0000
0000
,
0001
0000
0000
0000
,
0001
0000
0000
0000
,
0011
0000
0000
0000
,
0010
0000
0000
0000
,
1100
0000
0000
0000
,
0100
0000
0000
0000
,
0110
0000
0000
0000
,
0010
0000
0000
0000
,
1100
0000
0000
0000
,
0001
0000
0000
0000
,
0101
0000
0000
0000
,
0001
0000
0000
0000
,
0110
0000
0000
0000
,
1000
0000
0000
0000
,
0110
0000
0000
0000
,
1000
0000
0000
0000
,
0101
0000
0000
0000
,
0001
0000
0000
0000
,
1001
0000
0000
0000
,
0010
0000
0000
0000
,
0110
0000
0000
0000
,
1000
0000
0000
0000
,
1001
0000
0000
0000
,
0001
0000
0000
0000
,
0101
0000
0000
0000
,
0010
0000
0000
0000
,
0120
0000
0000
0000
,
0030
0000
0000
0000
,
0102
0000
0000
0000
,
0003
0000
0000
0000
,
2100
0000
0000
0000
,
3000
0000
0000
0000
,
0210
0000
0000
0000
,
0300
0000
0000
0000
,
0010
0000
0000
0000
,
0010
0000
0000
0000
,
0001
0000
0000
0000
,
1000
0000
0000
0000
,
0001
0000
0000
0000
,
0100
0000
0000
0000
,
0001
0000
0000
0000
,
1000
0000
0000
0000
,
0000
0000
0000
0000
,
0000
0000
0100
0000
,
0001
0000
0000
1000
,
1000
0000
0000
0000
,
0000
0000
0000
0000
,
0110
0000
0000
0000
,
0000
0000
0100
0100
,
0100
0000
0000
0000
,
0001
0000
0000
0000
,
1000
0000
1000
0000
,
0100
0000
0001
0000
,
0100
0000
0001
0000
,
1000
0000
0010
0000
,
0001
0000
0000
0000
,
0100
0000
0000
0000
,
0001
0000
0000
0000
,
1000
0000
0000
0000
,
0110
0000
0000
0000
,
0002
0000
0003
0000
,
0000
0000
0000
0000
,
0010
0000
0000
0000
,
0200
0000
0300
0000
,
0010
0000
0000
0000
,
2000
0000
3000
0000
,
0000
0000
0000
0000
,
0010
0000
0000
0000
,
0010
0000
0000
0000
,
0100
0000
0000
0000
,
0001
0000
0000
1000
,
1000
0000
0000
0000
,
0010
0000
0000
0000
,
0100
0000
0000
0000
,
0001
0000
0000
0000
,
0101
0000
0000
0000
,
1001
0000
0000
0000
,
1100
0000
0000
0000
,
0110
0000
0000
0000
,
1010
0000
0000
0000
,
1010
0000
0000
0000
,
0110
0000
0000
0000
,
0101
0000
0000
0000
,
0020
0000
0000
0000
,
0000
0000
0000
0000
,
0030
0000
0000
0000
,
0000
0000
0000
0000
,
0000
0000
0000
0000
,
0000
0000
0000
0000
,
0100
0000
0000
0000
,
0000
0000
0000
0000
,
0010
0000
0000
0000
,
0010
0000
0000
0000
,
1000
0000
0000
0000
,
1000
0000
0000
0000
,
0001
0000
0000
0000
,
0001
0000
0000
0000
,
0100
0000
0000
0000
,
0100
0000
0000
0000
,
2000
0000
0000
0000
,
3000
0000
0000
0000
,
0002
0000
0000
0000
,
0003
0000
0000
0000
,
0200
0000
0000
0000
,
0300
0000
0000
0000
,
0002
0000
0000
0000
,
2003
0000
0000
0000
,
0002
0000
0000
0000
,
0000
0000
3003
0000
;

//---------------dance-single - ----------------
#NOTEDATA:;
#CHARTNAME:;
#STEPSTYPE:dance-single;
#DESCRIPTION:;
#CHARTSTYLE:;
#DIFFICULTY:Easy;
#METER:2;
#RADARVALUES:0.102986,0.168823,0.035309,0.182432,0.000000,245.000000,233.000000,12.000000,62.000000,0.000000,0.000000,0.000000,0.000000,0.000000,0.102986,0.168823,0.035309,0.182432,0.000000,245.000000,233.000000,12.000000,62.000000,0.000000,0.000000,0.000000,0.000000,0.000000;
#CREDIT:;
#NOTES:
0000
0000
0000
0000
,
0000
0000
0000
0000
,
0000
0000
0000
0000
,
0000
0000
0000
0000
,
0000
0000
0000
0000
,
0001
0001
0000
0000
,
0001
0001
0000
0000
,
1000
1000
0000
0000
,
0100
0100
0000
0000
,
0010
0010
0000
0000
,
0100
0100
0000
0000
,
0001
0001
0000
0000
,
1000
1000
0000
0000
,
0010
0000
0010
0000
,
0100
0000
0100
0000
,
1000
0000
1000
0000
,
0001
0000
0001
0000
,
0100
0000
0100
0000
,
0001
0000
0001
0000
,
1000
0000
0001
0000
,
1000
0000
0001
0000
,
0020
0000
0130
0000
,
1000
0000
0100
0000
,
0002
0000
0013
0000
,
1000
0000
0100
0000
,
2000
0000
3010
0000
,
0001
0000
0100
0000
,
0020
0000
0031
0000
,
0100
0000
0001
0000
,
2000
0000
3001
0000
,
0001
0000
0010
0010
,
0020
0000
0130
0000
,
1000
0000
0001
0001
,
0002
0000
0103
0000
,
0010
0000
1000
1000
,
2000
0000
3001
0000
,
0100
0000
0100
0000
,
0110
0000
0000
0000
,
0010
0000
0001
0001
,
0101
0000
0000
0000
,
0100
0000
0010
0010
,
0110
0000
0000
0000
,
1000
0000
0001
0001
,
0011
0000
0000
0000
,
1000
0000
1000
1000
,
0020
0000
0130
0000
,
0001
0000
1000
0000
,
0002
0000
0013
0000
,
0010
0000
0100
0000
,
0200
0000
0301
0000
,
1000
0000
0001
0000
,
0020
0000
1030
0000
,
0100
0000
1000
0000
,
0002
0000
0013
0000
,
0001
0000
0100
0000
,
0020
0000
0130
0000
,
1000
0000
0001
0000
,
0200
0000
0301
0000
,
0010
0000
0001
0000
,
2000
0000
3001
0000
,
0010
0000
0010
0000
,
0010
0000
0000
0000
,
0110
0000
1000
0000
,
0100
0000
0001
0010
,
0020
0000
0130
0000
,
1000
0000
0100
0000
,
0002
0000
0103
0000
,
0010
0000
0010
0010
,
2000
0000
3001
0100
,
0020
0000
0130
0000
,
1100
0000
0000
1000
0000
0000
0000
0000
,
0101
0000
0000
0001
0000
0000
0000
0000
,
1001
0000
0000
0010
0000
0000
0000
0000
,
1010
0000
0000
0100
0000
0000
0000
0000
,
0010
0000
0010
0000
,
0100
0000
1000
0000
,
0002
0000
0103
0000
,
0020
0000
0130
0000
,
0100
0100
1000
1000
,
0020
0000
0100
0000
,
2000
0000
0000
0000
,
3030
1000
0010
0010
,
0002
0000
1000
0000
,
0200
0000
0000
0303
,
0200
0000
0001
0000
,
0020
0000
0000
0330
,
1001
0000
0100
0001
,
0101
0000
0001
1000
,
0001
0000
1000
1000
,
1000
0000
0100
0000
,
0110
0000
0100
0000
,
0010
0000
0010
0000
,
0100
0000
0100
0000
,
0001
1000
1000
0000
,
0020
0000
0230
0000
,
0302
0000
2003
0000
,
3002
0000
2003
0000
,
3200
0000
2300
0000
,
3002
0000
0023
0000
,
0032
0000
0203
0000
,
0302
0000
2003
0000
,
3200
0000
0320
0000
,
2000
0000
0000
0000
,
0000
3030
0000
0000
,
0000
0000
0000
0000
,
0000
0000
0000
0000
,
0000
0000
0000
0000
,
0000
0000
0000
0000
,
0010
0000
0010
0000
,
0100
0000
0100
0000
,
0002
0000
1000
0000
,
0013
0000
2000
0000
,
3020
0000
0100
0000
,
0130
0000
1000
0000
,
0002
0000
0010
0000
,
1003
0000
0200
0000
,
0320
0000
0001
0030
,
2000
0000
0000
3000
,
0002
0000
0000
0000
,
2000
0000
0000
3003
,
0020
0000
0000
0000
,
0200
0000
0000
0330
,
2000
0000
0000
0000
,
0200
0000
0000
3300
,
0002
0000
0000
0000
,
0023
0000
0000
2030
,
0002
0000
0000
0000
,
0000
0000
3003
0000
;

//---------------dance-single - ----------------
#NOTEDATA:;
#CHARTNAME:;
#STEPSTYPE:dance-single;
#DESCRIPTION:;
#CHARTSTYLE:;
#DIFFICULTY:Medium;
#METER:4;
#RADARVALUES:0.201768,0.225097,0.055907,0.155950,0.004414,480.000000,461.000000,19.000000,53.000000,0.000000,0.000000,0.000000,0.000000,0.000000,0.201768,0.225097,0.055907,0.155950,0.004414,480.000000,461.000000,19.000000,53.000000,0.000000,0.000000,0.000000,0.000000,0.000000;
#CREDIT:;
#NOTES:
// measure 0
0000
0000
0000
0000
,  // measure 1
0002
0000
0000
0000
,  // measure 2
2003
0000
0000
0000
,  // measure 3
3020
0000
0000
0000
,  // measure 4
0230
0000
0000
0000
,  // measure 5
0301
0001
0001
0001
,  // measure 6
0010
0010
0010
0010
,  // measure 7
0100
0100
1000
1000
,  // measure 8
0001
0001
0100
0100
,  // measure 9
0010
0010
0100
0100
,  // measure 10
0001
0001
1000
1000
,  // measure 11
1000
1000
0001
0001
,  // measure 12
0100
0100
0010
0010
,  // measure 13
0010
0010
0001
1000
,  // measure 14
0100
0001
1000
0010
,  // measure 15
0001
0100
0100
0100
,  // measure 16
0010
1000
0100
0001
,  // measure 17
1000
0010
0001
0001
,  // measure 18
0100
0001
0100
0001
,  // measure 19
0010
1000
0010
1000
,  // measure 20
0100
0010
0100
0010
,  // measure 21
0012
0000
1000
0000
0103
0000
0100
0010
,  // measure 22
0001
0000
1000
0000
0010
0000
0100
1000
,  // measure 23
0200
0000
0010
0000
0310
0000
0001
0100
,  // measure 24
0001
0000
1000
0000
0001
0000
1000
0100
,  // measure 25
0200
0000
1000
0000
0301
0000
0010
1000
,  // measure 26
0100
0000
0010
0000
1000
0000
0001
0001
,  // measure 27
2000
0000
0001
0000
3100
0000
0001
0100
,  // measure 28
0010
1000
1000
1000
,  // measure 29
0002
0000
0010
0000
0013
0000
1000
0001
,  // measure 30
0100
0000
0000
0000
0100
0000
0000
0000
0010
0000
0000
0010
0000
0000
0000
0000
,  // measure 31
0200
0001
0310
0001
,  // measure 32
0010
0000
0000
0000
0100
0000
0000
0000
1000
0000
0000
1000
0000
0000
0000
0000
,  // measure 33
0002
0100
0013
1000
,  // measure 34
0001
0000
0000
0000
0100
0000
0000
0000
0010
0000
0000
0100
0000
0000
0000
0000
,  // measure 35
0020
0100
0130
0001
,  // measure 36
1000
1000
1000
1000
,  // measure 37
1010
0000
0100
0001
0000
0001
0100
0000
,  // measure 38
0010
0000
1000
0010
0000
0010
1000
0000
,  // measure 39
0100
0000
0010
0001
0000
0001
1000
0000
,  // measure 40
0100
0000
0001
0100
0000
0100
1000
0000
,  // measure 41
0010
0000
0010
0100
0000
0100
1000
0000
,  // measure 42
0001
0000
0100
0001
0000
0001
1000
0000
,  // measure 43
0010
0000
0100
0010
0000
0100
0010
0000
,  // measure 44
1000
0000
0001
0100
0000
0001
0100
0000
,  // measure 45
0010
0000
0000
0000
0010
0000
1000
0001
,  // measure 46
0100
0000
1000
0001
,  // measure 47
0010
0000
0000
0000
0100
0000
0001
0010
,  // measure 48
0100
0000
0001
0000
,  // measure 49
1000
0000
0000
0000
0010
0000
1000
0100
,  // measure 50
0001
0000
0010
0100
,  // measure 51
0001
0000
0000
0000
1000
0000
0100
1000
,  // measure 52
0010
0000
0100
0000
,  // measure 53
0120
0000
0000
0000
1030
0000
0100
0001
,  // measure 54
0010
0000
1000
0000
0001
0000
0001
0010
,  // measure 55
2000
0000
0000
0000
3010
0000
0100
0001
,  // measure 56
1000
0010
0010
0100
,  // measure 57
0102
0000
0000
0000
0013
0000
1000
0001
,  // measure 58
1000
0100
0001
1000
,  // measure 59
0010
0010
0010
0010
,  // measure 60
1000
1000
0001
0001
,  // measure 61
0000
0000
0000
0000
,  // measure 62
0020
0000
0000
0000
,  // measure 63
0130
0001
0100
0000
0010
0000
0010
0000
,  // measure 64
1000
0000
1000
0000
0001
1000
0100
0000
,  // measure 65
0001
1000
1000
0001
,  // measure 66
0200
0010
0301
0010
,  // measure 67
1000
0000
0010
0000
0100
0100
0100
0100
,  // measure 68
2000
0010
3001
0010
,  // measure 69
0200
0010
0010
0300
,  // measure 70
0001
1000
0000
1000
0001
0000
0100
0000
,  // measure 71
0010
1000
0000
1000
0010
0000
0100
0000
,  // measure 72
0100
1000
0000
1000
0001
0000
0100
0000
,  // measure 73
0001
1000
0000
1000
0010
0000
0100
0000
,  // measure 74
0001
0000
0001
0000
0010
0100
0100
1000
,  // measure 75
0001
0000
0100
0000
0010
0000
0100
0100
,  // measure 76
2000
0010
0100
0010
,  // measure 77
3002
0010
0010
0103
,  // measure 78
1000
0001
1000
0000
1000
0000
1000
0000
,  // measure 79
1020
1000
1030
1000
,  // measure 80
1000
0100
1000
0000
1000
0000
1000
0000
,  // measure 81
1000
0001
1000
0000
1000
0000
1000
0000
,  // measure 82
1002
1000
1003
1000
,  // measure 83
1000
0010
1000
0000
1000
0000
1000
0000
,  // measure 84
1200
1000
1300
1000
,  // measure 85
1000
0010
1000
0000
1000
0000
1000
0000
,  // measure 86
0001
0001
1000
0010
,  // measure 87
0100
0000
0100
0000
1000
0001
1000
0001
,  // measure 88
0100
0000
0100
0000
0010
1000
0010
1000
,  // measure 89
0000
0000
0001
0000
0100
0000
0010
0001
,  // measure 90
0100
0001
1000
0001
,  // measure 91
1000
0000
0010
0000
0100
0000
0010
0010
,  // measure 92
0100
0100
1000
0001
,  // measure 93
0020
0100
0100
0130
,  // measure 94
1010
0000
0000
1000
0000
0000
0001
0000
,  // measure 95
0101
0000
0000
0010
0100
0000
1000
0000
,  // measure 96
0101
0000
0000
0100
0000
0000
0010
0000
,  // measure 97
1001
0000
0000
1000
0001
0000
0100
0000
,  // measure 98
0110
0000
0000
0001
0000
0000
0100
0000
,  // measure 99
1100
0000
0000
0010
0100
0000
1000
0000
,  // measure 100
1001
0000
0000
0010
0000
0000
0100
0000
,  // measure 101
0101
0000
0000
0010
0000
0000
0100
0000
,  // measure 102
0220
0000
0000
0000
,  // measure 103
0000
0000
0000
0000
,  // measure 104
0330
0000
0000
0000
,  // measure 105
0000
0000
0000
0000
,  // measure 106
0000
0000
0000
0000
,  // measure 107
0000
0000
0000
0000
,  // measure 108
0020
0000
0100
0000
,  // measure 109
1030
0000
1000
0000
,  // measure 110
0022
0033
0100
0010
,  // measure 111
1000
0100
0010
0010
,  // measure 112
2020
3030
0100
0001
,  // measure 113
1000
0001
0100
0001
,  // measure 114
0220
0330
1000
0001
,  // measure 115
0100
0001
0020
0130
,  // measure 116
0200
0301
1000
0001
,  // measure 117
0020
1030
0001
1000
,  // measure 118
0002
0000
0023
0230
,  // measure 119
2000
0000
0000
3300
,  // measure 120
0020
0000
0230
0302
,  // measure 121
2000
0000
0000
3003
,  // measure 122
0020
0000
0032
2003
,  // measure 123
0002
0000
0000
3003
,  // measure 124
0020
0000
0000
0000
,  // measure 125
2000
0000
0030
3200
,  // measure 126
0002
0000
0000
0000
,  // measure 127
0000
0000
0303
0000
;
