#TITLE:Sirius 909;
#SUBTITLE:;
#ARTIST:Rom Di Prisco;
#TITLETRANSLIT:;
#SUBTITLETRANSLIT:;
#ARTISTTRANSLIT:;
#GENRE:;
#CREDIT:;
#BANNER:;
#BACKGROUND:background.png;
#LYRICSPATH:;
#CDTITLE:;
#MUSIC:Sirius 909.mp3;
#OFFSET:0.000000;
#SAMPLESTART:67.511002;
#SAMPLELENGTH:12.000000;
#SELECTABLE:YES;
#BPMS:0.000000=71.000000
,16.000000=142.250000
,336.000000=71.000000
;
#STOPS:
;
#BGCHANGES:;
#KEYSOUNDS:;
#ATTACKS:;

//---------------dance-single - ----------------
#NOTES:
     dance-single:
     :
     Hard:
     8:
     0.512618,0.526287,0.412657,0.269124,0.236231,600.000000,531.000000,69.000000,45.000000,0.000000,0.000000,0.512618,0.526287,0.412657,0.269124,0.236231,600.000000,531.000000,69.000000,45.000000,0.000000,0.000000:
// measure 0
0000
0000
0000
0000
,  // measure 1
0000
0000
0000
0000
,  // measure 2
0000
0000
0000
0000
,  // measure 3
0000
0000
0000
0000
,  // measure 4
0001
0000
0000
0001
0000
0000
0100
0000
0000
0100
0000
0000
0100
0000
0001
0000
,  // measure 5
0010
0000
0000
0010
0000
0000
0100
0000
0000
0000
0000
0000
0100
0000
0001
0000
,  // measure 6
1000
0000
0000
1000
0000
0000
0001
0000
0000
1000
0000
0000
0100
0000
0010
0000
,  // measure 7
0010
0000
0000
0100
0000
0000
0001
0000
0000
0000
0000
0000
0001
0000
1000
0000
,  // measure 8
0100
0000
0000
0010
0000
0000
0010
0000
0000
1000
0000
0000
0001
0000
1000
0000
,  // measure 9
0100
0000
0000
0100
0000
0000
0010
0000
0000
0000
0000
0000
0001
0000
1000
0000
,  // measure 10
0100
0000
0000
0100
0000
0000
0100
0000
0000
0001
0000
0000
0001
0000
1000
0000
,  // measure 11
0100
0000
0000
0100
0000
0000
0001
0000
0000
0000
0000
0000
0100
0000
0010
0000
,  // measure 12
0001
0010
1000
0100
0001
1000
0001
0100
,  // measure 13
0001
1000
0010
0001
0100
0001
1000
0010
,  // measure 14
0100
0000
0010
0000
1000
0000
0001
0100
0000
0100
0001
0000
0010
0000
1000
0000
,  // measure 15
0100
0000
0001
0000
1000
0000
0001
0010
0000
0010
1000
0000
0100
0000
0001
0000
,  // measure 16
1000
0001
0100
0001
1000
0010
0100
0010
,  // measure 17
1000
0100
0001
0100
0001
1000
0010
0100
,  // measure 18
0001
0000
1000
0000
0001
0000
0100
0010
0000
0010
1000
0000
0100
0000
0010
0000
,  // measure 19
0100
0000
0001
0000
1000
0000
0001
0010
0000
0010
1000
0000
0100
0000
0001
0000
,  // measure 20
1000
0001
1000
0001
0100
0010
0001
0100
,  // measure 21
0001
1000
0010
0100
0001
1000
0001
1000
,  // measure 22
0100
0000
0001
0000
0100
0000
0010
1000
0000
1000
0001
0000
0100
0000
0010
0000
,  // measure 23
0001
0000
1000
0000
0010
0000
0001
0100
0000
0100
1000
0000
0010
0000
0010
0000
,  // measure 24
0010
0001
1000
0001
0100
1000
0010
0100
,  // measure 25
0010
1000
0001
0100
0001
1000
0100
0001
,  // measure 26
1000
0000
0001
0000
0100
0000
0010
0001
0000
0001
1000
0000
0010
0000
0100
0000
,  // measure 27
0001
0000
1000
0000
0100
0000
1000
0010
0000
0010
0100
0000
0001
0000
0100
0000
,  // measure 28
0010
0000
0100
0000
0001
0000
2000
0002
0000
0000
3003
0000
0000
0000
0000
0000
,  // measure 29
0010
0000
0100
0000
0010
0000
0002
0200
0000
0000
0303
0000
0000
0000
0000
0000
,  // measure 30
1000
0000
0010
0000
1000
0000
0020
0200
0000
0000
0330
0000
0000
0000
0000
0000
,  // measure 31
0001
0000
0100
0000
1000
0000
0020
0200
0000
0000
0330
0000
0000
0000
0000
0000
,  // measure 32
0010
0000
1000
0000
0010
0000
0002
0200
0000
0000
0303
0000
0000
0000
0000
0000
,  // measure 33
1000
0000
0100
0000
0001
0000
2000
0020
0000
0000
3030
0000
0000
0000
0000
0000
,  // measure 34
0010
0000
0100
0000
0010
0000
0200
0002
0000
0000
0303
0000
0000
0000
0000
0000
,  // measure 35
2020
0000
0000
3030
,  // measure 36
0101
0101
1010
1010
,  // measure 37
1100
1100
0101
0101
,  // measure 38
0010
0000
0001
0000
0100
0000
0010
1000
0000
1000
0100
0000
0001
0000
0100
0000
,  // measure 39
0001
0000
1000
0000
0010
0000
0001
0100
0000
0100
1000
0000
0010
0000
0100
0000
,  // measure 40
0011
1010
0110
1100
,  // measure 41
0101
1001
1001
0110
,  // measure 42
0001
0000
0100
0000
1000
0000
0010
0100
0000
0100
0001
0000
1000
0000
0001
0000
,  // measure 43
0100
0000
0001
0000
1000
0000
0010
0100
0000
0100
0001
0000
1000
0000
0100
0000
,  // measure 44
0001
0000
0100
0000
1010
0000
0000
0011
0000
0000
0110
0000
0000
0000
0000
0000
,  // measure 45
0001
0100
0001
1000
0010
1000
0100
1000
,  // measure 46
0010
0000
0100
0000
0011
0000
0000
1100
0000
0000
0110
0000
0000
0000
0000
0000
,  // measure 47
0010
0000
0100
0000
0001
0000
1000
0010
0000
0010
0100
0000
0001
0000
1000
0000
,  // measure 48
0010
0000
0100
0000
0101
0000
0000
0101
0000
0000
1001
0000
0000
0000
0000
0000
,  // measure 49
0001
0100
0001
1000
0010
0100
1000
0100
,  // measure 50
0001
0000
1000
0000
1010
0000
0000
0101
0000
0000
0101
0000
0000
0000
0000
0000
,  // measure 51
0010
0000
0100
0000
0001
0000
1000
0100
0000
0100
1000
0000
0010
0000
0100
0000
,  // measure 52
0001
0000
0100
0000
0110
0000
0000
0101
0000
0000
1100
0000
0000
0000
0000
0000
,  // measure 53
0001
0100
0010
1000
0100
0001
1000
0001
,  // measure 54
0100
0000
0010
0000
1100
0000
0000
0101
0000
0000
0110
0000
0000
0000
0000
0000
,  // measure 55
0010
0000
0100
0000
0001
0000
0010
1000
0000
1000
0100
0000
0001
0000
1000
0000
,  // measure 56
0010
0000
0100
0000
0101
0000
0000
0101
0000
0000
1001
0000
0000
0000
0000
0000
,  // measure 57
0010
0100
0001
1000
0001
0100
0001
1000
,  // measure 58
0010
0000
0100
0000
1001
0000
0000
0110
0000
0000
0110
0000
0000
0000
0000
0000
,  // measure 59
0001
0000
0100
0000
0001
0000
0010
1000
0000
0100
0001
0000
0010
0000
1000
0000
,  // measure 60
0101
0000
2010
0000
3001
0020
0000
0200
,  // measure 61
0330
0000
1000
0001
1000
0010
0000
0100
,  // measure 62
0110
0000
0102
0000
0013
0200
0000
2000
,  // measure 63
3300
0000
0100
0010
0100
0001
0000
1000
,  // measure 64
0101
0000
0102
0000
1003
0200
0000
0002
,  // measure 65
0303
0000
0001
0100
0001
1000
0000
0010
,  // measure 66
1001
0000
1200
0000
0301
0020
0000
0200
,  // measure 67
0330
0000
1000
0001
1000
0001
0000
1000
,  // measure 68
0110
0000
2100
0000
3010
0002
0000
0200
,  // measure 69
0303
0000
0100
0001
1000
0001
0100
1000
,  // measure 70
0101
0000
0120
0000
0031
2000
0000
0002
,  // measure 71
3003
0000
0000
0000
0001
0000
0010
0100
0000
0100
0001
0000
0010
0000
0001
0000
,  // measure 72
1100
0000
0012
0000
0103
2000
0000
0020
,  // measure 73
3030
0000
0001
1000
0001
0100
0010
0100
,  // measure 74
1010
0000
1200
0000
0310
0002
0000
0200
,  // measure 75
0303
0000
0000
0000
0010
0000
1000
0100
0000
0100
0001
0000
0010
0000
1000
0000
,  // measure 76
0001
0000
0100
0000
0110
0000
0000
0101
0000
0000
1001
0000
0000
0000
0000
0000
,  // measure 77
0010
0100
0001
0100
0001
0100
0001
0100
,  // measure 78
0010
0000
0000
0000
1001
0000
0000
0101
0000
0000
0110
0000
0000
0000
0000
0000
,  // measure 79
1000
0000
0001
0000
0100
0000
0010
0100
0000
0001
0100
0000
0010
0000
1000
0000
,  // measure 80
0001
0000
1000
0000
0101
0000
0000
1001
0000
0000
1100
0000
0000
0000
0000
0000
,  // measure 81
0010
0100
0001
1000
0001
0100
0100
0100
,  // measure 82
0010
0000
0000
0000
1100
0000
0000
0110
0000
0000
0110
0000
0000
0000
0000
0000
,  // measure 83
0100
0000
0001
0000
1000
0000
0010
0001
0000
1000
0001
0000
0100
0000
0010
0000
,  // measure 84
0200
0000
0000
0000
1000
0000
0000
0010
0000
0000
0010
0000
0000
0000
0000
0000
0000
0000
0000
0000
0000
0000
0000
0000
0000
0000
0000
0000
0000
0000
0000
0000
,  // measure 85
0302
0000
0000
0000
0010
0000
0000
0100
0000
0000
0100
0000
0000
0000
0000
0000
0000
0000
0000
0000
0000
0000
0000
0000
0000
0000
0000
0000
0000
0000
0000
0000
,  // measure 86
0023
0000
0000
0000
0100
0000
0000
0001
0000
0000
0100
0000
0000
0000
0000
0000
0000
0000
0000
0000
0000
0000
0000
0000
0000
0000
0000
0000
0000
0000
0000
0000
,  // measure 87
2030
0000
0000
0000
0001
0000
0000
0100
0000
0000
0010
0000
0000
0000
0000
0000
0000
0000
0000
0000
0000
0000
0000
0000
0002
0000
0000
0000
0000
0000
0000
0000
,  // measure 88
3003
0000
0000
0000
;
