#VERSION:0.83;
#TITLE:Silent Me;
#SUBTITLE:;
#ARTIST:Fresh Moods;
#TITLETRANSLIT:;
#SUBTITLETRANSLIT:;
#ARTISTTRANSLIT:;
#GENRE:;
#ORIGIN:;
#CREDIT:;
#BANNER:;
#BACKGROUND:;
#PREVIEWVID:;
#JACKET:jacket.PNG;
#CDIMAGE:;
#DISCIMAGE:;
#LYRICSPATH:;
#CDTITLE:;
#MUSIC:Silent Me (128kbit_AAC).ogg;
#OFFSET:0.103000;
#SAMPLESTART:251.701004;
#SAMPLELENGTH:18.000000;
#SELECTABLE:YES;
#BPMS:0.000=61.000,
16.000=122.000,
104.000=61.000,
108.000=122.000,
471.000=61.000,
471.500=122.000,
472.500=61.000,
473.000=122.000,
474.000=61.000,
474.500=122.000,
475.500=61.000,
476.000=122.000,
477.000=61.000,
477.500=122.000,
478.500=61.000,
479.000=122.000,
480.000=61.000,
480.500=122.000,
481.500=61.000,
482.000=122.000,
483.000=61.000,
483.500=122.000,
484.500=61.000,
485.000=122.000,
486.000=61.000,
486.500=122.000,
487.500=61.000,
488.000=122.000,
489.000=61.000,
489.500=122.000,
490.500=61.000,
491.000=122.000,
492.000=61.000,
492.500=122.000,
493.500=61.000,
494.000=122.000;
#STOPS:204.000=0.492,
207.000=0.492,
210.000=0.492,
213.000=0.492,
216.000=0.491,
219.000=0.492,
222.000=0.492,
293.000=0.492,
296.000=0.492,
299.000=0.492,
302.000=0.491,
305.000=0.492,
308.000=0.492,
311.000=0.492,
318.000=0.492,
321.000=0.492,
324.000=0.492,
327.000=0.492,
330.000=0.492,
333.000=0.491,
336.000=0.492,
527.000=0.491,
530.000=0.492,
533.000=0.492,
536.000=0.492,
539.000=0.492,
542.000=0.491,
545.000=0.492,
552.000=0.491,
555.000=0.492,
558.000=0.492,
561.000=0.492,
564.000=0.492,
567.000=0.491,
570.000=0.492;
#DELAYS:;
#WARPS:;
#TIMESIGNATURES:0.000=4=4;
#TICKCOUNTS:0.000=4;
#COMBOS:0.000=1;
#SPEEDS:0.000=0.500=0.000=0,
16.000=1.000=0.000=0,
104.000=0.700=3.000=0,
107.000=1.000=1.000=0,
407.000=0.700=12.000=0,
439.000=0.400=12.000=0,
471.000=1.000=0.000=0,
673.000=0.500=16.000=0,
689.000=1.000=8.000=0;
#SCROLLS:0.000=1.000;
#FAKES:;
#LABELS:0.000=Song Start;
#BGCHANGES:;
#KEYSOUNDS:;
#ATTACKS:
;

//---------------dance-single - ----------------
#NOTEDATA:;
#CHARTNAME:;
#STEPSTYPE:dance-single;
#DESCRIPTION:;
#CHARTSTYLE:;
#DIFFICULTY:Hard;
#METER:7;
#RADARVALUES:0.411721,0.433882,0.065620,0.089244,0.091869,1098.000000,1073.000000,25.000000,34.000000,0.000000,0.000000,0.000000,0.000000,0.000000,0.411721,0.433882,0.065620,0.089244,0.091869,1098.000000,1073.000000,25.000000,34.000000,0.000000,0.000000,0.000000,0.000000,0.000000;
#CREDIT:;
#NOTES:
// measure 0
0000
0000
0000
0000
,  // measure 1
0000
0000
0000
0000
,  // measure 2
0000
0000
0000
0000
,  // measure 3
0000
0000
0000
0000
,  // measure 4
0100
0000
0010
0000
0001
0100
1000
0000
,  // measure 5
0100
0000
0001
0000
0100
0010
0100
0000
,  // measure 6
1000
0000
0100
0000
0001
1000
0001
0000
,  // measure 7
0100
0000
0000
0000
0010
0000
1000
0001
0000
0000
0001
0000
0100
0000
0000
0000
,  // measure 8
0010
0000
0100
0000
0001
0100
1000
0000
,  // measure 9
0010
0000
0010
0000
0001
0100
0010
0000
,  // measure 10
1000
0000
0100
0000
0010
0100
0010
0000
,  // measure 11
0001
0000
0000
0000
0100
0000
0010
1000
0000
0000
1000
0000
0001
0000
1000
0000
,  // measure 12
0100
0000
0010
0000
0100
0001
0100
0000
,  // measure 13
0010
0000
1000
0000
0100
0001
0100
0000
,  // measure 14
0010
0000
0001
0000
0100
0001
0010
0000
,  // measure 15
0001
0000
0100
0001
0000
0001
1000
0001
,  // measure 16
1000
0000
0100
0000
1000
0001
0100
0000
,  // measure 17
1000
0000
0010
0000
0001
0100
0001
0000
,  // measure 18
0010
0000
0000
0000
0100
0000
0000
0001
0000
0000
0010
0000
0100
0000
0000
0000
,  // measure 19
0001
0000
0000
0000
1000
0000
0001
0100
0000
0000
0010
0000
0100
0000
0010
0000
,  // measure 20
0110
0000
0100
0000
0001
0100
1000
0000
,  // measure 21
0001
0000
0010
0000
1000
0010
0001
0000
,  // measure 22
0100
0000
0010
0000
0100
0001
1000
0000
,  // measure 23
0010
0000
0000
0000
0100
0000
0001
1000
0000
0000
1000
0000
0010
0000
1000
0000
,  // measure 24
0001
0000
0100
0000
1000
0010
1000
0000
,  // measure 25
0010
0000
0100
0000
0001
0100
1000
0000
,  // measure 26
0020
0000
0000
0030
,  // measure 27
0101
0000
0000
0000
0001
0000
0010
0100
1000
0000
0001
0000
0100
0000
0000
0000
,  // measure 28
0010
0000
0100
0000
0001
0010
0001
0000
,  // measure 29
0100
0000
1000
0000
0100
0010
0100
0000
,  // measure 30
0001
0000
0000
0000
0100
0000
0001
1000
0000
0000
0100
0000
0010
0000
0100
0000
,  // measure 31
0010
0000
0000
0000
0001
0000
0001
0100
1000
0000
0001
0000
1000
0000
0000
0000
,  // measure 32
0100
0000
0001
1000
0000
1000
0010
0100
,  // measure 33
0001
0000
0100
0000
0001
1000
0010
0000
,  // measure 34
0100
0000
0000
0000
0001
0000
0010
0100
0000
0000
0100
0000
0001
0000
1000
0000
,  // measure 35
0010
0000
0000
0000
0100
0000
0001
1000
0010
0000
0100
0000
0001
0000
0000
0000
,  // measure 36
0100
0000
0010
1000
1000
0100
0001
0000
,  // measure 37
0010
0000
1000
0001
0100
0001
0010
0000
,  // measure 38
0100
0000
0000
0000
0001
0000
0010
0100
0000
0000
0100
0000
0001
0000
1000
0000
,  // measure 39
0100
0000
0010
0001
0000
0001
0100
0000
,  // measure 40
1000
0000
0001
1000
0000
1000
0001
0000
,  // measure 41
0100
0000
0000
0000
0010
0000
1000
0001
0100
0000
0010
0000
1000
0000
0000
0000
,  // measure 42
0001
0100
0010
0000
0100
0001
1000
0001
,  // measure 43
1001
0000
0000
0000
0010
0000
0001
1000
0100
0000
0010
0000
1000
0000
0000
0000
,  // measure 44
0100
0000
0001
0100
0000
1000
0010
0000
,  // measure 45
0100
0000
0001
0010
0000
0010
1000
0000
,  // measure 46
0100
0000
0000
0000
0001
0000
1000
0001
0000
0000
0100
0000
0001
0000
0100
0000
,  // measure 47
0010
0000
0000
0000
0001
0000
1000
0100
1000
0000
0010
0000
0100
0000
0000
0000
,  // measure 48
0001
0000
1000
0001
0010
0001
0100
0000
,  // measure 49
0001
0000
0000
0000
0100
0000
1000
0001
0000
0000
0010
0000
1000
0000
0000
0000
,  // measure 50
0010
0000
0000
0000
0001
0000
0100
0010
0000
0000
1000
0000
0100
0000
0001
0000
,  // measure 51
0220
0330
0001
0000
0010
0000
1000
0000
0100
0000
0000
0000
0001
0000
0100
0000
,  // measure 52
0001
1000
0010
0000
0100
0001
1000
0001
,  // measure 53
0100
0000
0010
1000
0100
0001
1000
0010
,  // measure 54
0002
0103
0001
1000
0010
0000
0010
1000
,  // measure 55
0100
0001
1000
0000
0010
1000
0001
0100
,  // measure 56
0001
0000
0000
0000
0010
0000
0100
0000
0010
0000
1000
0001
0000
0000
0001
0000
,  // measure 57
0100
0000
0001
0000
1001
0000
0000
0000
0010
0000
0100
0001
0000
0000
0010
0000
,  // measure 58
1000
0000
0100
0000
0010
0100
1000
0010
,  // measure 59
1000
0000
0001
0000
0100
0001
0000
1000
,  // measure 60
0010
0000
0100
0000
0010
1000
0000
0100
,  // measure 61
0001
0000
1000
0000
0001
0000
0000
0000
0100
0000
0010
0001
0000
0000
1000
0000
,  // measure 62
0100
0001
1000
0000
0001
0100
0001
1000
,  // measure 63
0010
0000
0000
0000
0100
0000
0000
0000
0001
0000
0000
1000
0000
0000
0100
0000
,  // measure 64
0001
0000
0000
0000
1000
0000
0000
0000
0010
0000
0100
0010
0000
0000
0100
0000
,  // measure 65
0010
0000
1000
0000
0101
0000
0000
0000
1000
0000
0010
0100
0000
0000
0001
0000
,  // measure 66
1000
0000
0100
0000
0001
1000
0010
0010
,  // measure 67
0100
0000
0010
0000
1000
0100
0000
0001
,  // measure 68
1000
0000
0001
0000
0100
0010
0100
0010
,  // measure 69
1000
0000
0001
0000
0100
0000
0000
0000
0010
0000
1000
0001
0000
0000
0100
0000
,  // measure 70
0010
1000
0100
0000
0001
1000
0000
0100
,  // measure 71
0001
0000
0000
0000
1000
0000
0000
0000
0010
0000
0100
1000
0000
0000
0100
0000
,  // measure 72
0001
0000
0000
0000
1000
0000
0001
0100
0010
0000
0100
0001
0000
0000
0010
0000
,  // measure 73
1000
0010
1000
0000
0202
0303
1000
0000
0001
0000
0100
0000
0010
0000
0000
0000
,  // measure 74
0100
0001
1000
0001
0100
0000
0020
0031
,  // measure 75
0000
0001
1000
0000
0100
0001
1000
0001
,  // measure 76
0100
1000
0020
1030
0010
0100
0001
0000
,  // measure 77
0200
0300
0001
0000
1000
0000
0001
0000
1000
0000
0000
0000
0020
0030
0100
0000
,  // measure 78
0001
0000
1000
0000
0100
0000
0000
0000
0001
0000
0100
0000
1000
0000
0010
0100
,  // measure 79
0000
0000
0100
0000
0100
0000
0100
0000
2002
3003
0010
0000
0100
0000
0001
0000
,  // measure 80
1000
0000
0100
1000
0001
1000
0001
0000
,  // measure 81
0020
1030
0001
0100
0001
0000
0100
1000
,  // measure 82
0010
1000
0001
0010
0200
0301
1000
0001
,  // measure 83
0100
0000
0001
0100
1000
0001
0100
0000
,  // measure 84
0020
0130
0001
1000
0001
0000
0100
0010
,  // measure 85
0100
0000
0001
1000
0000
0000
0010
0000
0001
0000
0100
0000
1100
0000
0000
0000
,  // measure 86
0001
0000
1000
0100
0000
0000
1000
0000
0100
0000
0000
0000
0001
0000
0000
0000
,  // measure 87
1000
0010
0100
0010
1000
0000
0100
0000
,  // measure 88
0001
1000
0000
0100
0001
0000
0010
0000
,  // measure 89
1000
0010
0001
0100
0001
1000
0010
0000
,  // measure 90
0100
0000
0010
1000
0000
0000
0100
0000
0001
0000
1000
0000
0100
0000
0000
0000
,  // measure 91
0001
1000
0000
1000
0010
0000
0100
0000
,  // measure 92
0001
0000
0000
1000
0000
0000
0010
0000
0100
0000
0000
0000
0001
0000
0000
0000
,  // measure 93
0100
0000
0010
1000
0000
0000
0100
0000
0001
0000
0100
0000
1001
0000
0000
0000
,  // measure 94
0010
0000
0100
0001
1000
0000
0010
0000
0100
0000
0000
0000
0001
0000
0000
0000
,  // measure 95
1000
0100
1000
0001
1000
0000
0010
0000
,  // measure 96
0100
0010
1000
0100
0001
0000
1000
0000
,  // measure 97
0010
0100
0000
0100
0001
1000
0001
0000
,  // measure 98
1000
0000
0001
0100
0001
0000
0010
0000
1000
0000
0000
0000
0100
0000
0000
0000
,  // measure 99
0010
1000
0100
0001
1000
0000
0001
0000
,  // measure 100
0100
0001
1000
0010
0100
0000
0001
0010
,  // measure 101
1000
0000
0000
0000
0010
1000
0000
0000
0010
0000
0100
0000
2010
0000
0001
0000
,  // measure 102
0100
0000
0010
0010
0010
0000
0001
0100
,  // measure 103
0010
0000
0000
0000
0100
0001
0010
0000
0100
0000
0010
0000
3001
0000
0100
0000
,  // measure 104
0001
0000
0000
0000
0010
1000
0010
0000
0100
0000
0001
0000
1000
0000
0001
0000
,  // measure 105
1000
0000
0100
0001
0100
0000
0010
1000
,  // measure 106
0010
0000
0100
0001
1000
0000
0010
0001
,  // measure 107
0100
0000
0000
0000
1000
0100
1000
0000
0010
0000
0100
0000
0001
0000
1000
0000
,  // measure 108
0001
0000
0000
0000
0010
0100
0010
0000
1000
0000
0001
0000
0100
0000
0001
0000
,  // measure 109
1000
0001
0001
1000
0100
0001
2000
0010
,  // measure 110
0001
0000
0100
0001
0010
0000
3001
0100
,  // measure 111
1000
0000
0000
0000
0100
0010
0100
0000
0001
0000
1000
0000
0100
0000
0001
0000
,  // measure 112
0100
0000
0000
0000
0010
1000
0010
0000
0100
0000
0001
0000
1000
0000
0001
0000
,  // measure 113
1000
0000
0000
0000
0010
0000
0100
0000
0010
0000
0000
0001
0100
0000
0001
0000
,  // measure 114
0100
0000
0000
0100
0010
0000
1000
0000
0010
0000
0000
0010
0100
0000
0001
0000
,  // measure 115
1000
0000
0000
0001
0100
0000
0001
0000
1000
0000
0000
0100
0010
0000
0001
0000
,  // measure 116
0200
0000
0000
0000
,  // measure 117
0000
0000
0000
0000
0300
0000
0012
0100
,  // measure 118
0010
0000
0000
0010
0103
0000
0000
0000
2100
0000
0100
0000
0001
0000
0000
0001
,  // measure 119
3100
0000
0000
0000
0120
0000
0100
0000
1000
0000
0000
1000
0031
0000
0000
0000
,  // measure 120
2010
0000
0001
0000
0100
0000
0000
0100
3010
0000
1000
0000
0102
0000
1000
0000
,  // measure 121
0100
0000
0000
0100
0013
0000
0000
0000
0120
0000
1000
0000
0001
0000
0000
0001
,  // measure 122
0130
0000
0000
0000
1020
0000
0100
0000
0001
0000
0000
0001
1030
0000
0000
0000
,  // measure 123
0120
0000
0001
0000
0100
0000
0000
0100
1030
0000
0010
0000
1000
0000
0001
0000
,  // measure 124
1000
0001
1000
0001
1000
0010
0001
0100
,  // measure 125
0001
0100
0001
0100
0001
0100
1000
0010
,  // measure 126
1000
0010
1000
0010
1000
0010
0100
0001
,  // measure 127
0100
0001
0100
0001
0100
1000
0010
1000
,  // measure 128
0010
1000
0010
1000
0010
0100
1000
0100
,  // measure 129
1000
0100
1000
0100
1000
0001
0100
0001
,  // measure 130
0100
0001
0100
0001
0100
1000
0010
0100
,  // measure 131
0001
0000
0100
0010
0000
0000
0010
0000
0100
0000
0010
0000
0202
0303
1000
0000
,  // measure 132
0001
0100
0010
0000
0100
0001
1000
0001
,  // measure 133
0100
0000
0010
0001
0000
0001
1000
0000
,  // measure 134
0100
0001
1000
0001
0100
1000
0020
1030
,  // measure 135
0010
0100
0001
0000
0100
0001
1000
0001
,  // measure 136
1000
0000
0020
0130
0001
1000
0100
0000
,  // measure 137
0001
0000
0100
0000
1000
0000
0010
0100
0000
0000
0100
0000
0100
0000
0100
0000
,  // measure 138
2002
3003
0010
0000
0100
0000
0001
0000
1000
0000
0000
0000
0100
0000
1000
0000
,  // measure 139
0001
1000
0001
0000
0010
1000
0001
0100
,  // measure 140
0001
0000
0100
1000
0010
1000
0001
0010
,  // measure 141
0100
0001
1000
0001
0100
0000
0001
0100
,  // measure 142
1000
0001
0100
0000
0010
0100
0001
1000
,  // measure 143
0001
0000
0000
0000
0100
0000
0010
0000
0100
0000
0001
1000
0000
0000
0010
0000
,  // measure 144
0001
0000
0100
0000
1010
0000
0000
0000
0010
0000
0100
0001
0100
0000
0010
0000
,  // measure 145
1000
0000
0100
0000
0010
0100
1000
0010
,  // measure 146
1000
0000
0001
0000
0100
0001
0100
1000
,  // measure 147
0010
0000
0100
0000
0010
1000
0000
0100
,  // measure 148
0001
0000
1000
0000
0001
0000
0000
0000
0100
0000
0010
0001
0010
0000
1000
0000
,  // measure 149
0100
0001
1000
0000
0001
0100
0001
1000
,  // measure 150
0010
0000
0000
0000
0100
0000
0000
0000
0001
0000
0000
1000
0000
0000
0100
0000
,  // measure 151
0001
0000
0000
0000
1000
0000
0000
0000
0010
0000
0100
0010
0000
0000
0100
0000
,  // measure 152
0010
0000
1000
0000
0101
0000
0000
0000
1000
0000
0010
0100
0010
0000
0001
0000
,  // measure 153
1000
0000
0100
0000
0001
1000
0010
0010
,  // measure 154
0100
0000
0010
0000
1000
0100
1000
0001
,  // measure 155
1000
0000
0001
0000
0100
0010
0100
0010
,  // measure 156
1000
0000
0001
0000
0100
0000
0000
0000
0010
0000
1000
0001
0000
0000
0100
0000
,  // measure 157
0010
1000
0100
0000
0001
1000
0000
0100
,  // measure 158
0001
0000
0000
0000
1000
0000
0000
0000
0010
0000
0100
1000
0000
0000
0100
0000
,  // measure 159
0001
0000
0000
0000
1000
0000
0001
0100
0010
0000
0100
0001
0000
0100
0010
0000
,  // measure 160
1000
0001
1010
0000
0100
0001
0000
1000
,  // measure 161
0100
0000
0010
0000
0001
1000
0000
0100
,  // measure 162
1000
0000
0010
0000
0100
0001
0000
0001
,  // measure 163
1000
0000
0100
0000
0010
0100
0000
0100
,  // measure 164
0001
1000
0001
0000
0100
0001
0100
1000
,  // measure 165
0010
0000
0100
0000
0010
1000
0010
0100
,  // measure 166
0001
0000
1000
0000
0010
0100
0001
0100
,  // measure 167
0001
0000
0000
0000
0010
0000
0000
0000
0010
0000
1000
0100
0000
0000
0001
0000
,  // measure 168
0001
0100
0012
0100
1000
0000
0100
1000
,  // measure 169
0100
0000
0010
0010
1000
0000
0100
0100
,  // measure 170
1000
0000
1003
0010
1000
0000
0001
0010
,  // measure 171
0001
0000
1000
0100
1000
0000
0001
1000
,  // measure 172
0010
2000
0000
0000
,  // measure 173
0000
0000
0000
0000
,  // measure 174
3000
0000
0000
0000
;
