#TITLE:Shibuya;
#SUBTITLE:;
#ARTIST:Odysseus;
#TITLETRANSLIT:;
#SUBTITLETRANSLIT:;
#ARTISTTRANSLIT:;
#GENRE:;
#CREDIT:;
#BANNER:;
#BACKGROUND:;
#LYRICSPATH:;
#CDTITLE:;
#MUSIC:Shibuya.mp3;
#OFFSET:-0.040000;
#SAMPLESTART:30.760000;
#SAMPLELENGTH:12.000000;
#SELECTABLE:YES;
#BPMS:0.000000=124.999992
;
#STOPS:
;
#BGCHANGES:;
#KEYSOUNDS:;
#ATTACKS:;

//---------------dance-single - ----------------
#NOTES:
     dance-single:
     :
     Hard:
     6:
     0.370662,0.457210,0.054580,0.071373,0.000000,618.000000,605.000000,13.000000,17.000000,0.000000,0.000000,0.370662,0.457210,0.054580,0.071373,0.000000,618.000000,605.000000,13.000000,17.000000,0.000000,0.000000:
// measure 0
0000
0000
0000
0000
,  // measure 1
0000
0000
0000
0000
,  // measure 2
0000
0000
0000
0000
,  // measure 3
0000
0000
0000
0000
,  // measure 4
0000
0000
0000
0000
,  // measure 5
0000
0000
0000
0000
,  // measure 6
0000
0000
0000
0000
,  // measure 7
0000
0000
0000
0000
,  // measure 8
0000
0001
0010
1000
0000
1000
0100
0001
,  // measure 9
0000
0000
0010
0000
0010
0000
0010
0100
,  // measure 10
0000
0001
1000
0100
0000
0001
1000
0010
,  // measure 11
0000
0000
0100
0000
0100
0000
0100
0100
,  // measure 12
0100
0010
1000
0010
0000
0100
0001
0100
,  // measure 13
0000
0000
0001
0000
0001
0000
0001
1000
,  // measure 14
0000
0100
0001
0100
0000
0010
1000
0010
,  // measure 15
0200
0000
0000
0300
,  // measure 16
0011
0001
1000
0001
1000
0000
0100
0010
,  // measure 17
0100
0010
1000
0100
0001
0000
0010
0100
,  // measure 18
0000
0001
1000
0001
1000
0000
0100
0010
,  // measure 19
0100
0001
1000
0001
0000
0100
0100
0100
,  // measure 20
0010
1000
0010
1000
0100
0000
0001
1000
,  // measure 21
0001
1000
0001
0100
0001
0000
0100
0100
,  // measure 22
0000
1000
0001
0100
0010
0000
1000
0001
,  // measure 23
1000
0100
0001
0010
0100
0000
0010
0010
,  // measure 24
0010
0001
1000
0001
0100
0000
0010
0100
,  // measure 25
0010
1000
0100
0001
1000
0000
0100
0010
,  // measure 26
0100
0001
1000
0001
1000
0000
0001
0100
,  // measure 27
0001
0010
1000
0100
1000
0000
0010
0010
,  // measure 28
0010
0100
0001
0100
1000
0000
0100
0010
,  // measure 29
0100
0010
1000
0001
0100
0000
0010
0100
,  // measure 30
0001
1000
0001
1000
0001
0000
0100
0010
,  // measure 31
2000
0000
0000
0000
0000
0000
3001
0100
,  // measure 32
0101
0010
1000
0010
0000
0100
0001
0100
,  // measure 33
0000
0001
0010
0100
0010
0000
0100
1000
,  // measure 34
0001
1000
0001
1000
0000
0100
0010
0100
,  // measure 35
1000
0000
0100
0001
1000
0000
0010
0010
,  // measure 36
0100
0001
1000
0001
0000
0100
0001
0100
,  // measure 37
0000
0001
0010
0001
1000
0000
0100
0001
,  // measure 38
1000
0010
1000
0010
0000
0100
0010
0100
,  // measure 39
1000
0000
0100
0000
0100
0000
0001
0001
,  // measure 40
1000
0010
0100
0010
0000
0001
1000
0001
,  // measure 41
0000
0000
0100
0000
0100
0001
1000
0001
,  // measure 42
0100
0010
1000
0010
0000
0100
0010
0100
,  // measure 43
0001
0000
0001
0000
0000
0010
1000
0010
,  // measure 44
0100
0001
1000
0001
0000
0100
0001
0100
,  // measure 45
0000
0000
0010
0000
0100
1000
0001
1000
,  // measure 46
0100
0001
1000
0001
0000
0100
0010
0100
,  // measure 47
0001
0000
0001
0000
0010
0010
0100
0100
,  // measure 48
2000
0000
0000
0000
0000
0000
0000
3200
,  // measure 49
0000
0000
0000
0000
,  // measure 50
0302
0000
0000
0000
0000
0000
0000
0023
,  // measure 51
0000
0000
0000
0000
,  // measure 52
0032
0000
0000
0000
0000
0000
0000
2003
,  // measure 53
0000
0000
0000
0000
,  // measure 54
3020
0000
0000
0000
0000
0000
0000
0032
,  // measure 55
0000
0000
0000
0000
,  // measure 56
0013
0000
0000
0000
0000
0000
0000
1100
,  // measure 57
0000
0000
0000
0000
,  // measure 58
1001
0000
0000
0000
0000
0000
0000
1010
,  // measure 59
0000
0000
0000
0000
,  // measure 60
0101
0000
0000
0000
0000
0000
0000
0110
,  // measure 61
0000
0000
0000
0000
,  // measure 62
0101
0000
0000
0000
0000
0000
0000
1010
,  // measure 63
0000
0000
0000
0000
,  // measure 64
1000
0100
0000
0100
0000
0000
0001
1000
,  // measure 65
0000
0100
0000
0100
0000
0000
0000
1000
,  // measure 66
0010
0100
0000
0100
0000
0000
0001
1000
,  // measure 67
0010
0001
0000
0001
0000
0100
0010
0100
,  // measure 68
0010
1000
0000
1000
0000
0000
0001
0100
,  // measure 69
0000
1000
0000
1000
0000
0000
0000
0010
,  // measure 70
0100
0001
0000
0001
0000
0000
1000
0001
,  // measure 71
0020
0000
0000
0000
0000
0000
0130
0100
,  // measure 72
0010
0001
0000
0001
0000
1000
0001
1000
,  // measure 73
0000
0010
0000
0100
0000
0001
1000
0001
,  // measure 74
0000
0100
0010
0001
0000
1000
0100
0001
,  // measure 75
0000
0010
0000
0100
0000
0100
0010
0100
,  // measure 76
0010
1000
0100
1000
0000
0001
0100
0001
,  // measure 77
0000
0010
0000
0100
0000
0001
1000
0001
,  // measure 78
0000
1000
0100
1000
0000
0001
0100
0001
,  // measure 79
0000
0010
0000
0010
0000
1000
0001
1000
,  // measure 80
0101
0001
1000
0001
0000
0100
0010
0100
,  // measure 81
0000
1000
0000
0001
0000
0100
0010
1000
,  // measure 82
0100
0001
1000
0001
0000
0100
1000
0010
,  // measure 83
0000
0100
0001
1000
0001
0100
0010
0100
,  // measure 84
0010
1000
0100
0001
0000
0100
0001
0100
,  // measure 85
0000
0010
0000
0100
0000
0001
1000
0001
,  // measure 86
0000
0100
0010
0100
0000
0001
2000
0100
,  // measure 87
0002
0000
0000
0000
3003
0000
0010
0010
,  // measure 88
0110
1000
0100
0001
1000
0001
1000
0010
,  // measure 89
0100
0010
1000
0100
0001
1000
0010
0001
,  // measure 90
0100
0001
1000
0001
1000
0100
0010
0001
,  // measure 91
1000
0001
1000
0001
1000
0100
0010
0010
,  // measure 92
0010
1000
0100
0001
1000
0001
1000
0010
,  // measure 93
0001
0100
0001
0010
0100
1000
0010
1000
,  // measure 94
0010
0100
0001
0100
0001
0010
0001
1000
,  // measure 95
0100
1000
0010
0001
0100
1000
0100
0100
,  // measure 96
1100
0010
1000
0100
0001
0100
1000
0001
,  // measure 97
1000
0010
1000
0100
0001
1000
0001
1000
,  // measure 98
0010
0001
0100
0001
1000
0001
1000
0010
,  // measure 99
0100
1000
0100
0010
1000
0100
0001
0001
,  // measure 100
0001
0100
0001
1000
0010
0001
0100
0001
,  // measure 101
1000
0010
1000
0010
1000
0100
1000
0010
,  // measure 102
0001
0100
1000
0010
0001
0100
1000
0001
,  // measure 103
0020
0000
0000
0000
0000
0000
0130
0100
,  // measure 104
1001
0001
1000
0001
1000
0000
0100
0010
,  // measure 105
0001
0100
1000
0001
1000
0000
0100
0010
,  // measure 106
0100
0001
1000
0001
0000
0000
0010
1000
,  // measure 107
0100
0001
1000
0001
1000
0100
0001
0001
,  // measure 108
0001
1000
0010
1000
0010
0000
0001
0100
,  // measure 109
0010
1000
0010
1000
0100
0000
0001
1000
,  // measure 110
0001
0100
0001
1000
0010
0000
0100
0010
,  // measure 111
2000
0000
0100
0000
0010
0010
0001
0001
,  // measure 112
3001
0000
0100
0000
0001
0000
0100
1000
,  // measure 113
0001
1000
0001
0100
,  // measure 114
1000
0000
0010
0000
0100
0000
0001
1000
,  // measure 115
0001
0000
0010
0000
1000
0000
0100
0100
,  // measure 116
0100
0000
0001
0000
1000
0000
0001
0100
,  // measure 117
0100
0000
0010
0000
1000
0000
0001
0100
,  // measure 118
0001
0000
0100
0000
0010
0000
0100
1000
,  // measure 119
2000
0000
0010
0000
0010
0000
0001
0001
,  // measure 120
0002
0000
0000
0000
,  // measure 121
3003
0000
0000
0000
;
