#TITLE:Rivers;
#SUBTITLE:;
#ARTIST:Clara La San;
#TITLETRANSLIT:;
#SUBTITLETRANSLIT:;
#ARTISTTRANSLIT:;
#GENRE:;
#CREDIT:;
#BANNER:;
#BACKGROUND:background.PNG;
#LYRICSPATH:;
#CDTITLE:;
#MUSIC:Rivers.mp3;
#OFFSET:-0.333000;
#SAMPLESTART:27.962999;
#SAMPLELENGTH:12.000000;
#SELECTABLE:YES;
#DISPLAYBPM:69.000000:138.000000;
#BPMS:0.000000=70.000000
,10.000000=68.000000
,14.000000=70.000000
,22.000000=69.000000
,30.000000=136.000000
,46.000000=140.000000
,62.000000=138.000000
,90.000000=136.000000
,94.000000=138.000000
,126.000000=139.000000
,154.000000=132.000000
,158.000000=138.000000
;
#STOPS:3.000000=0.858000,
6.000000=0.857000
;
#BGCHANGES:;
#KEYSOUNDS:;
#ATTACKS:;

//---------------dance-single - ----------------
#NOTES:
     dance-single:
     :
     Beginner:
     1:
     0.053131,0.144010,0.060545,0.069194,0.000000,43.000000,36.000000,7.000000,8.000000,0.000000,0.000000,0.053131,0.144010,0.060545,0.069194,0.000000,43.000000,36.000000,7.000000,8.000000,0.000000,0.000000:
0000
0000
0000
0000
,
0000
0000
0000
0000
,
0000
0000
0000
0000
,
0000
0000
0000
0000
,
0000
0000
0000
0000
,
0000
0000
0000
0000
,
0000
0000
0000
0000
,
0000
0000
1001
0000
,
0000
0000
0000
1000
,
0000
0000
0001
0000
,
0000
0000
0000
0010
,
0000
0000
0100
0000
,
0000
0000
0000
0001
,
0000
0000
1000
0000
,
0000
0000
0000
1000
,
0000
0000
0020
0000
,
0000
0000
0030
0010
,
0000
0000
0100
0000
,
0000
0000
0000
0001
,
0000
0000
1000
0000
,
0000
0000
0000
0010
,
0000
0000
0200
0000
,
0000
0000
0000
0000
,
0300
0000
0101
0000
,
0000
0000
1100
0000
,
0000
0000
0011
0000
,
0000
0000
1100
0000
,
0000
0000
0110
0000
,
0000
0000
0100
0000
,
0000
0000
0100
0000
,
0000
0000
0001
0000
,
0000
0000
1000
0000
,
0000
0000
0001
0000
,
0000
0000
1000
0000
,
0000
0000
0001
0000
,
0000
0000
0100
0000
,
0000
0000
0010
0000
,
0000
0000
1000
0000
,
0000
0000
0001
0000
,
0000
0000
2002
0000
,
0000
0000
3003
0000
,
0000
0000
0000
0000
,
0000
0000
0000
0000
,
0000
0000
0000
0000
,
0000
0000
0000
0000
,
0000
0000
0000
0000
,
0000
0000
0000
0000
,
0000
0000
0020
0000
,
0000
0000
0030
0000
,
0000
0000
2000
0000
,
0000
0000
3000
0000
,
0000
0000
0002
0000
,
0000
0000
0003
0000
,
0000
0000
0200
0000
,
0000
0000
0000
0000
,
0000
0000
0300
0000
;

//---------------dance-single - ----------------
#NOTES:
     dance-single:
     :
     Medium:
     4:
     0.203875,0.264018,0.285425,0.276776,0.004325,165.000000,132.000000,33.000000,32.000000,0.000000,0.000000,0.203875,0.264018,0.285425,0.276776,0.004325,165.000000,132.000000,33.000000,32.000000,0.000000,0.000000:
// measure 0
0000
0000
0000
0000
,  // measure 1
0000
0000
0000
0000
,  // measure 2
0000
0000
0000
0000
,  // measure 3
0000
0000
0002
0000
,  // measure 4
0003
0000
2000
0000
,  // measure 5
3000
0000
0020
0000
,  // measure 6
0030
0200
0320
0000
,  // measure 7
0000
0000
0030
1001
1001
0000
0010
0000
,  // measure 8
0010
0000
1000
0101
,  // measure 9
0001
0000
0110
0000
,  // measure 10
0100
0000
0001
1010
,  // measure 11
1000
0000
0110
1000
,  // measure 12
1000
0000
0010
0110
,  // measure 13
0100
0000
0101
0001
,  // measure 14
0001
0000
0010
1010
,  // measure 15
1000
0000
0101
0001
,  // measure 16
0001
0000
0010
1010
,  // measure 17
1000
0000
0110
0100
,  // measure 18
1000
0000
0001
0101
,  // measure 19
1000
0000
0110
0010
,  // measure 20
0010
0000
1000
0101
,  // measure 21
0001
0000
0010
0010
,  // measure 22
1000
0200
0020
0000
,  // measure 23
0330
0000
0202
0000
,  // measure 24
0000
0303
2020
0000
,  // measure 25
0000
3030
2200
0000
,  // measure 26
0000
3300
0202
0000
,  // measure 27
0000
0303
0011
0001
,  // measure 28
1000
0000
1000
0010
,  // measure 29
0100
0000
0110
0010
,  // measure 30
0010
0000
0100
0100
,  // measure 31
0001
0001
1001
0000
,  // measure 32
0010
0010
1100
0000
,  // measure 33
0001
0001
0110
0000
,  // measure 34
1000
1000
0101
0000
,  // measure 35
0010
0010
0110
0000
,  // measure 36
1000
1000
0101
0000
,  // measure 37
0010
0010
0110
0000
,  // measure 38
0001
1000
1001
0000
,  // measure 39
0010
0000
0000
0010
0000
0000
0010
0000
2002
0000
0000
0000
0000
0000
0000
0000
,  // measure 40
3003
0000
2200
0000
,  // measure 41
3300
0000
0022
0000
,  // measure 42
0033
0000
0220
0000
,  // measure 43
0330
0000
0002
0010
,  // measure 44
0013
0000
0200
0000
,  // measure 45
0300
0000
2000
0000
,  // measure 46
3000
0000
0002
0000
,  // measure 47
0003
0000
2000
0001
,  // measure 48
0001
0010
3010
0000
,  // measure 49
0100
0001
0020
0100
,  // measure 50
0100
1000
0130
0000
,  // measure 51
0100
0100
0002
0010
,  // measure 52
0010
1000
0103
0000
,  // measure 53
0010
0010
0200
0010
,  // measure 54
1000
1000
0001
0010
,  // measure 55
0002
0000
0303
0000
;

//---------------dance-single - ----------------
#NOTES:
     dance-single:
     :
     Hard:
     6:
     0.317551,0.432030,0.294074,0.389216,0.021623,257.000000,223.000000,34.000000,45.000000,0.000000,0.000000,0.317551,0.432030,0.294074,0.389216,0.021623,257.000000,223.000000,34.000000,45.000000,0.000000,0.000000:
0000
0000
0000
0000
,
0000
0000
0000
0000
0000
0000
0000
0000
0000
0000
0000
0000
0000
0000
0000
0000
0000
0000
0000
0000
0000
0000
0000
0000
0000
0000
0000
0000
0000
0000
0000
0000
0000
2000
0000
0000
0000
0000
0000
0000
0000
0000
0000
0000
0000
0000
0000
0000
0000
0000
0000
0000
0000
0000
0000
0000
3002
0000
0000
0000
0000
0000
0000
0000
,
2003
0000
3020
0000
0130
0001
1000
0001
,
1000
0010
0100
0010
0002
0000
0000
0010
,
2003
0000
3100
0000
0020
0000
0000
0001
,
0230
0000
0001
0000
2300
0000
0000
0010
,
3200
0000
0302
0000
1003
0100
0001
1000
,
0001
1000
0001
1001
1001
0000
0002
0000
,
2003
3100
0001
1100
,
1000
0010
0110
0001
,
1000
0001
1000
0110
,
0010
0001
1100
2000
,
3002
0103
1000
0011
,
1000
0001
1010
0010
,
0100
0010
1000
0110
,
0001
1000
0120
1000
,
1000
0100
0031
1100
,
0001
1000
0101
0001
,
1000
0010
1000
0110
,
0001
1000
0002
0010
,
0010
1000
0103
1010
,
0100
0001
0020
0000
,
0200
0000
0000
0000
,
0330
0000
0000
0000
1001
1000
0001
1000
,
0000
0010
0100
0010
1100
0100
0000
0001
,
1000
0001
1000
0100
0011
0000
1000
0000
,
0100
0001
1000
0001
1010
0000
0010
0000
,
0200
0000
0310
0000
0011
0001
1000
0001
,
0000
0100
0010
0100
1100
1000
0000
0100
,
0001
1000
0001
1000
0110
0000
0010
0000
,
0100
0100
0010
0010
1001
0000
0100
0000
,
0001
0000
1000
0000
0101
0001
0100
0001
,
0000
0010
1000
0010
0110
0100
0000
0001
,
1000
0001
0100
0010
1100
0000
0100
0000
,
0001
0000
1000
0000
0001
0000
1000
0000
0101
0000
0000
0001
0000
0000
0001
0000
,
1000
0000
0000
1000
0000
0000
1000
0000
1001
0000
0010
0000
0100
0000
0010
0000
,
1000
0000
0100
0001
0110
0000
0100
0000
,
0010
0000
0000
0010
0000
0000
0010
0000
1100
0000
0000
0000
1000
0000
0001
0000
,
1000
0000
0100
0100
0011
0000
0001
0010
,
1000
0000
0000
1000
0000
0000
1000
0000
2002
0000
0000
0000
0000
0000
0000
0000
,
0000
3003
0202
0000
,
0000
0303
2200
0000
,
0000
3300
2020
0000
,
0000
3030
0002
0100
,
0100
0003
0020
0000
,
0000
0030
2000
0000
,
0000
3000
0002
0000
,
0000
0003
0200
0010
,
0010
0001
1300
1000
,
0002
2003
3200
0302
,
2003
3020
0230
0302
,
2003
3100
0002
0100
,
0100
1000
0103
0001
,
0010
2000
0002
0000
,
0000
0000
0000
0000
,
0000
0000
3003
0000
;

//---------------dance-single - ----------------
#NOTES:
     dance-single:
     :
     Easy:
     2:
     0.098849,0.192013,0.164336,0.190283,0.000000,80.000000,61.000000,19.000000,22.000000,0.000000,0.000000,0.098849,0.192013,0.164336,0.190283,0.000000,80.000000,61.000000,19.000000,22.000000,0.000000,0.000000:
0000
0000
0000
0000
,
0000
0000
0000
0000
,
0000
0000
0000
0000
,
0000
0000
0000
0000
,
0000
0000
0000
0000
,
0000
0000
0000
0000
,
0000
0000
0000
0000
,
0000
0000
1001
0000
,
0000
0000
0000
1100
,
0000
0000
0011
0000
,
0000
0000
0000
1010
,
0000
0000
1100
0000
,
0000
0000
0000
0101
,
0000
0000
0011
0000
,
0000
0000
0000
0110
,
0000
0000
2100
0000
,
0000
0000
3000
0101
,
0000
0000
1001
0000
,
0000
0000
0000
0110
,
0000
0000
0101
0000
,
0000
0000
0000
1001
,
0000
0000
0020
0000
,
0000
0000
0000
0000
,
0030
0000
0020
0000
,
0000
0000
0230
0000
,
0000
0000
0302
0000
,
0000
0000
2003
0000
,
3000
0000
0010
0000
,
0010
0000
0100
0000
,
0100
0000
0001
0000
,
0001
0000
1000
0000
,
1000
0000
0110
0000
,
0010
0000
1000
0000
,
0100
0000
0001
0000
,
1000
0000
0001
0001
,
1000
0000
0110
0000
,
0001
0000
0101
0000
,
1000
0000
1010
0000
,
0100
0000
0110
0000
,
0010
0010
2000
0000
,
0000
0000
3002
0000
,
0000
0000
0203
0000
,
0000
0000
0320
0000
,
0000
0000
2030
0000
,
0000
0000
3002
0000
,
0000
0000
0203
0000
,
0000
0000
0302
0000
,
0000
0000
0023
0000
,
0000
0000
2030
0000
,
0000
0000
3002
0000
,
0000
0000
0203
0000
,
0000
0000
0302
0000
,
0000
0000
2003
0000
,
0000
0000
3020
0000
,
0000
0000
0200
0000
,
0000
0000
0330
0000
;
