#VERSION:0.83;
#TITLE:Pluto Relinquish ("GROOVE RADAR" Special);
#SUBTITLE:;
#ARTIST:2MB;
#TITLETRANSLIT:;
#SUBTITLETRANSLIT:;
#ARTISTTRANSLIT:;
#GENRE:;
#ORIGIN:;
#CREDIT:;
#BANNER:Pluto Relinquish (Groove Radar special).png;
#BACKGROUND:Pluto Relinquish-bg.png;
#PREVIEWVID:;
#JACKET:Pluto Relinquish (Groove Radar special)-jacket.png;
#CDIMAGE:;
#DISCIMAGE:;
#LYRICSPATH:;
#CDTITLE:;
#MUSIC:Pluto Relinquish.ogg;
#OFFSET:-0.900000;
#SAMPLESTART:1.200000;
#SAMPLELENGTH:12.000000;
#SELECTABLE:YES;
#DISPLAYBPM:*;
#BPMS:0.000=800.000,
4.000=100.000,
11.000=800.000,
19.000=200.000,
27.000=300.000,
39.000=400.000,
67.000=800.000,
75.000=300.000,
87.000=400.000,
119.000=600.000,
143.000=50.000,
151.000=200.000,
163.000=100.000,
165.000=200.000,
177.000=100.000,
179.000=200.000,
191.000=100.000,
193.000=200.000,
205.000=400.000,
213.000=50.000,
220.500=1000.000,
231.000=100.000,
239.000=200.000,
253.000=50.000,
253.500=300.000,
273.500=350.000,
274.500=50.000,
275.000=400.000,
303.000=50.000,
303.500=533.333,
314.167=400.000,
320.167=533.333,
332.167=400.000,
339.167=533.333,
381.833=1000.000;
#STOPS:;
#DELAYS:;
#WARPS:;
#TIMESIGNATURES:0.000=4=4;
#TICKCOUNTS:0.000=4;
#COMBOS:0.000=1;
#SPEEDS:0.000=1.000=0.000=0;
#SCROLLS:0.000=1.000;
#FAKES:;
#LABELS:0.000=Song Start;
#BGCHANGES:;
#KEYSOUNDS:;
#ATTACKS:
;

//---------------dance-single - ----------------
#NOTEDATA:;
#CHARTNAME:;
#STEPSTYPE:dance-single;
#DESCRIPTION:;
#CHARTSTYLE:;
#DIFFICULTY:Challenge;
#METER:18;
#RADARVALUES:0.972996,2.734662,0.879161,0.919582,0.970109,674.000000,587.000000,87.000000,91.000000,0.000000,2.000000,0.000000,0.000000,0.000000,0.972996,2.734662,0.879161,0.919582,0.970109,674.000000,587.000000,87.000000,91.000000,0.000000,2.000000,0.000000,0.000000,0.000000;
#CREDIT:;
#DISPLAYBPM:*;
#NOTES:
// measure 0
0000
0000
0000
0000
,  // measure 1
2002
0000
3010
1000
0100
0000
0010
1000
0003
1000
0010
0001
0100
0000
0010
0100
,  // measure 2
0012
0000
0000
0000
0000
0000
1000
0000
0013
0000
0000
0000
0100
0000
0000
0000
0010
0001
0000
0100
0000
1000
0000
0000
0220
0000
0000
0000
0000
0000
0000
0000
,  // measure 3
0000
0000
0000
0000
,  // measure 4
0000
0000
0000
0000
0300
0000
1030
0001
,  // measure 5
0100
0000
0010
0001
0100
0000
0001
1000
,  // measure 6
0001
0000
0000
0000
0000
0000
0100
0000
0000
0010
0000
0000
0100
0000
0000
1000
0000
0000
0011
0000
0000
0000
0010
0000
,  // measure 7
0000
0100
0000
1000
0000
0001
0000
0100
0000
0001
0000
1000
,  // measure 8
0000
0010
0001
0100
0000
0001
0000
1000
0000
0001
0000
0100
,  // measure 9
0000
0010
0000
1000
0000
0001
1000
0010
1000
0110
0000
0000
,  // measure 10
0100
0001
1000
0001
,  // measure 11
0100
0010
0001
0100
,  // measure 12
0001
1000
0010
0100
,  // measure 13
0001
0000
1000
0000
0001
0000
0100
1000
,  // measure 14
0010
1000
0010
1000
0010
0000
1000
0000
,  // measure 15
0001
0000
0100
0000
0001
0000
1000
0001
,  // measure 16
0010
0100
0001
2200
,  // measure 17
0000
0000
0000
0000
,  // measure 18
0000
0000
0000
0000
0000
0000
0300
0000
0000
3001
0000
0100
,  // measure 19
0000
0001
0000
1000
0000
0010
0000
0100
0000
0010
0000
0100
,  // measure 20
0000
0001
0000
1000
0000
0001
0000
0100
0000
0001
0000
1000
,  // measure 21
0000
0010
0000
0100
0000
0010
0000
1000
0000
0011
0000
0000
,  // measure 22
0100
0001
0100
0010
,  // measure 23
1000
0000
0100
0000
0001
0010
1000
0000
,  // measure 24
0001
1000
0001
1000
,  // measure 25
0010
0000
0001
0010
0100
0010
0001
0000
,  // measure 26
0100
1000
0001
1000
,  // measure 27
0001
0100
0010
1000
,  // measure 28
0100
0001
1000
0001
,  // measure 29
1000
0010
0100
2000
,  // measure 30
3002
0203
0320
2030
,  // measure 31
3002
0203
0320
2030
,  // measure 32
3002
0203
0320
2030
,  // measure 33
3200
0320
0032
0023
,  // measure 34
0230
2300
3200
0320
,  // measure 35
0032
0000
0023
0000
0230
0300
2001
0100
,  // measure 36
0010
0000
0000
0000
0100
0000
3100
0000
1002
0000
0000
0000
0100
0000
0000
0000
1000
0010
0000
0100
0000
0010
0000
0000
1003
0010
0001
0000
0100
1000
0000
0000
,  // measure 37
0012
0100
0000
1000
0003
1000
0000
0000
0120
0001
0100
0000
1030
0100
0000
0000
0012
1000
0000
0100
0003
0100
0000
0000
1001
0000
0000
0000
0100
0000
0000
0000
,  // measure 38
0001
1000
0001
1000
0010
0001
0100
0001
,  // measure 39
1000
0010
2100
3001
2100
3001
1000
0001
,  // measure 40
1000
0000
0000
0000
0010
0000
0000
0000
0100
0000
0000
0000
0001
0000
0000
0000
1000
0000
0000
0000
0010
0000
0000
0000
2002
0000
0000
3003
0202
0000
0000
0303
,  // measure 41
2002
0000
0000
3003
2200
0000
0000
3300
0110
0000
0000
0000
0001
0000
0000
0000
0100
0000
0000
0000
0001
0000
0000
0000
1000
0000
0000
0000
0010
0000
0000
0000
,  // measure 42
1000
0100
0001
1000
0001
1000
0012
0103
,  // measure 43
0012
0103
0010
0100
0001
1000
0001
1000
,  // measure 44
0010
0000
0000
0000
0100
0000
0000
0000
0202
0000
0000
0303
2020
0000
0000
3030
0220
0000
0000
0330
0202
0000
0000
0303
1001
0000
0000
0000
0100
0000
0000
0000
,  // measure 45
0001
1000
0001
1000
0010
0001
0100
0001
,  // measure 46
1000
0010
2100
3010
2100
3001
1000
0001
,  // measure 47
0100
0000
0000
0000
1000
0000
0000
0000
0001
0000
0000
0000
1000
0000
0000
0000
0001
0000
0000
0000
0010
0000
0000
0000
2002
0000
0000
3003
0202
0000
0000
0303
,  // measure 48
2020
0000
0000
3030
0220
0000
0330
0000
1001
0000
0000
0000
0100
0000
0000
0000
0001
0000
0000
0000
1000
0000
0000
0000
0001
0000
0000
0000
1000
0000
0000
0000
,  // measure 49
0010
0001
0100
0001
0100
0001
1000
0010
,  // measure 50
1000
0100
0011
1000
0011
0100
0011
1000
,  // measure 51
0110
0100
1001
0000
1001
0000
1001
0000
,  // measure 52
0101
0101
0101
1010
,  // measure 53
1010
0000
0000
0000
0000
0000
0000
0000
0000
0000
0000
0000
0000
0000
0000
0000
1020
0000
0000
0000
1000
0000
0001
0000
0130
0000
0000
0000
0000
0000
0001
0000
1010
0000
0100
0000
0000
0000
0010
0000
1000
0000
0000
0000
0100
0000
0000
0000
0012
0100
0010
0100
0010
0100
0010
0000
1003
0000
0000
0000
1000
0000
0000
0000
,  // measure 54
0102
0000
0010
0000
1000
0000
0100
0000
1003
0000
0000
0000
0000
0001
0010
0100
2001
0000
0000
0000
0000
0000
0010
0000
3001
0000
0000
0000
0000
0000
0100
0000
2001
0000
0000
0100
0000
0000
0000
0001
3010
0000
0000
0000
0000
0000
0000
0000
0120
0000
0000
0000
0000
0100
0000
1000
0030
0000
0001
0000
0000
0000
0100
0000
,  // measure 55
0010
1000
0100
0010
0002
0000
0000
0000
0000
0000
0000
0000
0000
0000
0000
0000
0000
0000
0000
0000
0000
0000
0000
0000
0000
0000
0000
0000
0000
0000
0000
0000
,  // measure 56
0000
0000
0000
0000
,  // measure 57
0000
0000
0000
0000
0000
0000
0000
0000
0000
0000
0000
0000
1023
0100
0001
0000
,  // measure 58
1030
0001
1000
0000
1020
0100
0100
0000
0031
1000
0100
0000
0012
0100
1000
0000
,  // measure 59
0013
1000
0010
0000
0210
0001
1000
0000
0310
0100
0010
0000
1100
0000
0001
0000
,  // measure 60
0100
0001
1000
0001
1000
0010
0100
0001
,  // measure 61
1000
0000
0010
0000
0100
0000
0010
0001
0100
0010
0001
0010
1000
0000
0001
0000
,  // measure 62
0100
0010
1000
0100
0001
1000
0001
0100
,  // measure 63
0010
0000
0000
0000
0000
0000
0000
0000
0000
0000
0000
0000
0000
0000
0000
0000
0000
0000
0000
0000
0000
0000
0000
0000
1000
0000
0000
0000
0000
0000
0000
0000
0000
0000
0000
0000
0000
0000
0000
0000
0000
0000
0000
0000
0000
0000
0000
0000
0202
0000
0000
0000
0000
0000
0303
0000
0000
0000
0000
0000
2002
0000
0000
0000
0000
0000
3003
0000
0000
0000
0000
0000
1001
0000
0000
0000
0000
0000
0000
0000
0000
0000
0000
0000
0000
0000
0000
0000
0000
0000
0000
0000
0000
0000
0000
0000
0000
0000
0000
0000
0000
0000
0000
0000
0001
0000
0000
0000
0000
0000
0000
0000
0000
0000
0000
0000
0000
0000
0000
0000
0000
0000
0000
0000
0000
0000
0000
0000
0000
0000
0000
0000
0000
0000
0000
0000
0100
0000
0000
0000
0000
0000
0000
0000
0000
0000
0000
0000
0000
0000
0000
0000
0000
0000
0000
0000
0000
0000
0000
0000
0000
0000
0000
0000
0000
0000
0000
0000
1000
0000
0000
0000
0000
0000
0000
0000
0000
0000
0000
0000
0000
0000
0000
0000
0000
0000
0000
0000
0000
0000
0000
0000
,  // measure 64
0000
0010
0000
0000
0000
0100
0000
0000
0000
0001
0000
0000
0000
1000
0000
0000
0000
0010
0000
0000
0000
0100
0000
0000
,  // measure 65
0000
0001
0000
0000
0000
1000
0000
0000
0000
0001
0000
0000
0000
0100
0000
0000
0000
0010
0000
0001
0000
0100
0000
0010
,  // measure 66
0000
1000
0000
0100
0000
0001
0000
0000
0000
1100
0000
0000
0000
0010
0000
0000
0000
1000
0000
0000
0000
0100
0000
0000
,  // measure 67
0000
0001
0000
0000
0000
1000
0000
0000
0000
0001
0000
0000
0000
0100
0000
0000
0000
1000
0000
0000
0000
0010
0000
0000
,  // measure 68
0000
0000
0000
0000
0000
0000
0000
0000
0100
0000
0000
0000
0000
0000
0000
0000
0000
0000
0000
0000
0000
0000
0000
0000
0000
0000
0000
0000
0000
0000
0000
0000
0000
0000
0000
0000
0000
0000
0000
0000
0010
0000
0000
0000
0000
0000
0000
0000
0000
0000
0000
0000
0000
0000
0000
0000
0000
0000
0000
0000
0000
0000
0000
0000
0000
0000
0000
0000
0000
0000
0000
0000
0100
0000
0000
0000
0000
0000
0000
0000
0000
0000
0000
0000
0000
0000
0000
0000
0000
0000
0000
0000
0000
0000
0000
0000
0000
0000
0000
0000
0000
0000
0000
0000
0000
0000
0000
0000
0000
0000
0000
0000
0000
0000
0000
0000
0000
0000
0000
0000
0022
0000
0000
0000
0000
0000
0033
0000
0000
0000
0000
0000
0202
0000
0000
0000
0000
0000
0303
0000
0000
0000
0000
0000
1001
0000
0000
0000
0000
0000
0000
0000
0000
0000
0000
0000
0000
0000
0000
0000
0000
0000
0000
0000
0000
0000
0000
0000
0000
0000
0000
0000
0000
0000
0000
0000
0000
0000
0000
0000
0000
0000
0000
0000
0000
0000
0000
0000
0000
0000
0000
0000
,  // measure 69
0100
0001
1000
0001
,  // measure 70
0100
0010
1000
0100
,  // measure 71
0001
1000
0001
0100
,  // measure 72
0001
0010
1000
0100
0010
0001
0110
0000
,  // measure 73
0010
1000
0100
0001
,  // measure 74
1000
0001
1000
0010
,  // measure 75
0100
0000
0000
0000
0000
0000
0000
0000
0001
0000
0000
0000
0000
0000
0000
0000
0100
0000
0000
0000
0000
0000
0000
0000
2002
3003
0202
0303
0011
0000
0000
0000
,  // measure 76
0000
0100
0000
0000
0000
0001
0000
0000
0000
0100
0000
0000
0000
0001
0000
0000
0000
0100
0000
0000
0000
0001
0000
0000
,  // measure 77
0000
1000
0000
0000
0000
0001
0000
0000
0000
1000
0000
0000
0000
0001
0000
0000
0000
1000
0000
0000
0000
0001
0000
0000
,  // measure 78
0000
0010
0000
0000
0000
0001
0000
0000
0000
0010
0000
0000
0000
0001
0000
0000
0000
0000
0000
1100
0000
0000
0000
0000
,  // measure 79
0000
0011
0000
0000
0000
0000
0000
1100
0000
0000
0000
0000
0000
0011
0000
0000
0000
0000
0000
0101
0000
0000
0000
0000
,  // measure 80
0000
1000
0000
0000
0000
0010
0000
0000
0000
1000
0000
0000
0000
0010
0000
0000
0000
1000
0000
0000
0000
0001
0000
0000
,  // measure 81
0000
1000
0000
0000
0000
0001
0000
0000
0000
1000
0000
0000
0000
0100
0000
0000
0000
1000
0000
0000
0000
0100
0000
0000
,  // measure 82
0000
1000
0000
0000
0000
0010
0000
0000
0000
1000
0000
0000
0000
0010
0000
0000
0000
1000
0000
0000
0000
0010
0000
0000
,  // measure 83
0000
0001
0000
0000
0000
0000
0000
0110
0000
0000
0000
0000
0000
0101
0000
0000
0000
0000
0000
1100
0000
0000
0000
0000
,  // measure 84
0000
0101
0000
0000
0000
0000
0000
1100
0000
0000
0000
0000
0000
0110
0000
0000
0000
0000
0000
0001
0000
0000
0000
0100
,  // measure 85
0000
0000
0000
1000
0000
0000
0000
0100
0000
0000
0000
0001
0000
0000
0000
0100
0000
0000
0000
1000
0000
0000
0000
0100
,  // measure 86
0000
0000
0000
0001
0000
0000
0000
0100
0000
0000
0000
1000
0000
0000
0000
0100
0000
0000
0000
0001
0000
0000
0000
0100
,  // measure 87
0000
0000
0000
1000
0000
0000
0000
0100
0000
0000
0000
0001
0000
0000
0000
0100
0000
0000
0000
1000
0000
0000
0000
0100
,  // measure 88
0000
0000
0000
0001
0000
0000
0000
0100
0000
0000
0000
1000
0000
0000
0000
0100
0000
0000
0000
0001
0000
0000
0000
0100
,  // measure 89
0000
0000
0000
1000
0000
0000
0000
0010
0000
0000
0000
0001
0000
0000
0000
0010
0000
0000
0000
1000
0000
0000
0000
0010
,  // measure 90
0000
0000
0000
0001
0000
0000
0000
0010
0000
0000
0000
1000
0000
0000
0000
0010
0000
0000
0000
0001
0000
0000
0000
0010
,  // measure 91
0000
0000
0000
1000
0000
0000
0000
0010
0000
0000
0000
0001
0000
0000
0000
0010
0000
0000
0000
1000
0000
0000
0000
0010
,  // measure 92
0000
0000
0000
0001
0000
0000
0000
0010
0000
0000
0000
1000
0000
0000
0000
0010
0000
0000
0000
0001
0000
0000
0000
0010
,  // measure 93
0000
0000
0000
1000
0000
0000
0000
0010
0000
0000
0000
1001
0000
0000
0000
0000
0000
0000
0000
1100
0000
0000
0000
0000
,  // measure 94
0000
0000
0000
0110
0000
0000
0000
0000
0000
0000
0000
0110
0000
0000
0000
0000
0000
0000
0000
1001
0000
0000
0000
0000
,  // measure 95
0000
0000
0000
0110
0000
0000
0000
0000
0000
0000
0000
2002
0000
0000
0000
0000
0000
0000
0000
0000
0000
0000
0000
0000
,  // measure 96
0000
0000
0000
0000
,  // measure 97
0000
0000
0000
0000
,  // measure 98
0000
0000
0000
0000
,  // measure 99
0000
0000
0000
0000
,  // measure 100
0000
0000
0000
0000
,  // measure 101
0000
0000
0000
0000
,  // measure 102
0000
0000
0000
0000
,  // measure 103
0000
0000
0000
0000
,  // measure 104
0000
3003
0000
0000
0000
0000
0000
0000
0000
0000
0000
0000
;
