#TITLE:Paradigm Shifter;
#SUBTITLE:;
#ARTIST:Rom Di Prisco;
#TITLETRANSLIT:;
#SUBTITLETRANSLIT:;
#ARTISTTRANSLIT:;
#GENRE:;
#CREDIT:;
#BANNER:;
#BACKGROUND:background.png;
#LYRICSPATH:;
#CDTITLE:;
#MUSIC:Paradigm Shifter.mp3;
#OFFSET:-1.000000;
#SAMPLESTART:70.026001;
#SAMPLELENGTH:12.000000;
#SELECTABLE:YES;
#DISPLAYBPM:112.000000;
#BPMS:0.000000=113.000000
,16.000000=112.000000
,92.000000=112.199997
,96.000000=112.000000
,128.000000=112.250000
;
#STOPS:
;
#BGCHANGES:;
#KEYSOUNDS:;
#ATTACKS:;

//---------------dance-single - ----------------
#NOTES:
     dance-single:
     :
     Hard:
     8:
     0.464777,0.496574,0.138177,0.565270,0.493041,518.000000,496.000000,22.000000,90.000000,0.000000,0.000000,0.464777,0.496574,0.138177,0.565270,0.493041,518.000000,496.000000,22.000000,90.000000,0.000000,0.000000:
// measure 0
0000
0000
0000
0000
,  // measure 1
0000
0000
0000
0000
,  // measure 2
0000
0000
0000
0000
,  // measure 3
0000
0000
0000
0000
,  // measure 4
0010
0000
0100
0000
0001
0000
1000
0000
0001
0000
1000
0000
0100
0010
0000
0010
,  // measure 5
0001
0000
0100
0000
0001
0000
1000
0000
0010
0000
1000
0000
0100
0010
0000
0010
,  // measure 6
1000
0000
0100
0000
0001
0000
1000
0000
0001
0000
1000
0000
0001
0100
0000
0100
,  // measure 7
2000
0000
0000
3000
,  // measure 8
0001
0100
0000
0010
1000
0000
0100
0010
0000
1000
0001
0000
0100
0010
0000
0000
,  // measure 9
1000
0100
0000
0001
1000
0000
0001
0100
0000
0010
1000
0000
0100
0010
0000
0000
,  // measure 10
0001
1000
0000
0100
0001
0000
1000
0010
0000
0100
0010
0000
1000
0100
0000
0000
,  // measure 11
0001
0100
0000
1000
0010
0000
0100
0001
0000
1000
0010
0000
0100
0010
0000
0000
,  // measure 12
0100
0001
0000
0001
1000
0000
1000
0100
0000
0010
1000
0000
0100
0001
0000
0000
,  // measure 13
0100
1000
0000
1000
0001
0000
0100
0010
0000
0100
0001
0000
1000
0001
0000
0000
,  // measure 14
0100
1000
0000
0010
0100
0000
0001
0100
0000
1000
0010
0000
0100
0001
0000
0000
,  // measure 15
0010
1000
0000
0100
0001
0000
1000
0001
0000
0100
0010
0000
1000
0100
0000
0000
,  // measure 16
0020
0100
1000
0000
0001
0100
1000
0000
,  // measure 17
0130
0001
0000
1000
0010
0000
0100
0010
0000
1000
0001
0000
0010
0001
0000
0000
,  // measure 18
0200
0010
0001
0000
1000
0001
1000
0000
,  // measure 19
0310
0100
0000
1000
0001
0000
0100
0001
0000
1000
0010
0000
0100
1000
0000
0000
,  // measure 20
0002
0100
1000
0000
0010
0100
0100
0000
,  // measure 21
1003
0001
0000
0001
0100
0000
0010
1000
0000
0100
0001
0000
0010
0001
0000
0000
,  // measure 22
2000
0100
0001
0000
0010
0100
0010
0000
,  // measure 23
0020
0000
0000
3030
,  // measure 24
2002
0000
0000
0000
3003
0000
0000
0000
0001
0100
0001
1000
0010
1000
0100
0001
,  // measure 25
0220
0000
0000
0000
0330
0000
0000
0000
0001
1000
0001
1000
0010
1000
0100
1000
,  // measure 26
0202
0000
0000
0000
0303
0000
0000
0000
0010
0100
0001
0100
1000
0001
0100
0001
,  // measure 27
2020
0000
0000
0000
3030
0000
0000
0000
0010
1000
0010
0001
0100
0001
1000
0001
,  // measure 28
0220
0000
0000
0000
0330
0000
0000
0000
0010
0100
0001
1000
0001
1000
0010
0001
,  // measure 29
0202
0000
0000
0000
0303
0000
0000
0000
0010
0100
0001
1000
0001
1000
0010
0001
,  // measure 30
2020
0000
0000
0000
3030
0000
0000
0000
0010
0100
0010
1000
0001
1000
0010
0100
,  // measure 31
2002
0000
0000
0000
3003
0000
0000
0000
0100
0001
1000
0001
1000
0010
0001
1000
,  // measure 32
0020
0000
0000
0200
0000
0000
0330
0000
,  // measure 33
1000
0000
0100
0000
0001
1000
0001
0000
0100
0000
0010
1000
0000
1000
0000
0001
,  // measure 34
2000
0000
0000
3002
0010
0100
0010
2003
,  // measure 35
0200
0000
0000
0000
3300
0000
0000
0000
0010
0000
0001
0100
0000
0100
0000
0100
,  // measure 36
0020
0000
0000
2000
0000
0000
3030
0000
,  // measure 37
0010
0000
0100
0000
0001
0010
1000
0000
0100
0000
0001
0010
0000
0100
0000
0100
,  // measure 38
0002
0000
0000
2003
0100
0010
0100
3002
,  // measure 39
0020
0000
0000
0000
0033
0000
0000
0000
0100
0000
1000
0010
0000
0010
0000
0010
,  // measure 40
0200
0000
0000
2000
0000
0000
3300
0000
,  // measure 41
0001
0000
0100
0000
0010
1000
0010
0000
0100
0000
0001
1000
0000
1000
0000
0010
,  // measure 42
2000
0000
0000
3002
0010
1000
0100
0023
,  // measure 43
0200
0000
0000
0000
0330
0000
0000
0000
0001
0000
0100
0010
0000
1000
0000
0100
,  // measure 44
0002
0000
0000
0200
0000
0000
0303
0000
,  // measure 45
0010
0000
0100
0000
0001
0100
1000
0000
0010
0000
0100
0001
0000
0001
0000
1000
,  // measure 46
0020
0000
0000
0230
0010
1000
0010
0302
,  // measure 47
2000
0000
0000
0000
3003
0000
0000
0000
0010
0000
0100
0001
0000
0001
0000
0001
,  // measure 48
0220
0000
0330
0000
1000
0001
1000
0000
0010
0000
0100
0000
1000
0000
0100
0000
,  // measure 49
0022
0000
0033
0000
0100
0001
0100
0000
0010
0000
1000
0000
0002
0000
0000
0000
,  // measure 50
2000
0000
3003
0000
0010
0100
0010
0000
1000
0000
0001
0000
0100
0000
0001
0000
,  // measure 51
2200
0000
3300
0000
0001
1000
0001
0000
0100
0000
0010
0000
0002
0000
0000
0000
,  // measure 52
0200
0000
0303
0000
0010
0100
0010
0000
1000
0000
0001
0000
0100
0000
1000
0000
,  // measure 53
0220
0000
0330
0000
0100
1000
0001
0000
0100
0000
0010
0000
2000
0000
0000
0000
,  // measure 54
0200
0000
3300
0000
0001
1000
0100
0000
0010
0000
1000
0000
0001
0000
1000
0000
,  // measure 55
0202
0000
0303
0000
0010
0100
0010
0000
1000
0000
0001
0000
0020
0000
0000
0000
,  // measure 56
0200
0000
0330
0000
0001
1000
0001
0000
0010
0000
1000
0000
0001
0000
0100
0000
,  // measure 57
0022
0000
0033
0000
0100
0001
0100
0000
1000
0000
0100
0000
0020
0000
0000
0000
,  // measure 58
2000
0000
3030
0000
0010
0100
0010
0000
0001
0000
1000
0000
0001
0000
1000
0000
,  // measure 59
0220
0000
0330
0000
1000
0001
1000
0000
0100
0000
0010
0000
0002
0000
0000
0000
,  // measure 60
2000
0000
3003
0000
0010
0100
0001
0000
0100
0000
0001
0000
1000
0000
0100
0000
,  // measure 61
0220
0000
0330
0000
0001
0100
1000
0000
0001
0000
0100
0000
2000
0000
0000
0000
,  // measure 62
0200
0000
3300
0000
0001
0010
0100
0000
0010
0000
1000
0000
0001
0000
1000
0000
,  // measure 63
0220
0000
0330
0000
1000
0001
1000
0000
0100
0000
0001
0000
1000
0000
0010
0000
,  // measure 64
2001
0010
0000
0001
0010
0000
0001
0010
0000
0001
0010
0000
3001
0010
0000
0000
,  // measure 65
0020
0100
0000
0100
1000
0000
1000
0001
0000
0001
1000
0000
0130
0010
0000
0000
,  // measure 66
0200
0010
0000
0001
1000
0000
0010
0001
0000
0010
1000
0000
0310
0100
0000
0000
,  // measure 67
0020
0100
0000
0001
1000
0000
0100
0001
0000
1000
0001
0000
0130
0010
0000
0000
,  // measure 68
0202
0000
0000
0303
,  // measure 69
2020
0000
0000
3030
,  // measure 70
0220
0000
0000
0330
,  // measure 71
2002
0000
0000
0000
0000
0003
0000
3000
;
