#TITLE:PARANOiA ~HADES~;
#SUBTITLE:;
#ARTIST:@TYPE-300;
#TITLETRANSLIT:;
#SUBTITLETRANSLIT:;
#ARTISTTRANSLIT:;
#GENRE:;
#CREDIT:;
#BANNER:PARANOiA ~HADES~.png;
#BACKGROUND:PARANOiA ~HADES~-bg.png;
#LYRICSPATH:;
#CDTITLE:;
#MUSIC:PARANOiA ~HADES~.ogg;
#OFFSET:0.000000;
#SAMPLESTART:1.600000;
#SAMPLELENGTH:12.000000;
#SELECTABLE:YES;
#DISPLAYBPM:75.000000:300.000000;
#BPMS:0.000000=300.000000
,264.000000=75.000000
,265.000000=150.000000
,267.000000=75.000000
,268.000000=150.000000
,270.000000=75.000000
,271.000000=150.000000
,273.000000=75.000000
,274.000000=150.000000
,277.000000=75.000000
,277.500000=150.000000
,280.500000=75.000000
,281.000000=150.000000
,284.000000=75.000000
,284.500000=150.000000
,287.500000=75.000000
,288.000000=150.000000
,306.000000=300.000000
,370.000000=600.000000
,510.000000=1200.000000
;
#STOPS:
;
#BGCHANGES:0.000=PARANOiA _HADES_.avi=1.000=0=0=0=StretchNoLoop====,
99999=-nosongbg-=1.000=0=0=0 // don't automatically add -songbackground-
;
#KEYSOUNDS:;
#ATTACKS:;

//---------------dance-single - ----------------
#NOTES:
     dance-single:
     :
     Challenge:
     18:
     1.098901,1.975961,0.519231,0.211538,0.326923,800.000000,746.000000,54.000000,22.000000,0.000000,0.000000,1.098901,1.975961,0.519231,0.211538,0.326923,800.000000,746.000000,54.000000,22.000000,0.000000,0.000000:
// measure 0
0000
0000
0000
0000
,  // measure 1
0000
0000
0000
0000
,  // measure 2
0001
0010
0100
1000
0001
0010
0100
1000
,  // measure 3
1000
0100
0010
0001
1000
0100
0010
0001
,  // measure 4
0100
0010
0100
0010
1000
0001
1000
0001
,  // measure 5
1000
0100
1000
0100
0010
0001
0010
0001
,  // measure 6
0100
1000
0100
0001
1000
0001
1000
0100
,  // measure 7
0010
0100
0010
0100
1000
0001
0100
0001
,  // measure 8
0010
1000
0010
0100
0001
1000
0001
0100
,  // measure 9
0010
1000
0010
0100
0010
1000
0100
0001
,  // measure 10
1000
0001
0100
0001
1000
0010
0100
0010
,  // measure 11
1000
0001
0100
0001
0010
1000
0001
0100
,  // measure 12
0001
0010
1000
0100
1000
0100
0001
0100
,  // measure 13
0001
0010
0100
0001
1000
0001
0010
0100
,  // measure 14
0001
1000
0001
0100
1000
0100
0010
1000
,  // measure 15
0001
0100
0001
1000
0100
0001
1000
0001
,  // measure 16
0100
1000
0010
0100
0010
1000
0001
0100
,  // measure 17
0001
0010
1000
0001
0100
0001
1000
0010
,  // measure 18
0102
1000
0013
0100
,  // measure 19
0001
0000
1000
0000
0001
1000
0100
0000
,  // measure 20
0010
1000
0100
0001
,  // measure 21
1000
0000
0001
0000
1000
0100
0010
0000
,  // measure 22
0200
0010
0310
0001
,  // measure 23
1000
0000
0001
0000
1000
0001
0100
0000
,  // measure 24
0002
0100
2003
0001
,  // measure 25
3020
1000
0230
0001
,  // measure 26
0310
0000
0000
1001
0110
0000
0000
1001
,  // measure 27
0110
0000
0000
0011
1100
0000
0000
0011
,  // measure 28
1100
0000
0000
0110
0101
0000
0000
0101
,  // measure 29
1001
0000
0000
0010
0100
0010
0100
0010
,  // measure 30
0100
0000
0000
1001
1100
0000
0000
0110
,  // measure 31
1100
0000
0000
0110
1001
0000
0000
0101
,  // measure 32
1010
0000
0000
0011
1100
0000
0000
0011
,  // measure 33
0110
0000
0000
1000
0001
1000
0001
1000
,  // measure 34
0001
0000
0100
0000
1000
0000
0010
0100
,  // measure 35
0010
1000
0100
0100
,  // measure 36
0001
0000
1000
0000
0001
0000
1000
0001
,  // measure 37
0100
0100
0001
1000
,  // measure 38
0001
0000
1000
0000
0010
0000
0001
0100
,  // measure 39
1000
0001
0100
0001
,  // measure 40
0010
0100
1000
0001
0010
0001
0100
1000
,  // measure 41
0010
0100
0001
0100
0001
0100
0001
0100
,  // measure 42
1001
0000
1000
0000
0100
0010
0100
0010
,  // measure 43
0101
1010
0110
0100
,  // measure 44
0100
0000
1000
0000
0001
0100
1000
0100
,  // measure 45
2001
0000
0000
0000
0010
0000
0000
3000
1002
0000
0000
0000
0010
0000
0000
0000
,  // measure 46
0103
0000
0010
0000
0001
1000
0001
1000
,  // measure 47
0110
0101
1001
0100
,  // measure 48
0100
0000
0001
0000
1000
0010
0001
1000
,  // measure 49
0110
1001
1001
0010
,  // measure 50
0001
1000
0001
0100
0001
1000
0010
0100
,  // measure 51
0010
1000
0100
0001
1000
0001
1000
0001
,  // measure 52
1000
0010
0100
0001
1000
0010
0100
0001
,  // measure 53
1000
0001
0100
0001
1000
0010
0001
0100
,  // measure 54
0001
1000
0010
1000
0010
0100
0001
1000
,  // measure 55
0001
0100
0001
1000
0010
0001
0100
0001
,  // measure 56
0100
1000
0010
1000
0100
0001
1000
0001
,  // measure 57
0100
0010
1000
0100
0001
1000
0001
0010
,  // measure 58
0001
0100
1000
0100
1000
0001
0100
0001
,  // measure 59
1000
0001
0100
0001
1000
0001
0010
0100
,  // measure 60
1000
0100
1000
0001
0010
0001
0010
0001
,  // measure 61
0100
0010
0100
0010
1000
0001
0100
0001
,  // measure 62
1000
0100
1000
0010
1000
0001
0100
0001
,  // measure 63
1000
0001
0100
1000
0010
0100
0010
1000
,  // measure 64
0001
0100
0001
0100
1000
0100
0010
1000
,  // measure 65
0001
1000
0001
1000
0001
1000
0001
1000
,  // measure 66
0202
0000
0000
0000
0000
0000
0000
0303
0010
0000
0001
0000
1000
0000
0010
0000
0001
0000
1000
0000
0100
0000
0001
0000
2020
0000
0000
0000
0000
0000
0000
3030
,  // measure 67
0100
0000
0010
0000
0001
0000
0100
0000
1000
0000
0010
0000
0001
0000
1000
0000
0220
0000
0000
0000
0000
0000
0000
0330
1000
0000
0001
0000
0010
0000
0001
0000
,  // measure 68
0100
0000
1000
0000
0010
0000
1000
0000
0202
0000
0000
0000
0000
0000
0000
0303
0010
0000
0000
0000
1000
0000
0000
0000
0001
0000
0000
0000
0100
0000
0000
0000
,  // measure 69
0001
0000
0100
0000
1000
0000
0010
0000
0000
0100
0000
0001
0000
1000
0000
0010
0000
0001
0000
0100
0000
0001
0000
1000
,  // measure 70
0000
0010
0000
0100
0000
0000
0001
0000
1000
0000
0001
0000
1000
0000
0010
0000
0001
0000
0100
0000
0001
0000
1000
0000
,  // measure 71
0010
0000
0000
0100
0000
0001
0000
1000
0000
0010
0000
0100
0000
0010
0000
0100
0000
0010
0000
1000
0000
0100
0000
0000
,  // measure 72
0001
0100
0001
0100
0010
1000
0010
1000
0100
1000
0100
1000
,  // measure 73
0001
0100
0001
0100
0010
0001
0010
0001
0100
0100
1000
1000
,  // measure 74
0010
0010
0001
0001
0100
0001
0100
0010
1000
0010
1000
0100
,  // measure 75
1000
0100
1000
0001
0010
0001
0010
0100
0010
0100
0010
1000
,  // measure 76
0100
0000
1000
0000
0100
0000
0001
0000
0100
0000
0001
0000
0100
0000
0000
0000
0000
0000
0010
0000
0000
1000
0000
0000
,  // measure 77
0001
0000
0001
1000
0100
0000
0001
1000
,  // measure 78
0010
0000
0100
0010
0001
0000
1000
0010
,  // measure 79
0100
0000
0100
1000
0010
0000
0001
1000
,  // measure 80
0100
0000
0001
0100
0010
0000
0010
1000
,  // measure 81
0010
0000
0100
0010
0001
0000
1000
0001
,  // measure 82
1000
0000
0100
0001
0100
0000
1000
0010
,  // measure 83
0100
0000
0001
1000
0100
0000
0001
0000
,  // measure 84
0010
0100
1000
0100
0001
0000
0100
0000
,  // measure 85
0011
0000
1000
0000
1001
0000
0100
0010
,  // measure 86
0001
0100
0110
0001
,  // measure 87
1100
0000
0001
0000
1010
0000
0001
0010
,  // measure 88
1000
0001
0110
0001
,  // measure 89
1010
0000
0100
0000
0110
0000
0001
1000
,  // measure 90
0100
0001
0200
0010
,  // measure 91
0302
1000
0203
0001
,  // measure 92
0320
1000
0031
0100
,  // measure 93
0001
0100
0001
1000
,  // measure 94
0001
1000
0100
1000
,  // measure 95
0100
1000
0001
1000
,  // measure 96
0001
0100
0001
0100
,  // measure 97
0001
0100
0001
1000
,  // measure 98
0001
1000
0010
1000
,  // measure 99
0001
1000
0010
1000
,  // measure 100
0100
1000
0100
0010
,  // measure 101
0001
0010
0001
1000
,  // measure 102
0001
1000
0010
1000
,  // measure 103
0010
1000
0010
0100
,  // measure 104
0010
0100
0010
1000
,  // measure 105
0010
1000
0001
1000
,  // measure 106
0001
1000
0010
1000
,  // measure 107
0001
1000
0010
1000
,  // measure 108
0010
1000
0001
0010
,  // measure 109
0100
1000
0001
1000
,  // measure 110
0001
0100
0001
0010
,  // measure 111
0100
1000
0100
0010
,  // measure 112
0001
0100
0001
1000
,  // measure 113
0001
1000
0001
0100
,  // measure 114
0001
0100
0010
1000
,  // measure 115
0001
1000
0010
1000
,  // measure 116
0100
1000
0100
1000
,  // measure 117
0010
0100
0001
0100
,  // measure 118
0010
0100
0010
1000
,  // measure 119
0001
0010
0001
1000
,  // measure 120
0100
1000
0001
0100
,  // measure 121
0001
1000
0001
0100
,  // measure 122
0010
0100
0001
0100
,  // measure 123
0001
1000
0001
1000
,  // measure 124
0001
1000
1010
0000
,  // measure 125
0101
0000
0000
0000
,  // measure 126
1001
0000
0110
0000
,  // measure 127
0000
0000
2002
0000
,  // measure 128
0000
0000
0000
0000
,  // measure 129
0000
0000
0000
0000
,  // measure 130
0000
0000
0000
0000
,  // measure 131
0000
0000
0000
0000
,  // measure 132
0000
0000
0000
0000
,  // measure 133
0000
0000
0000
0000
,  // measure 134
0000
0000
0000
0000
,  // measure 135
0000
0000
0000
0000
,  // measure 136
0000
0000
0000
0000
,  // measure 137
3003
0000
0000
0000
;
