#TITLE:PARANOiA Rebirth;
#SUBTITLE:;
#ARTIST:Unknown artist;
#TITLETRANSLIT:;
#SUBTITLETRANSLIT:;
#ARTISTTRANSLIT:;
#GENRE:;
#CREDIT:;
#BANNER:PARANOiA Rebirth.png;
#BACKGROUND:PARANOiA Rebirth-bg.png;
#LYRICSPATH:;
#CDTITLE:;
#MUSIC:PARANOiA Rebirth.mp3;
#OFFSET:0.000000;
#SAMPLESTART:0.000000;
#SAMPLELENGTH:12.000000;
#SELECTABLE:YES;
#BPMS:0.000000=190.000000
;
#STOPS:
;
#BGCHANGES:;
#KEYSOUNDS:;
#ATTACKS:;

//---------------dance-single - ----------------
#NOTES:
     dance-single:
     :
     Beginner:
     3:
     0.227074,0.348530,0.141741,0.000000,0.000000,157.000000,143.000000,14.000000,0.000000,0.000000,0.000000,0.227074,0.348530,0.141741,0.000000,0.000000,157.000000,143.000000,14.000000,0.000000,0.000000,0.000000:
0000
0000
0000
0000
,
0000
0000
0000
0000
,
0000
0000
0000
0000
,
0000
0000
0000
0000
,
0000
0000
0000
0000
,
0000
0000
0000
0000
,
0000
0000
0000
0000
,
0000
0000
0000
0000
,
0010
0000
0010
0000
,
0100
0000
0100
0000
,
0001
0000
1000
0000
,
0100
0000
0001
0010
,
0010
0000
1000
0000
,
0010
0000
0001
0000
,
0100
0000
1000
0000
,
0100
0100
0100
0100
,
0001
0000
0001
0000
,
1000
0000
1000
0000
,
0100
0000
1000
0000
,
0010
0000
0001
1000
,
1000
0000
0100
0000
,
0010
0000
0010
0000
,
1000
0000
0001
0000
,
0100
0100
0100
0000
,
0010
0000
1000
0000
,
0001
0001
0001
0001
,
0100
0000
0010
0000
,
1000
0000
1000
0000
,
0001
0000
0100
0000
,
0010
0010
0010
0010
,
0100
0000
1000
0000
,
0100
0000
0100
0000
,
0101
0000
0000
0000
,
0000
0011
0000
0000
0000
0000
0000
0000
,
0000
0110
0000
0000
0000
0000
0000
0000
,
0000
0101
0000
0000
0000
0000
0000
0000
,
1100
0000
0000
0000
,
0000
0110
0000
0000
0000
0000
0000
0000
,
0000
0101
0000
0000
0000
0000
0000
0000
,
0010
0010
0010
0010
,
0110
0000
1000
1000
,
0000
0001
0001
0001
,
0100
0000
0000
0100
0000
0000
0000
0010
,
0000
1000
0000
1000
0000
1000
0000
0000
,
0001
0000
0000
0000
,
0000
0000
0100
0100
,
0100
0000
0000
0000
,
0000
0010
0010
0010
,
0010
0000
0000
0000
,
0000
0000
1000
1000
,
1000
0000
0000
0000
,
0000
0001
0001
0001
,
0000
0000
0000
0000
,
0010
0000
0100
0000
,
0010
0000
0100
0000
,
1000
0000
0001
0000
,
1000
0100
0100
0100
,
0001
0000
1000
0000
,
0001
0000
1000
0000
,
0001
0000
1000
0000
,
0001
0000
1000
0000
,
0101
0000
0000
0000
,
0010
0000
0000
0000
,
0100
0000
0100
0000
,
0100
0000
0100
0000
,
1000
0000
0000
0000
,
0010
0000
0000
0000
,
1000
0000
1000
0000
,
1000
0000
1000
0000
,
0101
0000
0010
0000
,
1000
0000
0001
0000
,
0100
0000
0001
0000
,
1100
0000
0010
0000
,
0110
0000
0100
0000
,
0101
0000
1000
0000
,
0001
0010
0100
1000
,
0001
1000
1001
0000
;

//---------------dance-single - ----------------
#NOTES:
     dance-single:
     :
     Easy:
     6:
     0.441131,0.621634,0.404973,0.050622,0.000000,305.000000,265.000000,40.000000,5.000000,0.000000,0.000000,0.441131,0.621634,0.404973,0.050622,0.000000,305.000000,265.000000,40.000000,5.000000,0.000000,0.000000:
// measure 0
0000
0000
0000
0000
,  // measure 1
0000
0000
0000
0000
,  // measure 2
0000
0000
0000
0000
,  // measure 3
0000
0000
0000
0000
,  // measure 4
0000
0000
0000
0000
,  // measure 5
0000
0000
0000
0000
,  // measure 6
0000
0000
0000
0000
,  // measure 7
0000
0000
0000
0000
,  // measure 8
0101
0001
0010
0100
,  // measure 9
1000
0001
1000
0001
,  // measure 10
0010
1000
0100
0010
,  // measure 11
1000
0000
1000
0000
1000
0000
0001
0100
,  // measure 12
0010
0010
0100
0001
,  // measure 13
0010
1000
0001
1000
,  // measure 14
0001
0000
1000
0000
0001
0000
0100
1000
,  // measure 15
0001
0001
0001
0001
,  // measure 16
0000
0001
1000
0000
0001
0000
0100
0000
,  // measure 17
0001
1000
0010
0001
,  // measure 18
0100
0001
1000
0001
,  // measure 19
1000
0000
0010
0000
1000
0000
0100
0100
,  // measure 20
0001
0010
0001
0100
,  // measure 21
0010
0100
1000
0001
,  // measure 22
1000
0001
0100
0010
,  // measure 23
0110
0110
0110
0000
,  // measure 24
1000
0001
0010
1000
,  // measure 25
0101
0101
0101
0101
,  // measure 26
0001
0100
1000
0010
,  // measure 27
1000
0000
0001
1000
0100
0000
1000
0000
,  // measure 28
0001
1000
0001
0100
,  // measure 29
1010
1010
1010
1010
,  // measure 30
1000
0001
1000
0001
,  // measure 31
0100
0000
1000
1000
0001
0000
0000
0000
,  // measure 32
0001
1000
0000
0100
0000
0010
0000
0001
,  // measure 33
0000
0010
0000
0100
0000
1000
0000
0100
,  // measure 34
0000
0010
0000
0100
0000
1000
0000
0100
,  // measure 35
0000
0010
0000
0001
0000
0010
0000
0100
,  // measure 36
0100
0010
0000
0001
0000
0010
0000
0100
,  // measure 37
0000
1000
0000
0100
0000
0010
0000
0001
,  // measure 38
0000
0010
0000
0001
0000
0100
0000
1000
,  // measure 39
0010
0010
0010
0010
,  // measure 40
0101
0000
1100
1100
,  // measure 41
0000
1010
1010
1010
,  // measure 42
0100
0000
0001
0000
,  // measure 43
0010
0110
0110
0110
,  // measure 44
0100
0000
1000
0000
0000
0100
0000
0000
,  // measure 45
0001
0000
0000
0000
0010
0010
0010
0010
,  // measure 46
0100
0000
0001
0000
0000
0010
0000
0000
,  // measure 47
1000
0000
0000
0000
0100
0100
0100
0100
,  // measure 48
0100
0000
1000
0000
0000
0001
0000
0000
,  // measure 49
0010
0000
0000
0000
0100
0100
0100
0100
,  // measure 50
0001
0000
0001
0000
0000
0010
0000
0000
,  // measure 51
1000
0000
0000
0000
0001
0001
0001
0001
,  // measure 52
0000
0000
0000
0000
,  // measure 53
1010
1000
0001
1000
,  // measure 54
0001
1000
0010
0001
,  // measure 55
0101
1000
0010
1000
,  // measure 56
0001
0100
1000
0000
0100
0000
1000
0000
,  // measure 57
0120
0031
1000
0001
,  // measure 58
2100
3010
0001
0100
,  // measure 59
0012
1003
0001
1000
,  // measure 60
0120
0031
0100
0000
,  // measure 61
1000
0000
0001
0000
,  // measure 62
0100
0000
1000
0001
,  // measure 63
0010
0010
0010
0010
,  // measure 64
0010
0010
0010
0010
,  // measure 65
0100
0000
0100
0000
,  // measure 66
0001
0000
0001
0000
,  // measure 67
1000
1000
1000
1000
,  // measure 68
1000
1000
1000
1000
,  // measure 69
0101
1000
0010
1000
,  // measure 70
0001
0100
0001
1000
,  // measure 71
0010
0001
0100
0001
,  // measure 72
1001
1001
0010
0010
,  // measure 73
1100
1100
1000
0001
,  // measure 74
0110
0101
0010
1000
,  // measure 75
1001
0110
1001
1100
,  // measure 76
1001
0110
0200
0300
;
