#TITLE:PARANOiA KCET ~clean mix~;
#SUBTITLE:;
#ARTIST:2MB;
#TITLETRANSLIT:;
#SUBTITLETRANSLIT:;
#ARTISTTRANSLIT:;
#GENRE:;
#CREDIT:;
#BANNER:PARANOIA KCET (clean mix).png;
#BACKGROUND:PARANOIA KCET (clean mix)-bg.png;
#LYRICSPATH:;
#CDTITLE:;
#MUSIC:PARANOIA KCET (clean mix).mp3;
#OFFSET:-1.459000;
#SAMPLESTART:61.375000;
#SAMPLELENGTH:23.000000;
#SELECTABLE:YES;
#BPMS:0.000000=180.000000
;
#STOPS:
;
#BGCHANGES:;
#KEYSOUNDS:;
#ATTACKS:;

//---------------dance-single - ----------------
#NOTES:
     dance-single:
     :
     Beginner:
     2:
     0.140020,0.204360,0.127419,0.009801,0.000000,100.000000,87.000000,13.000000,1.000000,0.000000,0.000000,0.140020,0.204360,0.127419,0.009801,0.000000,100.000000,87.000000,13.000000,1.000000,0.000000,0.000000:
0000
0000
0000
0000
,
0001
0000
0000
0000
,
0100
0000
0000
0000
,
0001
0000
0000
0000
,
1000
0000
0000
0000
,
0001
0000
0000
0000
,
1000
0000
0000
0000
,
0001
0000
0000
0000
,
0100
0000
0000
0000
,
1000
0000
0000
0000
,
0010
0000
0000
0000
,
1000
0000
0000
0000
,
0001
0000
0000
0000
,
0100
0000
0000
0000
,
0001
0000
0000
0000
,
1000
0000
0000
0000
,
0100
0000
0000
0000
,
1001
0000
0000
0000
,
0000
0000
0000
0000
,
0101
0000
0000
0000
,
0000
0000
0000
0000
,
1001
0000
0000
0000
,
0000
0000
0000
0000
,
0110
0000
0000
0000
,
0000
0000
0000
0000
,
0010
0000
0010
0000
,
0000
0000
0000
0000
,
0000
0000
1000
0000
,
1000
0000
0000
0000
,
0001
0000
0001
0000
,
0001
0000
0010
0000
,
1000
0000
0100
0000
,
1000
0000
0001
0000
,
0100
0000
0010
0000
,
0001
0000
0100
0000
,
1000
0000
0010
0000
,
0001
0000
0100
0000
,
0110
0000
1000
0000
,
0100
0000
1000
0000
,
0001
0000
0100
0000
,
0001
0000
1000
0000
,
0010
0000
0100
0000
,
0100
0000
0100
0000
,
0100
0000
0100
0000
,
0100
0000
0000
0000
,
1001
0000
0000
0000
,
0010
0000
0000
0000
,
0110
0000
0000
0000
,
1000
0000
0000
0000
,
0101
0000
0000
0000
,
0010
0000
0000
0000
,
1100
0000
0000
0000
,
0010
0000
0000
0000
,
0101
0000
0000
0000
,
1000
0000
0000
0000
,
0011
0000
0000
0000
,
0100
0000
0000
0000
,
0110
0000
0000
0000
,
1000
0000
0000
0000
,
0101
0000
0000
0000
,
0010
0000
0000
0000
,
0001
0000
0100
0000
,
0001
0000
1000
0000
,
0010
0000
0100
0000
,
0010
0000
1000
0000
,
0100
0000
0001
0000
,
0100
0000
0010
0000
,
1000
0000
0100
0000
,
0001
0000
0000
0200
,
0000
0000
0300
0000
;

//---------------dance-single - ----------------
#NOTES:
     dance-single:
     :
     Easy:
     5:
     0.375254,0.373312,0.107816,0.019603,0.000000,268.000000,257.000000,11.000000,2.000000,0.000000,0.000000,0.375254,0.373312,0.107816,0.019603,0.000000,268.000000,257.000000,11.000000,2.000000,0.000000,0.000000:
0000
0000
0000
0000
,
0011
0001
0001
0001
,
1000
1000
1000
1000
,
0010
0010
0010
0010
,
0100
0100
0100
0100
,
1000
0001
1000
0001
,
1000
1000
1000
0010
,
0100
0010
1000
0100
,
0100
0001
1000
0001
,
0100
0001
1000
0010
,
0010
0010
0001
0100
,
0001
1000
0010
1000
,
1000
1000
0100
0001
,
1000
0001
1000
0010
,
0010
0010
0100
0001
,
1000
0001
1000
1000
,
1000
0100
0001
1000
,
0110
0000
0010
0010
,
0001
0000
0001
0001
,
1100
0000
0100
0100
,
1000
0000
0001
0001
,
0101
0000
0010
0010
,
0100
0000
0001
0001
,
1010
0000
0010
0100
,
1000
0000
0001
0101
,
1000
1000
1000
0000
,
0010
0000
0100
0100
,
0000
0000
0001
0000
,
1000
1000
0000
0000
,
0010
0010
0010
0010
,
0010
0010
0010
0010
,
1000
1000
1000
1000
,
1000
0001
0100
0001
,
1000
0010
0001
0100
,
0010
0010
0010
0010
,
1000
1000
1000
1000
,
0001
0001
0101
0001
,
1000
1000
1000
0010
,
0100
0001
1000
0001
,
1000
1000
1000
1000
,
0010
0010
0010
0010
,
0100
0100
0100
0001
,
1000
0001
1000
0001
,
0010
0010
0001
0001
,
0100
0100
1000
1000
,
0012
0100
1000
0100
,
1000
0010
1000
0100
,
1000
0010
1000
1000
,
0010
0010
0010
0010
,
1000
0100
1000
1000
,
0010
0010
1000
0010
,
1000
0010
0100
0010
,
1000
0100
1000
0100
,
1000
0010
0010
0010
,
1000
1000
0100
1000
,
0100
0010
1000
0100
,
0010
1000
0100
1000
,
0010
0010
0010
0010
,
1000
1000
1000
1000
,
1000
1000
1000
1000
,
1000
1000
1000
1000
,
0103
0100
1000
0001
,
1000
0001
0010
0001
,
0110
0010
0001
1000
,
0100
0001
1000
0010
,
0101
0100
0001
1000
,
0010
1000
0100
0001
,
1100
1000
0100
0001
,
0010
0010
0010
0200
,
0000
0300
0000
0000
;

//---------------dance-single - ----------------
#NOTES:
     dance-single:
     :
     Medium:
     7:
     0.502673,0.475124,0.225433,0.009801,0.000000,359.000000,336.000000,23.000000,1.000000,0.000000,0.000000,0.502673,0.475124,0.225433,0.009801,0.000000,359.000000,336.000000,23.000000,1.000000,0.000000,0.000000:
// measure 0
0000
0000
0000
0000
,  // measure 1
0011
0000
0001
0000
1000
0000
0100
0010
,  // measure 2
0001
0000
1000
0000
0010
0001
0100
0000
,  // measure 3
1010
0000
1000
0000
0100
0000
0001
0100
,  // measure 4
1000
0000
0001
0000
1000
0100
0010
0000
,  // measure 5
0110
0000
0001
0000
1000
0000
0001
1000
,  // measure 6
0010
0000
0100
0000
0001
1000
0010
0000
,  // measure 7
1100
0000
0001
0000
0010
0000
0100
0010
,  // measure 8
0001
0000
0100
0000
1000
0001
0100
0000
,  // measure 9
0110
0000
1000
0000
0001
0000
0100
1000
,  // measure 10
0100
0000
0001
0000
0010
0100
1000
0000
,  // measure 11
0101
0000
0100
0000
1000
0000
0100
0001
,  // measure 12
0010
0000
1000
0000
0001
0100
0010
0000
,  // measure 13
0101
0000
0010
0000
0001
0000
1000
0100
,  // measure 14
0010
0000
0100
0000
1000
0010
0001
0000
,  // measure 15
1100
0000
0001
0000
0100
0000
0010
1000
,  // measure 16
0001
0000
1000
0000
0100
0001
1000
0000
,  // measure 17
0101
0000
1000
0000
0001
0000
0100
0100
,  // measure 18
0100
0000
1000
0000
0001
0100
0010
0000
,  // measure 19
1100
0000
0100
0000
0010
0000
0001
0001
,  // measure 20
0001
0000
1000
0000
0100
0100
0001
0000
,  // measure 21
0110
0000
1000
0000
0100
0000
0010
0010
,  // measure 22
0010
0000
0001
0000
1000
0001
0100
0000
,  // measure 23
0101
0000
0010
0000
0100
0000
1000
1000
,  // measure 24
1000
0000
0001
0000
0100
0100
0110
0000
,  // measure 25
0010
0000
0010
0100
0010
0100
0000
0000
,  // measure 26
0001
0000
0000
0000
1000
0001
1000
0000
,  // measure 27
0000
0000
0100
0000
,  // measure 28
0010
0100
0010
0000
0000
0000
0000
0000
,  // measure 29
0101
0001
0001
0001
,  // measure 30
0001
0001
0001
0001
,  // measure 31
0001
0100
0010
1000
,  // measure 32
0100
0000
1000
0010
0001
0010
1000
0000
,  // measure 33
0100
0100
0001
1000
,  // measure 34
0010
0000
1000
0010
0001
0100
0100
0000
,  // measure 35
1000
0100
0010
1000
,  // measure 36
0001
0000
0100
0100
0001
0100
1000
0000
,  // measure 37
0110
0100
0100
0100
,  // measure 38
0001
0000
0001
1000
0001
1000
0010
0000
,  // measure 39
0100
0100
1000
1000
,  // measure 40
0001
0000
0001
0100
0010
0100
0010
0000
,  // measure 41
0100
0010
0001
1000
,  // measure 42
0100
0000
0100
0001
0100
0001
0100
0000
,  // measure 43
0100
0010
0100
0000
0100
0010
0100
0000
,  // measure 44
0100
0000
1000
0001
1000
0001
1000
0000
,  // measure 45
0101
0000
1000
0000
0010
0000
1000
0100
,  // measure 46
0001
0000
0100
0000
1000
0001
0100
0000
,  // measure 47
0110
0000
1000
0000
0010
0000
1000
0100
,  // measure 48
0001
0000
0100
0000
0001
0100
0010
0000
,  // measure 49
0101
0000
0001
0000
1000
0000
0100
1000
,  // measure 50
0001
0000
0010
0000
1000
1000
0001
0000
,  // measure 51
1100
0000
0100
0000
1000
0000
0010
0010
,  // measure 52
0100
0000
0001
0000
1000
0100
0100
0000
,  // measure 53
1001
0000
0001
0000
0010
0000
1000
0010
,  // measure 54
0001
0000
0100
0000
1000
0010
0100
0000
,  // measure 55
0110
0000
1000
0000
0001
0000
0100
1000
,  // measure 56
0001
0000
0010
0000
1000
0001
0001
0000
,  // measure 57
1100
0000
0100
0000
0010
0000
1000
0010
,  // measure 58
0001
0000
0100
0000
0001
0100
1000
0000
,  // measure 59
0101
0000
0010
0000
0100
0000
1000
0010
,  // measure 60
0001
0000
1000
0000
0001
0100
1000
0000
,  // measure 61
0010
0100
0010
0000
0100
0000
1000
0000
,  // measure 62
0001
0010
1000
0010
0001
0010
0100
0000
,  // measure 63
1000
0001
1000
0000
0010
0000
0001
0000
,  // measure 64
0010
0000
1000
1000
0001
1000
0100
0000
,  // measure 65
0100
0001
0100
0000
0010
0000
1000
0000
,  // measure 66
0001
0000
1000
1000
0001
0000
1000
0000
,  // measure 67
0010
0100
0010
0100
1000
0000
0010
0000
,  // measure 68
0001
0100
0100
0200
,  // measure 69
0000
0300
0000
0000
;
