#TITLE:PARANOIA EVOLUTION;
#SUBTITLE:;
#ARTIST:200;
#TITLETRANSLIT:;
#SUBTITLETRANSLIT:;
#ARTISTTRANSLIT:;
#GENRE:;
#CREDIT:;
#BANNER:PARANOIA EVOLUTION.png;
#BACKGROUND:PARANOIA EVOLUTION-bg.png;
#LYRICSPATH:;
#CDTITLE:;
#MUSIC:PARANOIA EVOLUTION.ogg;
#OFFSET:-1.199000;
#SAMPLESTART:-1.199000;
#SAMPLELENGTH:12.000000;
#SELECTABLE:YES;
#DISPLAYBPM:200.000000;
#BPMS:0.000000=200.222000
,16.000000=200.089005
;
#STOPS:
;
#BGCHANGES:;
#KEYSOUNDS:;
#ATTACKS:;

//---------------dance-single - ----------------
#NOTES:
     dance-single:
     :
     Medium:
     1:
     0.022612,0.037988,0.000000,0.010552,0.000000,15.000000,15.000000,0.000000,1.000000,0.000000,0.000000,0.022612,0.037988,0.000000,0.010552,0.000000,15.000000,15.000000,0.000000,1.000000,0.000000,0.000000:
0000
0000
0000
0000
,
0000
0000
0000
0000
,
0000
0000
0000
0000
,
0000
0000
0000
0000
,
1000
0001
0100
0001
,
1000
0010
0001
0100
,
1000
0100
0001
1000
,
0001
0020
0000
0000
,
0130
0000
0000
0000
;

//---------------dance-single - ----------------
#NOTES:
     dance-single:
     :
     Beginner:
     2:
     0.150747,0.235844,0.000000,0.000000,0.000000,100.000000,100.000000,0.000000,0.000000,0.000000,0.000000,0.150747,0.235844,0.000000,0.000000,0.000000,100.000000,100.000000,0.000000,0.000000,0.000000,0.000000:
// measure 0
0000
0000
0000
0000
,  // measure 1
0000
0000
0000
0000
,  // measure 2
0000
0000
0000
0000
,  // measure 3
0000
0000
0000
0000
,  // measure 4
0000
0000
0000
0000
,  // measure 5
0000
0000
0000
0000
,  // measure 6
0000
0000
0000
0000
,  // measure 7
0000
0000
0000
0000
,  // measure 8
0100
0000
0000
0000
,  // measure 9
0010
0000
0000
0000
,  // measure 10
1000
0000
0000
0000
,  // measure 11
0001
0000
0000
0000
,  // measure 12
0100
0000
0000
0000
,  // measure 13
0001
0000
0000
0000
,  // measure 14
1000
0000
0000
0000
,  // measure 15
0010
0000
0010
0000
,  // measure 16
0100
0000
0000
0000
,  // measure 17
0100
0000
0000
0000
,  // measure 18
1000
0000
0000
0000
,  // measure 19
0100
0000
0000
0000
,  // measure 20
0001
0000
0000
0000
,  // measure 21
0010
0000
0000
0000
,  // measure 22
1000
0000
0000
0000
,  // measure 23
0001
0000
0000
0000
,  // measure 24
0100
0000
0000
0000
,  // measure 25
0100
0000
0000
0000
,  // measure 26
1000
0000
1000
0000
,  // measure 27
0001
0000
0100
0000
,  // measure 28
0010
0000
0000
0000
,  // measure 29
0010
0000
0000
0000
,  // measure 30
0100
0000
0000
0000
,  // measure 31
0010
0000
0010
0000
,  // measure 32
0001
0000
0000
0000
,  // measure 33
1000
0000
0000
0000
,  // measure 34
0001
0000
0000
0000
,  // measure 35
0100
0000
0000
0000
,  // measure 36
1000
0000
0000
0000
,  // measure 37
0010
0000
0000
0000
,  // measure 38
0100
0000
0000
0000
,  // measure 39
0001
0000
0000
0000
,  // measure 40
1000
0000
0001
0001
,  // measure 41
0000
0010
0000
0010
,  // measure 42
1000
0000
0100
0100
,  // measure 43
0001
0000
1000
0000
,  // measure 44
0100
0000
0001
0000
,  // measure 45
1000
0000
0010
0000
,  // measure 46
0100
0000
0010
0000
,  // measure 47
0001
0000
0100
0000
,  // measure 48
1000
0000
0010
0000
,  // measure 49
0001
0000
1000
0000
,  // measure 50
0100
0000
1000
0000
,  // measure 51
0010
0000
0001
0000
,  // measure 52
1000
0000
0100
0000
,  // measure 53
0001
0000
0001
0000
,  // measure 54
0100
0000
0010
0000
,  // measure 55
1000
0000
0001
0000
,  // measure 56
0100
0000
1000
0000
,  // measure 57
0001
0000
1000
0000
,  // measure 58
0010
0000
0100
0000
,  // measure 59
1000
0000
0000
0000
,  // measure 60
0001
0000
0000
0000
,  // measure 61
0100
0000
0000
0000
,  // measure 62
0001
0000
0000
0000
,  // measure 63
1000
0000
0000
0000
,  // measure 64
0001
0000
0000
0000
,  // measure 65
0100
0000
0000
0000
,  // measure 66
1000
0000
0000
0000
,  // measure 67
0010
0000
0010
0000
,  // measure 68
1000
0000
0100
0000
,  // measure 69
0001
0000
1000
0000
,  // measure 70
0100
0000
1000
0000
,  // measure 71
0001
0000
1000
0000
,  // measure 72
0010
0000
0001
0000
,  // measure 73
1000
0000
0100
0000
,  // measure 74
0010
0000
0001
0000
;

//---------------dance-single - ----------------
#NOTES:
     dance-single:
     :
     Easy:
     4:
     0.301495,0.353766,0.000000,0.000000,0.000000,200.000000,200.000000,0.000000,0.000000,0.000000,0.000000,0.301495,0.353766,0.000000,0.000000,0.000000,200.000000,200.000000,0.000000,0.000000,0.000000,0.000000:
// measure 0
0000
0000
0000
0000
,  // measure 1
0000
0000
0000
0000
,  // measure 2
0000
0000
0000
0000
,  // measure 3
0000
0000
0000
0000
,  // measure 4
0000
0000
0000
0000
,  // measure 5
0000
0000
0000
0000
,  // measure 6
0000
0000
0000
0000
,  // measure 7
0000
0000
0000
0000
,  // measure 8
0100
0000
0010
0000
,  // measure 9
0001
0000
0100
0000
,  // measure 10
1000
0000
0100
0000
,  // measure 11
0001
0000
0100
0000
,  // measure 12
1000
0000
1000
0000
,  // measure 13
0010
0000
0001
0000
,  // measure 14
1000
0000
0010
0000
,  // measure 15
0100
0100
0100
0100
,  // measure 16
0001
0000
0010
0000
,  // measure 17
1000
0000
0100
0000
,  // measure 18
0001
0000
1000
1000
,  // measure 19
0100
0100
1000
1000
,  // measure 20
0001
0000
0010
0000
,  // measure 21
1000
0000
0100
0000
,  // measure 22
0010
0000
0100
0000
,  // measure 23
0001
0001
1000
0001
,  // measure 24
0100
0000
0100
0000
,  // measure 25
0001
0000
0001
0000
,  // measure 26
0100
0100
0010
0010
,  // measure 27
0001
0001
1000
1000
,  // measure 28
0010
0000
0010
0000
,  // measure 29
0100
0000
0100
0000
,  // measure 30
1000
0010
0001
0010
,  // measure 31
0100
0100
0100
0100
,  // measure 32
0010
0000
0010
0000
,  // measure 33
0100
0000
0100
0000
,  // measure 34
1000
0100
0001
0100
,  // measure 35
0010
0100
1000
1000
,  // measure 36
0001
0000
0001
0000
,  // measure 37
1000
0000
1000
0000
,  // measure 38
0001
0100
1000
0100
,  // measure 39
0001
0100
0010
1000
,  // measure 40
0010
0000
0010
0010
,  // measure 41
0000
0010
0010
0010
,  // measure 42
0010
0010
0010
0010
,  // measure 43
0100
1000
0001
1000
,  // measure 44
0100
0001
0010
0001
,  // measure 45
0100
0010
0001
0010
,  // measure 46
1000
0010
1000
1000
,  // measure 47
0100
0001
0100
0010
,  // measure 48
0001
0010
0010
0100
,  // measure 49
1000
0100
0010
1000
,  // measure 50
0001
1000
0100
0010
,  // measure 51
1000
0010
0001
0010
,  // measure 52
0100
1000
0010
1000
,  // measure 53
0100
0010
0001
0010
,  // measure 54
1000
0001
0100
1000
,  // measure 55
0001
0010
0100
0100
,  // measure 56
1000
0010
0100
1000
,  // measure 57
0001
0010
1000
0001
,  // measure 58
0100
1000
0010
1000
,  // measure 59
0001
0000
0000
0000
,  // measure 60
1000
0000
0000
0000
,  // measure 61
0010
0000
0000
0000
,  // measure 62
0001
0000
0000
0000
,  // measure 63
0100
0000
0000
0000
,  // measure 64
0001
0000
0000
0000
,  // measure 65
1000
0000
0000
0000
,  // measure 66
0010
0000
0000
0000
,  // measure 67
0100
0100
1000
1000
,  // measure 68
0100
0001
0010
0100
,  // measure 69
1000
1000
0001
0001
,  // measure 70
0100
0010
1000
0010
,  // measure 71
0100
0100
0001
0001
,  // measure 72
1000
0010
0100
1000
,  // measure 73
0001
0100
0010
0001
,  // measure 74
1000
0100
0010
0000
;
