#TITLE:PARANOiA ETERNAL;
#SUBTITLE:;
#ARTIST:STM200;
#TITLETRANSLIT:;
#SUBTITLETRANSLIT:;
#ARTISTTRANSLIT:;
#GENRE:;
#CREDIT:;
#BANNER:PARANOiA ETERNAL.png;
#BACKGROUND:PARANOiA ETERNAL-bg.png;
#LYRICSPATH:;
#CDTITLE:;
#MUSIC:PARANOiA ETERNAL.mp3;
#OFFSET:0.000000;
#SAMPLESTART:18.903000;
#SAMPLELENGTH:12.000000;
#SELECTABLE:YES;
#DISPLAYBPM:200.000000;
#BPMS:0.000000=200.000000
;
#STOPS:
;
#BGCHANGES:;
#KEYSOUNDS:;
#ATTACKS:;

//---------------dance-single - ----------------
#NOTES:
     dance-single:
     :
     Beginner:
     2:
     0.084799,0.246881,0.129511,0.086341,0.000000,55.000000,43.000000,12.000000,8.000000,0.000000,0.000000,0.084799,0.246881,0.129511,0.086341,0.000000,55.000000,43.000000,12.000000,8.000000,0.000000,0.000000:
0000
0000
0000
0000
,
0000
0000
0000
0000
,
0000
0000
0000
0000
,
0000
0000
0000
0000
,
0000
0000
0000
0000
,
0000
0000
0000
0000
,
0000
0000
0101
0000
,
0000
0000
0000
0000
0000
0000
0000
0010
,
0000
0000
0000
1100
,
0000
0000
0000
0000
0000
1000
0000
0000
,
0000
0000
0011
0000
,
0000
0000
0000
0100
0000
0000
0000
0000
,
0000
1100
0000
0000
,
0000
0001
0000
0000
0000
0000
0000
0000
,
0000
0100
0000
0000
,
0000
0000
0000
1001
,
0000
0000
0000
0000
,
0000
0000
0000
0000
,
0000
0000
0000
0000
,
0000
0010
0000
0000
,
0000
0000
0000
0000
,
0000
0000
0000
0000
,
0000
0000
0000
1100
,
0000
0000
0000
0000
,
0000
0000
0000
0000
,
0000
0000
0000
0000
,
0000
0001
0000
0000
,
0000
0000
0000
0000
,
0000
0000
0000
0000
,
0000
0000
0000
0010
,
0000
0000
0000
0100
,
0000
0000
0000
1000
,
0000
0000
0000
0001
,
0000
0000
0000
0001
,
0000
0000
0000
1000
,
0000
0000
0000
0010
,
0000
0000
0000
0100
,
0000
0000
0000
0000
0000
1000
0000
0000
,
0000
0000
0000
0000
,
0000
0000
0000
0001
0000
0000
0000
0000
,
0000
0000
0000
0000
,
0000
1000
0000
0000
0000
0000
0000
0000
,
0000
0000
0000
0000
0000
0000
0000
0001
,
0000
0000
0000
0000
,
0000
0000
1001
0000
,
0000
0000
0000
0000
,
0000
0000
0000
0000
,
0000
0000
0000
0000
,
0000
0000
0101
0000
,
0000
0000
0000
0000
,
0000
0000
0000
0000
,
0000
0000
0000
0000
,
0000
0000
1010
0000
,
0000
0000
0000
0000
,
0000
0000
0000
0000
,
0000
0000
0000
0000
,
0000
0000
0110
0000
,
0000
0000
0000
0000
,
0000
0000
0000
0000
,
0000
0000
0000
0000
,
0000
0000
0101
0000
,
0000
0000
0000
0000
,
0000
0000
0010
0000
,
0000
0000
0000
0000
,
0000
0000
0100
0000
,
0000
0000
0000
0000
,
0000
0000
1000
0000
,
0000
0000
0000
0000
,
0000
0000
0102
0000
,
0000
0000
0000
0000
,
0000
0000
0000
0000
,
0000
0000
0000
0000
,
0000
0000
0000
0023
,
0000
2030
0000
3002
,
0000
0203
0000
2300
,
0000
3200
0000
0302
,
0010
0013
0000
0000
;

//---------------dance-single - ----------------
#NOTES:
     dance-single:
     :
     Easy:
     5:
     0.400868,0.412817,0.107926,0.302193,0.026982,260.000000,250.000000,10.000000,28.000000,0.000000,0.000000,0.400868,0.412817,0.107926,0.302193,0.026982,260.000000,250.000000,10.000000,28.000000,0.000000,0.000000:
// measure 0
0000
0000
0000
0000
,  // measure 1
0000
0000
0000
0000
,  // measure 2
0000
0000
0000
0000
,  // measure 3
0000
0000
0000
0000
0000
0000
0000
0000
0100
0000
0000
0000
0000
0010
0000
0000
,  // measure 4
0000
0000
0100
0000
0000
0000
0000
1000
0000
0000
0000
0000
0000
0100
0000
0000
,  // measure 5
0000
0000
0010
0000
0000
0000
0000
0010
0000
0000
0000
0000
1000
0000
0000
0000
,  // measure 6
0000
0001
0000
0000
0000
0000
0010
0000
1001
0000
0000
0000
1000
0000
0000
0000
,  // measure 7
0100
0000
0001
0000
1000
0000
0000
0001
,  // measure 8
0000
1000
0000
0010
0000
0000
0100
0000
,  // measure 9
1000
0000
0010
0000
0000
0001
0000
0001
,  // measure 10
0000
0010
0000
0000
0110
0000
0010
0000
,  // measure 11
0010
0000
0000
0100
0000
0100
0000
1000
,  // measure 12
0000
0001
0001
0001
,  // measure 13
0000
1000
0000
0100
0000
0001
0100
0000
,  // measure 14
0010
0000
0010
0000
0000
0010
0000
0000
,  // measure 15
0010
0000
0000
1001
,  // measure 16
0100
0010
1000
0100
,  // measure 17
0000
0100
0100
0100
,  // measure 18
0001
1000
0001
1000
,  // measure 19
0000
1000
1000
0010
,  // measure 20
0100
0010
1000
0100
,  // measure 21
0000
0100
0100
0001
,  // measure 22
2000
0001
3010
0101
,  // measure 23
0010
0001
0001
0010
,  // measure 24
0000
0010
0010
1000
,  // measure 25
0100
0001
1000
0001
,  // measure 26
0000
0001
0001
0100
,  // measure 27
1000
0010
1000
0100
,  // measure 28
0000
0100
0100
1000
,  // measure 29
0020
0100
0031
2200
,  // measure 30
3300
0010
0100
1000
,  // measure 31
0000
0001
0100
1000
,  // measure 32
0010
0000
0001
0000
1000
0000
0100
0002
,  // measure 33
0000
0003
0010
0000
0001
0000
0022
0000
,  // measure 34
0033
0001
0100
0010
,  // measure 35
0000
0010
1000
0200
,  // measure 36
0010
0301
0010
1000
,  // measure 37
0000
0000
0000
0000
0000
1000
0000
0000
,  // measure 38
1000
0000
0000
1000
0000
0000
1000
0000
,  // measure 39
0100
0000
0100
0010
0000
0000
0010
0000
,  // measure 40
0000
0010
0000
0000
0010
0000
0100
0000
,  // measure 41
0001
0100
0000
0000
0100
0000
0000
0100
,  // measure 42
0000
0000
0100
0000
0100
0000
0001
0010
,  // measure 43
0000
0000
0010
0000
0000
0010
0000
0000
,  // measure 44
0010
0100
1001
0100
,  // measure 45
0001
0010
1000
0000
,  // measure 46
1000
1000
0100
1000
,  // measure 47
0100
0001
0010
0000
,  // measure 48
0010
0010
0001
0100
,  // measure 49
1000
0100
0001
0000
,  // measure 50
0001
0001
0010
0001
,  // measure 51
1000
0200
1000
0310
,  // measure 52
0000
0010
0101
0100
,  // measure 53
0010
0100
0001
0000
,  // measure 54
0001
0001
1000
0100
,  // measure 55
0010
1000
0100
0001
,  // measure 56
0000
0001
0001
1000
,  // measure 57
0100
1000
0010
0000
,  // measure 58
0001
0001
0100
0010
,  // measure 59
1000
0100
0001
1000
,  // measure 60
0100
0000
0101
0010
,  // measure 61
0001
0100
1000
0100
,  // measure 62
1000
0000
0010
0100
,  // measure 63
0010
1000
0100
0001
,  // measure 64
1000
0000
0010
0010
,  // measure 65
0010
0010
0010
0010
,  // measure 66
0010
0000
0100
0100
,  // measure 67
0100
0100
0100
0100
,  // measure 68
0100
0000
0000
0000
2001
0000
0000
3002
,  // measure 69
0000
0000
0023
0000
0000
0032
0000
0000
,  // measure 70
0203
0000
0000
2300
0000
0000
3020
0000
,  // measure 71
0000
0230
0000
0000
2300
0000
0000
3200
,  // measure 72
0000
0000
0302
0000
0000
0013
0200
0000
,  // measure 73
1000
0320
0001
2030
,  // measure 74
0010
3002
0010
0203
,  // measure 75
1000
0302
0100
0023
,  // measure 76
1000
2000
3030
0000
;
