#VERSION:0.83;
#TITLE:PARANOiA =iNSANiTY= MAX;
#SUBTITLE:;
#ARTIST:jb 35D (remixed by Hiryuu);
#TITLETRANSLIT:;
#SUBTITLETRANSLIT:;
#ARTISTTRANSLIT:;
#GENRE:;
#ORIGIN:;
#CREDIT:;
#BANNER:PIM.png;
#BACKGROUND:PIM-bg-old.png;
#PREVIEWVID:;
#JACKET:;
#CDIMAGE:;
#DISCIMAGE:;
#LYRICSPATH:;
#CDTITLE:;
#MUSIC:PIM.mp3;
#OFFSET:0.000000;
#SAMPLESTART:0.000000;
#SAMPLELENGTH:12.000000;
#SELECTABLE:YES;
#DISPLAYBPM:*;
#BPMS:0.000=175.000;
#STOPS:;
#DELAYS:;
#WARPS:;
#TIMESIGNATURES:0.000=4=4;
#TICKCOUNTS:0.000=4;
#COMBOS:0.000=1;
#SPEEDS:0.000=1.000=0.000=0;
#SCROLLS:0.000=1.000;
#FAKES:;
#LABELS:0.000=Song Start;
#BGCHANGES:;
#KEYSOUNDS:;
#ATTACKS:
;

//---------------dance-single - ----------------
#NOTEDATA:;
#CHARTNAME:;
#STEPSTYPE:dance-single;
#DESCRIPTION:;
#CHARTSTYLE:;
#DIFFICULTY:Beginner;
#METER:9;
#RADARVALUES:0.477384,0.570872,0.217558,0.113130,0.000000,384.000000,359.000000,25.000000,13.000000,0.000000,0.000000,0.000000,0.000000,0.000000,0.477384,0.570872,0.217558,0.113130,0.000000,384.000000,359.000000,25.000000,13.000000,0.000000,0.000000,0.000000,0.000000,0.000000;
#CREDIT:;
#DISPLAYBPM:*;
#NOTES:
// measure 0
0000
0000
0000
0000
,  // measure 1
0000
0000
0000
0000
,  // measure 2
0000
0000
0000
0000
,  // measure 3
0000
0000
0000
0000
,  // measure 4
0000
0000
0000
0000
,  // measure 5
0000
0000
0000
0000
,  // measure 6
0000
0000
0000
0000
,  // measure 7
0000
0000
0000
0000
,  // measure 8
1001
0000
0001
0000
0001
0010
0001
0000
,  // measure 9
1000
0000
0010
0000
1000
0001
0100
0000
,  // measure 10
0001
0000
1000
0000
0001
0100
1000
0000
,  // measure 11
0010
0000
0100
0000
0010
0100
1000
0000
,  // measure 12
0001
0000
0100
0000
0001
0010
1000
0000
,  // measure 13
0010
0000
0100
0000
0001
0010
0001
0000
,  // measure 14
1000
0000
1000
0000
0010
0001
0100
0000
,  // measure 15
0010
0000
1000
0000
0100
1000
0001
0000
,  // measure 16
0101
0100
0010
0000
0001
1000
0100
0000
,  // measure 17
0001
0010
0100
0000
0001
0000
0100
0000
,  // measure 18
0010
0001
1000
0000
0100
0010
1000
0000
,  // measure 19
0100
0000
1000
0010
0001
0010
1000
0010
,  // measure 20
0001
1000
0100
0000
0010
0001
1000
0000
,  // measure 21
0100
0010
0001
0000
1000
0000
0001
0000
,  // measure 22
0100
1000
0010
0000
0001
0100
1000
0000
,  // measure 23
0001
2000
0000
3000
,  // measure 24
0101
0000
0010
0000
0100
0000
0001
1000
,  // measure 25
1100
0000
0001
0000
1000
0000
0010
0100
,  // measure 26
0110
0000
0100
0000
0001
0000
1000
0100
,  // measure 27
1100
0000
0010
0000
1000
0000
0001
0100
,  // measure 28
0101
0000
0010
0000
1000
0000
0001
1000
,  // measure 29
1001
0000
0010
0000
1000
0000
0100
0001
,  // measure 30
0101
0000
0001
0000
1000
0000
0010
0100
,  // measure 31
0110
0000
0100
0000
1000
0000
0001
0100
,  // measure 32
0101
1000
0001
0100
,  // measure 33
1000
0001
0000
0010
0000
0100
0000
0001
,  // measure 34
0100
0001
1000
0010
,  // measure 35
0100
0001
0000
1000
0000
0100
0000
1000
,  // measure 36
0010
0100
0001
0100
,  // measure 37
0010
1000
0000
0100
0000
0001
0000
0010
,  // measure 38
0002
0000
0000
0000
,  // measure 39
2000
0000
0000
3003
,  // measure 40
1010
0000
1000
0000
1000
0100
1000
0000
,  // measure 41
0001
0000
0001
0000
0001
1000
0001
0000
,  // measure 42
0010
0000
0010
0000
1000
0100
1000
0000
,  // measure 43
0100
0000
0100
0000
0001
1000
0001
0000
,  // measure 44
0010
0000
0010
0000
0001
0100
0001
0000
,  // measure 45
0100
0000
0100
0000
1000
0001
1000
0000
,  // measure 46
0010
0000
0010
0000
0001
0100
0001
0000
,  // measure 47
2000
0000
0000
3002
0000
0000
0203
0000
,  // measure 48
0301
0000
0001
0000
1000
0000
1000
0001
,  // measure 49
0010
0000
0010
0000
0100
0000
0100
1000
,  // measure 50
0001
0000
0001
0000
1000
0000
1000
0100
,  // measure 51
0100
0000
0001
0000
1000
0000
0010
0100
,  // measure 52
0010
0000
0010
0000
0100
0000
1000
0001
,  // measure 53
0001
0000
1000
0000
0001
0000
0010
0010
,  // measure 54
0001
0000
0100
0000
1000
0000
0010
0100
,  // measure 55
0001
0000
1000
0000
0001
0000
0100
0001
,  // measure 56
0101
0000
0010
0000
1000
0000
0100
0010
,  // measure 57
1001
0000
0100
0000
0001
0000
1000
0100
,  // measure 58
0101
0100
0010
0100
0001
0000
0100
0100
,  // measure 59
1100
0000
0010
0000
1000
0000
0100
0100
,  // measure 60
0011
0000
0100
0000
0001
0000
1000
1000
,  // measure 61
0110
0000
1000
0000
0100
0000
0001
0001
,  // measure 62
1010
0000
1000
0001
1000
0001
1000
0000
,  // measure 63
0101
0000
0001
0100
0002
0000
0003
0000
,  // measure 64
1010
0000
1000
0000
1000
0000
1000
0001
,  // measure 65
0001
0000
0100
0000
1000
0000
0010
0010
,  // measure 66
0010
0000
0100
0000
1000
0000
0010
1000
,  // measure 67
0001
0000
0100
0000
0001
0000
1000
0001
,  // measure 68
0010
0000
0001
0000
1000
0000
0100
0010
,  // measure 69
1000
0000
0100
0000
1000
0000
0001
0100
,  // measure 70
0010
0000
0001
0000
1000
0000
0010
0001
,  // measure 71
0100
0001
0010
1000
0001
1000
0100
0000
,  // measure 72
0202
0303
0010
1000
,  // measure 73
0220
0330
0001
0100
,  // measure 74
0102
0013
0010
0010
,  // measure 75
0200
0000
0001
0000
1000
0000
0001
0010
,  // measure 76
1000
0000
0001
0000
1000
0000
0001
0010
,  // measure 77
1000
0000
0001
0000
1000
0000
0001
0010
,  // measure 78
1000
0001
1000
0001
,  // measure 79
0301
0000
0001
0000
0010
0000
1000
0001
,  // measure 80
0100
0000
0010
0000
0100
0000
0100
0010
,  // measure 81
0100
0000
0001
0000
1000
0000
0001
1000
,  // measure 82
1001
0000
0000
0000
;

//---------------dance-single - ----------------
#NOTEDATA:;
#CHARTNAME:;
#STEPSTYPE:dance-single;
#DESCRIPTION:;
#CHARTSTYLE:;
#DIFFICULTY:Medium;
#METER:15;
#RADARVALUES:0.726021,1.128037,0.304581,0.313283,0.000000,584.000000,549.000000,35.000000,36.000000,0.000000,0.000000,0.000000,0.000000,0.000000,0.726021,1.128037,0.304581,0.313283,0.000000,584.000000,549.000000,35.000000,36.000000,0.000000,0.000000,0.000000,0.000000,0.000000;
#CREDIT:;
#OFFSET:0.000000;
#BPMS:0.000000=350.000000
,184.000000=175.000000
,188.000000=350.000000
,300.000000=175.000000
,308.000000=350.000000
,484.000000=175.000000
,492.000000=350.000000
,580.000000=175.000000
;
#STOPS:;
#DELAYS:;
#WARPS:;
#TIMESIGNATURES:0.000000=4=4
;
#TICKCOUNTS:0.000000=4
;
#COMBOS:0.000000=1
;
#SPEEDS:0.000000=1.000000=0.000000=0
;
#SCROLLS:0.000000=1.000000
;
#FAKES:;
#LABELS:0.000000=Song Start
;
#DISPLAYBPM:*;
#NOTES:
// measure 0
0000
0000
0000
0000
,  // measure 1
0000
0000
0000
0000
,  // measure 2
0000
0000
0000
0000
,  // measure 3
0000
0000
0000
0000
,  // measure 4
0000
0000
0000
0000
,  // measure 5
0000
0000
0000
0000
,  // measure 6
0000
0000
0000
0000
,  // measure 7
0000
0000
0000
0000
,  // measure 8
0000
0000
0000
0000
,  // measure 9
0000
0000
0000
0000
,  // measure 10
0000
0000
0000
0000
,  // measure 11
0000
0000
0000
0000
,  // measure 12
0000
0000
0000
0000
,  // measure 13
0000
0000
0000
0000
,  // measure 14
0000
0000
0000
0000
,  // measure 15
0000
0000
0000
0000
,  // measure 16
1010
0010
1000
0100
,  // measure 17
0001
1000
0001
1000
,  // measure 18
0001
1000
0010
0001
,  // measure 19
0100
0001
1000
0100
,  // measure 20
1000
0100
0001
1000
,  // measure 21
0001
1000
0010
0001
,  // measure 22
0001
1000
0001
0100
,  // measure 23
1000
0010
0100
1000
,  // measure 24
0001
1000
0001
1000
,  // measure 25
0010
0001
0100
1000
,  // measure 26
0100
1000
0001
0100
,  // measure 27
0001
0010
1000
0001
,  // measure 28
0100
1000
0001
1000
,  // measure 29
0001
1000
0001
0100
,  // measure 30
1000
0010
0001
1000
,  // measure 31
0001
0100
0001
1000
,  // measure 32
0101
0001
0001
0001
,  // measure 33
1000
0010
1000
0100
,  // measure 34
0001
1000
0001
1000
,  // measure 35
0010
1000
0001
1000
,  // measure 36
0110
0010
1000
0001
,  // measure 37
0100
0001
1000
0010
,  // measure 38
1000
0100
0100
0101
,  // measure 39
0100
0101
0100
0110
,  // measure 40
1001
0001
1000
0001
,  // measure 41
0100
1000
0010
0100
,  // measure 42
0001
0010
1000
0001
,  // measure 43
1000
0001
0100
1000
,  // measure 44
0101
1000
0001
1000
,  // measure 45
0010
0100
0010
0100
,  // measure 46
1000
0000
0001
0000
1000
0010
1000
0010
,  // measure 47
1010
0100
1000
0100
,  // measure 48
0001
1000
0001
1000
,  // measure 49
0110
0001
1000
0001
,  // measure 50
1000
0010
0001
0100
,  // measure 51
0110
0001
1000
0001
,  // measure 52
1000
0100
0001
1000
,  // measure 53
0101
0010
0001
0100
,  // measure 54
0100
1000
0100
1000
,  // measure 55
0110
0001
0100
0001
,  // measure 56
0010
1000
0001
0100
,  // measure 57
1100
0001
1000
0010
,  // measure 58
1000
0100
0001
0010
,  // measure 59
0101
1000
0001
1000
,  // measure 60
0001
0100
1000
0010
,  // measure 61
1001
0001
0100
1000
,  // measure 62
0001
1000
0001
0100
,  // measure 63
0010
1000
0010
1000
,  // measure 64
0010
1000
0010
1000
,  // measure 65
0100
0001
0100
0001
,  // measure 66
0100
0001
0100
0001
,  // measure 67
0010
0001
0010
0001
,  // measure 68
0010
0001
0010
0001
,  // measure 69
1000
0010
1000
0010
,  // measure 70
1000
0010
1000
0010
,  // measure 71
0100
0001
0100
0001
,  // measure 72
0100
0001
0100
0001
,  // measure 73
0010
1000
0010
1000
,  // measure 74
0010
1000
0010
1000
,  // measure 75
0020
0000
0000
0000
,  // measure 76
1030
0001
1000
0001
,  // measure 77
0110
0010
0010
0001
,  // measure 78
0001
0001
1000
1000
,  // measure 79
1000
0100
0100
0120
,  // measure 80
1000
1030
1000
0001
,  // measure 81
0001
0001
0010
0010
,  // measure 82
0010
1000
1000
1000
,  // measure 83
0100
0100
0100
2001
,  // measure 84
0001
3001
0010
0010
,  // measure 85
0010
0001
0001
0001
,  // measure 86
1000
1000
1000
0100
,  // measure 87
0100
0100
0010
0010
,  // measure 88
0012
1000
1003
1000
,  // measure 89
0001
0001
0001
1000
,  // measure 90
1000
1000
0100
0100
,  // measure 91
0001
0010
0100
2000
,  // measure 92
0001
3010
0100
1000
,  // measure 93
0101
0010
0001
1000
,  // measure 94
0001
1000
0100
0001
,  // measure 95
1000
0001
1000
0010
,  // measure 96
0100
1000
0100
0001
,  // measure 97
1000
0010
1000
0100
,  // measure 98
0001
1000
0001
1000
,  // measure 99
0001
0010
0100
1000
,  // measure 100
0001
0100
0001
0010
,  // measure 101
0100
0010
1000
0001
,  // measure 102
0100
1000
0010
1000
,  // measure 103
0100
1000
0001
0100
,  // measure 104
0001
0010
1000
0001
,  // measure 105
1000
0001
0100
1000
,  // measure 106
0010
1000
0100
0001
,  // measure 107
1000
0001
2000
0100
,  // measure 108
3002
0000
0203
0000
,  // measure 109
0301
1000
0010
0001
,  // measure 110
0100
0001
0010
1000
,  // measure 111
0001
0100
0001
1000
,  // measure 112
1000
0100
0001
1000
,  // measure 113
0002
0203
2300
3200
,  // measure 114
0310
0001
1000
0001
,  // measure 115
1000
0100
1000
0100
,  // measure 116
0001
1000
0001
1000
,  // measure 117
0010
0001
0100
0001
,  // measure 118
1000
0100
0001
1000
,  // measure 119
0010
0100
0001
1000
,  // measure 120
0010
0001
0100
0001
,  // measure 121
1000
0010
0001
1000
0001
0100
1000
0010
,  // measure 122
1000
0001
0100
1000
0002
0000
0003
0000
,  // measure 123
0110
1000
0001
0100
,  // measure 124
0001
0010
1000
0001
,  // measure 125
1100
0010
1000
0001
,  // measure 126
0100
1000
0001
0100
,  // measure 127
0101
0010
1000
0100
,  // measure 128
0001
1000
0001
0100
,  // measure 129
0011
0010
1000
0100
,  // measure 130
0001
1000
0001
0010
,  // measure 131
0110
0001
0100
1000
,  // measure 132
0100
0001
1000
0010
,  // measure 133
1100
0001
0100
0001
,  // measure 134
1000
0010
1000
0100
,  // measure 135
0101
0010
1000
0001
,  // measure 136
0100
0001
1000
0010
,  // measure 137
0110
0001
0110
0010
,  // measure 138
1001
0010
1001
0100
,  // measure 139
2020
0000
3030
0000
,  // measure 140
0001
1000
0001
0000
,  // measure 141
0202
0000
0303
0000
,  // measure 142
0100
0010
0100
0000
,  // measure 143
2020
3030
0001
0010
,  // measure 144
1000
0001
1000
0000
,  // measure 145
0002
0000
2003
0000
3020
0000
0230
0302
,  // measure 146
2003
0000
3000
0020
0000
0030
0200
0000
,  // measure 147
0302
0000
2003
0000
3020
0000
0032
2003
,  // measure 148
3200
0000
0300
0002
0000
0003
2000
0000
,  // measure 149
3001
0100
0001
1000
0010
0001
0100
0001
,  // measure 150
1000
0010
0100
1000
0100
0001
1000
0001
,  // measure 151
1000
0010
0001
0100
0001
1000
0010
1000
,  // measure 152
0200
0000
0300
0000
;

//---------------dance-single - ----------------
#NOTEDATA:;
#CHARTNAME:;
#STEPSTYPE:dance-single;
#DESCRIPTION:;
#CHARTSTYLE:;
#DIFFICULTY:Hard;
#METER:19;
#RADARVALUES:1.172326,1.936264,0.522139,0.313283,0.034809,943.000000,883.000000,60.000000,36.000000,0.000000,0.000000,0.000000,0.000000,0.000000,1.172326,1.936264,0.522139,0.313283,0.034809,943.000000,883.000000,60.000000,36.000000,0.000000,0.000000,0.000000,0.000000,0.000000;
#CREDIT:;
#OFFSET:0.000000;
#BPMS:0.000000=350.000000
,304.000000=175.000000
,312.000000=350.000000
,592.000000=700.000000
;
#STOPS:;
#DELAYS:;
#WARPS:;
#TIMESIGNATURES:0.000000=4=4
;
#TICKCOUNTS:0.000000=4
;
#COMBOS:0.000000=1
;
#SPEEDS:0.000000=1.000000=0.000000=0
;
#SCROLLS:0.000000=1.000000
;
#FAKES:;
#LABELS:0.000000=Song Start
;
#DISPLAYBPM:*;
#NOTES:
// measure 0
0000
0000
0000
0000
,  // measure 1
0000
0000
0000
0000
,  // measure 2
0000
0000
0000
0000
,  // measure 3
0000
0000
0000
0000
,  // measure 4
0000
0000
0000
0000
,  // measure 5
0000
0000
0000
0000
,  // measure 6
0000
0000
0000
0000
,  // measure 7
0000
0000
0000
0000
,  // measure 8
0010
0100
1000
0000
0001
0000
1000
0000
,  // measure 9
0001
0010
1000
0000
0010
0000
0001
0000
,  // measure 10
0100
0010
0001
0000
1000
0000
0001
0000
,  // measure 11
0100
0010
1000
0000
0100
0000
0001
0000
,  // measure 12
1000
0100
0010
0000
1000
0000
0001
0000
,  // measure 13
0100
1000
0001
0000
0010
0000
1000
0000
,  // measure 14
0100
0010
0001
0000
1000
0000
0001
0000
,  // measure 15
1000
0001
0100
1000
0010
1000
0001
1000
,  // measure 16
0010
0001
0010
0000
1000
0010
0100
0000
,  // measure 17
0001
0100
1000
0000
0001
0010
1000
0000
,  // measure 18
0001
0100
1000
0000
0010
1000
0001
0000
,  // measure 19
0100
0010
0001
0000
1000
0001
0100
0000
,  // measure 20
1000
0001
0100
0000
0001
0010
1000
0000
,  // measure 21
0001
0100
1000
0000
0010
0100
0001
0000
,  // measure 22
0001
0100
1000
0000
0001
0010
0100
0000
,  // measure 23
1000
0001
0010
0000
0100
0010
1000
0000
,  // measure 24
0001
0100
1000
0000
0001
0010
1000
0000
,  // measure 25
0010
1000
0001
0000
0100
0001
1000
0000
,  // measure 26
0100
0001
1000
0000
0001
0010
0100
0000
,  // measure 27
0001
0010
1000
0001
,  // measure 28
0100
0000
1000
0010
0001
0000
1000
0010
,  // measure 29
0001
0000
1000
0100
0001
0000
0100
0001
,  // measure 30
1000
0000
0010
0100
0001
0000
1000
0010
,  // measure 31
0001
0000
0100
1000
0001
0010
1000
0000
,  // measure 32
0001
0001
1001
0001
,  // measure 33
1100
0010
1001
0100
,  // measure 34
0011
0000
1000
0000
0101
0000
1000
0001
,  // measure 35
0010
0000
1000
0100
0001
0000
1000
0100
,  // measure 36
0010
0010
1100
0001
,  // measure 37
0110
0001
1100
0010
,  // measure 38
1001
0100
0100
0101
,  // measure 39
0100
0101
0100
0110
,  // measure 40
1001
0001
1010
0001
,  // measure 41
0101
1000
1010
0100
,  // measure 42
0011
0000
0010
0000
1100
0000
0001
0010
,  // measure 43
1000
0000
0001
0010
0100
0000
1000
0100
,  // measure 44
0001
1000
0101
0001
,  // measure 45
1010
1000
0110
0001
,  // measure 46
0110
1000
0001
0010
,  // measure 47
1000
0100
0010
0001
1000
0001
0010
0000
,  // measure 48
1000
0001
0100
0010
1000
0001
0100
0010
,  // measure 49
0001
0100
1000
0100
0001
0010
1000
0100
,  // measure 50
0010
0100
0001
0100
1000
0100
0001
0100
,  // measure 51
1000
0100
0010
0100
0001
1000
0100
1000
,  // measure 52
0010
0100
0001
0100
1000
0100
0001
0100
,  // measure 53
1000
0010
0100
0010
0001
0010
1000
0010
,  // measure 54
0001
1000
0010
1000
0001
1000
0100
0001
,  // measure 55
0100
0001
1000
0001
0100
0001
1000
0001
,  // measure 56
0010
1000
0001
1000
0100
1000
0001
1000
,  // measure 57
0010
0100
1000
0100
0001
0010
0100
0010
,  // measure 58
0100
1000
0001
0100
1000
0100
0010
0100
,  // measure 59
1000
0010
0100
0010
0001
1000
0010
0100
,  // measure 60
0001
0010
1000
0010
0001
0010
1000
0010
,  // measure 61
0001
0010
0100
0010
1000
0001
0010
0001
,  // measure 62
1000
0100
0001
1000
0100
0001
1000
0100
,  // measure 63
0001
0010
1000
0010
0001
1000
0100
1000
,  // measure 64
0010
0000
1000
0000
0010
0001
1000
0000
,  // measure 65
0010
0000
1000
0000
0010
0100
1000
0000
,  // measure 66
0100
0000
0001
0000
0100
1000
0001
0000
,  // measure 67
0100
0000
0001
0000
0100
0010
0001
0000
,  // measure 68
0010
0000
0001
0000
0010
1000
0001
0000
,  // measure 69
0010
0000
0001
0000
0010
0100
0001
0000
,  // measure 70
1000
0000
0010
0000
1000
0001
0010
0000
,  // measure 71
1000
0000
0010
0000
1000
0001
0010
0000
,  // measure 72
0100
0000
0001
0000
0100
0010
0001
0000
,  // measure 73
0100
0000
0001
0000
0100
1000
0001
0000
,  // measure 74
0010
0000
1000
0000
0010
0100
1000
0000
,  // measure 75
0010
0000
1000
0000
0010
0001
1000
0000
,  // measure 76
0020
0000
0000
0000
,  // measure 77
1030
0100
0010
0001
1000
0100
0010
0001
1000
0100
0010
0001
1000
0100
0010
0001
,  // measure 78
1000
0010
1000
0001
1000
0001
0010
0100
,  // measure 79
1000
0010
0001
0100
1000
0001
1000
0100
,  // measure 80
0010
1000
0001
1000
0001
1000
0200
0000
,  // measure 81
0000
0000
0300
0000
1000
0001
1000
0010
,  // measure 82
0100
0001
1000
0100
0010
0001
0100
0010
,  // measure 83
1000
0010
0001
1000
0100
0001
1000
0001
,  // measure 84
1000
0001
1000
0100
0010
0001
2000
0000
,  // measure 85
0000
0000
3000
0000
0100
0010
0100
0010
,  // measure 86
1000
0100
1000
0100
0010
0100
0001
0100
,  // measure 87
1000
0010
0100
0010
0001
1000
0010
0100
,  // measure 88
1000
0100
0010
0100
1000
0100
1000
0010
,  // measure 89
0002
0000
0000
0000
0003
0000
0010
1000
,  // measure 90
0010
1000
0100
0001
0010
0001
0010
1000
,  // measure 91
0100
0001
0100
0010
1000
0010
0100
1000
,  // measure 92
0001
1000
0010
1000
0100
0001
2000
0000
,  // measure 93
0000
0000
3000
0000
0001
1000
0001
1000
,  // measure 94
0001
1000
0010
0000
0001
0100
1000
0000
,  // measure 95
0001
0010
1000
0000
0100
0010
0001
0000
,  // measure 96
1000
0010
0001
0000
1000
0100
0010
0000
,  // measure 97
0100
0001
1000
0000
0100
0010
0001
0000
,  // measure 98
1000
0100
0010
0000
1000
0010
0100
0000
,  // measure 99
0001
0010
1000
0000
0001
0100
1000
0000
,  // measure 100
0001
0100
0010
0000
0100
0010
1000
0000
,  // measure 101
0001
1000
0100
0000
0001
0100
0010
0000
,  // measure 102
0100
1000
0010
0000
1000
0100
0001
0000
,  // measure 103
0100
0001
1000
0000
0010
0001
1000
0000
,  // measure 104
0100
0010
1000
0000
0001
1000
0100
0000
,  // measure 105
0001
0100
0010
0000
1000
0100
0001
0000
,  // measure 106
1000
0100
0001
0000
0100
0010
1000
0000
,  // measure 107
0010
0001
1000
0000
0100
0010
0001
0000
,  // measure 108
1000
0010
0001
0000
0020
0000
0100
0000
,  // measure 109
2030
0001
3020
1000
,  // measure 110
0130
0001
1000
0000
0010
0000
0001
0000
,  // measure 111
0100
1000
0001
0000
0010
0000
1000
0000
,  // measure 112
0001
0010
0100
0000
0001
0000
1000
0000
,  // measure 113
1000
0010
0100
0000
0001
0000
1000
0000
,  // measure 114
0002
0203
2300
3200
,  // measure 115
0310
1000
0001
0000
1000
0000
0001
0000
,  // measure 116
1000
0001
0100
0000
1000
0000
0100
0000
,  // measure 117
0001
0010
1000
0000
0001
0000
1000
0000
,  // measure 118
0010
0100
0001
0000
0100
0000
0001
0000
,  // measure 119
1000
0001
0100
0000
0001
0000
1000
0000
,  // measure 120
0010
1000
0100
0000
0001
0000
1000
0000
,  // measure 121
0010
0100
0001
0000
0100
0000
0001
0000
,  // measure 122
1000
0100
0010
0100
0001
0100
1000
0010
,  // measure 123
0001
0010
0100
0001
1000
0001
0010
0100
,  // measure 124
1000
0010
0001
0010
0100
0000
1000
0100
,  // measure 125
0002
0000
0003
0000
,  // measure 126
0110
0000
1100
0000
0101
0000
0100
0010
,  // measure 127
0001
0100
0010
0000
1010
0000
0011
0000
,  // measure 128
1100
0000
0110
0000
1100
0000
0001
0010
,  // measure 129
0100
0001
1000
0000
1001
0000
1100
0000
,  // measure 130
1100
0000
0110
0000
1100
0000
0100
0010
,  // measure 131
0001
0100
1000
0000
0011
0000
1100
0000
,  // measure 132
0011
0000
0110
0000
1100
0000
0100
0010
,  // measure 133
0001
0100
1000
0000
0011
0000
1010
0000
,  // measure 134
0110
0000
0101
0000
0110
0000
1000
0001
,  // measure 135
0100
0010
0001
0000
1100
0000
0011
0000
,  // measure 136
1100
0000
0011
0000
1100
0000
0001
0010
,  // measure 137
1000
0100
0010
0000
1100
0000
0110
0000
,  // measure 138
0101
0000
0110
0000
1100
0000
0001
0010
,  // measure 139
0100
1000
0001
0000
1100
0000
0110
0000
,  // measure 140
0010
1000
0001
0100
0010
0100
0010
0100
,  // measure 141
0001
1000
0010
0100
0001
0010
0100
0000
,  // measure 142
2010
0001
3100
0010
,  // measure 143
0001
0010
0000
0010
0001
0000
1000
0000
,  // measure 144
0102
0010
1003
0001
,  // measure 145
0100
0010
0000
0010
0100
0000
0001
0000
,  // measure 146
0020
0000
1030
0000
0001
1000
0010
0100
,  // measure 147
1000
0100
0001
0100
1000
0010
0100
0010
,  // measure 148
0002
0000
0000
0000
,  // measure 149
2003
0000
0000
0000
,  // measure 150
3020
0000
0000
0000
,  // measure 151
0230
0000
0302
0000
,  // measure 152
2003
0000
0000
0000
,  // measure 153
3002
0000
0000
0000
,  // measure 154
0023
0000
0000
0000
,  // measure 155
0230
0000
0000
0000
,  // measure 156
0302
0000
0000
0000
,  // measure 157
2003
0000
0000
0000
,  // measure 158
3020
0000
0000
0000
,  // measure 159
0032
0000
2003
0000
,  // measure 160
3200
0000
0000
0000
,  // measure 161
2300
0000
0000
0000
,  // measure 162
3020
0000
0000
0000
,  // measure 163
2030
0000
0000
0000
,  // measure 164
3001
0010
0100
1000
,  // measure 165
0001
0010
0100
1000
,  // measure 166
0001
0010
0100
1000
,  // measure 167
0001
0010
0100
1000
,  // measure 168
1000
0100
0010
0001
,  // measure 169
1000
0100
0010
0001
,  // measure 170
1000
0100
0010
0001
,  // measure 171
1000
0100
0010
0001
,  // measure 172
0100
0010
0100
0010
,  // measure 173
0100
0010
0100
0010
,  // measure 174
1000
0001
1000
0001
,  // measure 175
1000
0001
1000
0001
,  // measure 176
2002
0000
0000
0000
,  // measure 177
0000
0000
0000
0000
,  // measure 178
3003
0000
0000
0000
;

//---------------dance-single - ----------------
#NOTEDATA:;
#CHARTNAME:;
#STEPSTYPE:dance-single;
#DESCRIPTION:;
#CHARTSTYLE:;
#DIFFICULTY:Challenge;
#METER:19;
#RADARVALUES:1.243187,2.013715,0.217558,0.382902,0.043512,1000.000000,975.000000,25.000000,44.000000,0.000000,0.000000,0.000000,0.000000,0.000000,1.243187,2.013715,0.217558,0.382902,0.043512,1000.000000,975.000000,25.000000,44.000000,0.000000,0.000000,0.000000,0.000000,0.000000;
#CREDIT:;
#OFFSET:0.000000;
#BPMS:0.000000=350.000000
,304.000000=175.000000
,312.000000=350.000000
,592.000000=700.000000
;
#STOPS:;
#DELAYS:;
#WARPS:;
#TIMESIGNATURES:0.000000=4=4
;
#TICKCOUNTS:0.000000=4
;
#COMBOS:0.000000=1
;
#SPEEDS:0.000000=1.000000=0.000000=0
;
#SCROLLS:0.000000=1.000000
;
#FAKES:;
#LABELS:0.000000=Song Start
;
#DISPLAYBPM:*;
#NOTES:
// measure 0
0000
0000
0000
0000
,  // measure 1
0000
0000
0000
0000
,  // measure 2
0000
0000
0000
0000
,  // measure 3
0000
0000
0000
0000
,  // measure 4
0000
0000
0000
0000
,  // measure 5
0000
0000
0000
0000
,  // measure 6
0000
0000
0000
0000
,  // measure 7
0000
0000
0000
0000
,  // measure 8
1000
0010
0001
0000
0100
0000
0001
0000
,  // measure 9
0100
1000
0001
0000
1000
0000
0100
0000
,  // measure 10
0010
1000
0100
0000
0001
0000
0100
0000
,  // measure 11
0010
1000
0001
0000
0010
0000
0100
0000
,  // measure 12
0001
0010
1000
0000
0001
0000
0100
0000
,  // measure 13
0010
0001
0100
0000
1000
0000
0001
0000
,  // measure 14
0010
1000
0100
0000
0001
0000
0100
0000
,  // measure 15
0001
0100
0010
0000
1000
0000
0100
0000
,  // measure 16
1000
0100
1000
0010
0001
1000
0010
0001
,  // measure 17
0100
0010
0001
1000
0100
1000
0001
0010
,  // measure 18
0100
0010
0001
0010
1000
0001
0100
1000
,  // measure 19
0010
1000
0100
0000
0001
0000
0010
0000
,  // measure 20
0001
0100
0010
0001
0100
1000
0001
1000
,  // measure 21
0100
0010
0001
0100
1000
0010
0100
0001
,  // measure 22
0100
0010
0001
0010
0100
1000
0010
1000
,  // measure 23
0001
0100
1000
0001
0010
1000
0001
0010
,  // measure 24
0100
0010
0001
0010
0100
1000
0001
0100
,  // measure 25
1000
0001
0100
1000
0010
0100
0001
1000
,  // measure 26
0010
0100
0001
0010
0100
1000
0010
0001
,  // measure 27
0100
0001
1000
0000
0001
0000
0100
0000
,  // measure 28
0010
0000
0001
1000
0100
0010
0001
1000
,  // measure 29
0100
1000
0001
0010
0100
1000
0010
0100
,  // measure 30
0001
0100
1000
0010
0100
0010
0001
1000
,  // measure 31
0100
0001
0010
0001
0100
1000
0001
0000
,  // measure 32
0100
0100
0101
0100
,  // measure 33
0011
1000
0101
0010
,  // measure 34
1100
0000
0001
0000
0110
0000
0001
0100
,  // measure 35
1000
0100
0001
0010
0100
1000
0001
0010
,  // measure 36
1000
1000
0011
0100
,  // measure 37
1010
0100
0011
1000
,  // measure 38
0101
0010
0010
0110
,  // measure 39
0010
0110
0010
1010
,  // measure 40
0101
0100
1001
0100
,  // measure 41
0110
0001
1001
0010
,  // measure 42
1100
0000
1000
0000
0011
0000
0100
1000
,  // measure 43
0001
0010
0100
1000
0010
0100
0001
0010
,  // measure 44
0100
0001
0110
0100
,  // measure 45
1001
0001
1010
0100
,  // measure 46
1010
0001
0100
1000
,  // measure 47
0001
0010
1000
0100
0001
0100
1000
0000
,  // measure 48
0001
0100
0010
1000
0001
0100
0010
1000
,  // measure 49
0100
0010
0001
0010
0100
1000
0001
0010
,  // measure 50
1000
0010
0100
0010
0001
0010
0100
0010
,  // measure 51
0001
0010
1000
0010
0100
0001
0010
0001
,  // measure 52
1000
0010
0100
0010
0001
0010
0100
0010
,  // measure 53
0001
1000
0010
1000
0100
1000
0001
1000
,  // measure 54
0100
0001
1000
0001
0100
0001
0010
0100
,  // measure 55
0010
0100
0001
0100
0010
0100
0001
0100
,  // measure 56
1000
0001
0100
0001
0010
0001
0100
0001
,  // measure 57
1000
0010
0001
0010
0100
1000
0010
1000
,  // measure 58
0010
0001
0100
0010
0001
0010
1000
0010
,  // measure 59
0001
1000
0010
1000
0100
0001
1000
0010
,  // measure 60
0100
1000
0001
1000
0100
1000
0001
1000
,  // measure 61
0100
1000
0010
1000
0001
0100
1000
0100
,  // measure 62
0001
0010
0100
0001
0010
0100
0001
0010
,  // measure 63
0100
1000
0001
1000
0100
0001
0010
0001
,  // measure 64
1000
0000
0001
0000
1000
0100
0001
0000
,  // measure 65
1000
0000
0001
0000
1000
0010
0001
0000
,  // measure 66
0010
0000
0100
0000
0010
0001
0100
0000
,  // measure 67
0010
0000
0100
0000
0010
1000
0100
0000
,  // measure 68
1000
0000
0100
0000
1000
0001
0100
0000
,  // measure 69
1000
0000
0100
0000
1000
0010
0100
0000
,  // measure 70
0001
0000
1000
0000
0001
0100
1000
0000
,  // measure 71
0001
0000
1000
0000
0001
0100
1000
0000
,  // measure 72
0010
0000
0100
0000
0010
1000
0100
0000
,  // measure 73
0010
0000
0100
0000
0010
0001
0100
0000
,  // measure 74
1000
0000
0001
0000
1000
0010
0001
0000
,  // measure 75
1000
0000
0001
0000
1000
0100
0001
0000
,  // measure 76
1000
0000
0010
0000
0001
0000
0100
0001
0000
0100
0001
0000
0010
0000
1000
0000
,  // measure 77
0001
0010
1000
0100
0001
0010
1000
0100
0001
0010
1000
0100
0001
0010
1000
0100
,  // measure 78
0001
1000
0001
0100
0001
0100
1000
0010
,  // measure 79
0001
1000
0100
0010
0001
0100
0001
0010
,  // measure 80
1000
0001
0100
0001
0100
0001
0020
0000
,  // measure 81
0100
0000
0130
0000
0001
0100
0001
1000
,  // measure 82
0010
0100
0001
0010
1000
0100
0010
1000
,  // measure 83
0001
1000
0100
0001
0010
0100
0001
0100
,  // measure 84
0001
0100
0001
0010
1000
0100
0002
0000
,  // measure 85
1000
0000
1003
0000
0010
1000
0010
1000
,  // measure 86
0001
0010
0001
0010
1000
0010
0100
0010
,  // measure 87
0001
1000
0010
1000
0100
0001
1000
0010
,  // measure 88
0001
0010
1000
0010
0001
0010
0001
1000
,  // measure 89
0200
0000
0001
0000
0301
0000
1000
0001
,  // measure 90
1000
0001
0010
0100
1000
0100
1000
0001
,  // measure 91
0010
0100
0010
1000
0001
1000
0010
0001
,  // measure 92
0100
0001
1000
0001
0010
0100
0002
0000
,  // measure 93
0010
0000
0013
0000
0100
0001
0100
0001
,  // measure 94
0100
0001
1000
0000
0100
0010
0001
0000
,  // measure 95
0100
1000
0001
0000
0010
1000
0100
0000
,  // measure 96
0001
1000
0100
0000
0001
0010
1000
0000
,  // measure 97
0010
0100
0001
0000
0010
1000
0100
0000
,  // measure 98
0001
0010
1000
0000
0001
1000
0010
0000
,  // measure 99
0100
1000
0001
0000
0100
0010
0001
0000
,  // measure 100
0100
0010
1000
0000
0010
1000
0001
0000
,  // measure 101
0100
0001
0010
0000
0100
0010
1000
0000
,  // measure 102
0010
0001
1000
0000
0001
0010
0100
0000
,  // measure 103
0010
0100
0001
0000
1000
0100
0001
0000
,  // measure 104
0010
1000
0001
0000
0100
0001
0010
0000
,  // measure 105
0100
0010
1000
0000
0001
0010
0100
0000
,  // measure 106
0001
0010
0100
0000
0010
1000
0001
0000
,  // measure 107
1000
0100
0001
0000
0010
1000
0100
0000
,  // measure 108
0001
1000
0100
0000
2000
0000
0010
0000
,  // measure 109
3002
0100
2003
0001
,  // measure 110
3010
0100
0001
0000
1000
0000
0100
0000
,  // measure 111
0010
0001
0100
0000
1000
0000
0001
0000
,  // measure 112
0100
1000
0010
0000
0100
0000
0001
0000
,  // measure 113
0001
1000
0010
0000
0100
0000
0001
0000
,  // measure 114
0100
1000
0010
0100
0001
0100
0010
0001
,  // measure 115
1000
0001
0100
0000
0001
0000
0100
0000
,  // measure 116
0001
0100
0010
0000
0001
0000
0010
0000
,  // measure 117
0100
1000
0001
0000
0100
0000
0001
0000
,  // measure 118
1000
0010
0100
0000
0010
0000
0100
0000
,  // measure 119
0001
0100
0010
0000
0100
0000
0001
0000
,  // measure 120
1000
0001
0010
0000
0100
0000
0001
0000
,  // measure 121
1000
0010
0100
0000
0010
0000
0100
0000
,  // measure 122
0001
0010
1000
0010
0100
0010
0001
1000
,  // measure 123
0100
1000
0010
0100
0001
0100
1000
0010
,  // measure 124
0001
1000
0100
1000
0010
0000
0001
0010
,  // measure 125
0100
0001
1000
0001
0000
0000
0000
0000
,  // measure 126
1000
0100
0001
1000
0010
0001
0010
1000
,  // measure 127
0100
0010
1000
0100
0001
0000
0100
0000
,  // measure 128
0001
1000
0010
1000
0001
0010
0100
1000
,  // measure 129
0010
0100
0001
0100
0001
0000
0001
0000
,  // measure 130
0001
1000
0010
0100
0001
0100
0010
1000
,  // measure 131
0100
0010
0001
1000
0100
0000
0001
0000
,  // measure 132
0100
0001
0010
1000
0001
0100
0010
1000
,  // measure 133
0100
0010
0001
1000
0100
0000
0001
0000
,  // measure 134
0010
1000
0010
0100
0010
1000
0001
0100
,  // measure 135
0010
1000
0100
0010
0001
0000
0100
0000
,  // measure 136
0001
0010
0100
1000
0001
0010
0100
1000
,  // measure 137
0001
0010
1000
0100
0001
0000
0010
0000
,  // measure 138
0010
1000
0010
0100
0001
0010
0100
1000
,  // measure 139
0010
0001
0100
1000
0001
0000
0010
0000
,  // measure 140
1000
0001
0100
0010
1000
0010
1000
0010
,  // measure 141
0100
0001
1000
0010
0100
1000
0010
0000
,  // measure 142
1002
0100
0013
1000
,  // measure 143
0100
1000
0000
1000
0100
0000
0001
0000
,  // measure 144
0210
1000
0301
0100
,  // measure 145
0010
1000
0000
1000
0010
0000
0100
0000
,  // measure 146
2000
0000
3001
0000
0100
0001
1000
0010
,  // measure 147
0001
0010
0100
0010
0001
1000
0010
1000
,  // measure 148
0200
0000
0320
0000
,  // measure 149
0032
0000
0023
0000
,  // measure 150
2030
0000
3002
0000
,  // measure 151
0023
0000
0230
0000
,  // measure 152
0302
0000
0023
0000
,  // measure 153
0230
0000
0302
0000
,  // measure 154
2003
0000
3200
0000
,  // measure 155
0320
0000
0032
0000
,  // measure 156
0203
0000
0320
0000
,  // measure 157
0032
0000
0203
0000
,  // measure 158
2300
0000
3020
0000
,  // measure 159
0230
0000
0302
0000
,  // measure 160
0023
0000
0230
0000
,  // measure 161
0302
0000
0023
0000
,  // measure 162
2030
0000
3200
0000
,  // measure 163
0302
0000
0023
0000
,  // measure 164
0130
1000
0010
0001
,  // measure 165
0100
1000
0010
0001
,  // measure 166
0100
1000
0010
0001
,  // measure 167
0100
1000
0010
0001
,  // measure 168
0001
0010
1000
0100
,  // measure 169
0001
0010
1000
0100
,  // measure 170
0001
0010
1000
0100
,  // measure 171
0001
0010
1000
0100
,  // measure 172
0010
1000
0010
1000
,  // measure 173
0010
1000
0010
1000
,  // measure 174
0001
0100
0001
0100
,  // measure 175
0001
0100
0001
0100
,  // measure 176
0202
0000
0000
0000
,  // measure 177
0000
0000
0000
0000
,  // measure 178
0303
0000
0000
0000
;

//---------------dance-single - ----------------
#NOTEDATA:;
#CHARTNAME:;
#STEPSTYPE:dance-single;
#DESCRIPTION:;
#CHARTSTYLE:;
#DIFFICULTY:Easy;
#METER:13;
#RADARVALUES:0.553218,0.610250,0.208855,0.304581,0.000000,445.000000,421.000000,24.000000,35.000000,0.000000,0.000000,0.000000,0.000000,0.000000,0.553218,0.610250,0.208855,0.304581,0.000000,445.000000,421.000000,24.000000,35.000000,0.000000,0.000000,0.000000,0.000000,0.000000;
#CREDIT:;
#DISPLAYBPM:*;
#NOTES:
// measure 0
0000
0000
0000
0000
,  // measure 1
0000
0000
0000
0000
,  // measure 2
0000
0000
0000
0000
,  // measure 3
0000
0000
0000
0000
,  // measure 4
0000
0000
0000
0000
,  // measure 5
0000
0000
0000
0000
,  // measure 6
0000
0000
0000
0000
,  // measure 7
0000
0000
0000
0000
,  // measure 8
0010
0001
0100
0001
1000
0010
0100
1000
,  // measure 9
0010
0010
0010
0010
,  // measure 10
0001
0010
1000
0001
1000
0001
0100
1000
,  // measure 11
0010
0010
0010
0010
,  // measure 12
1000
0100
0001
1000
0001
1000
0010
0001
,  // measure 13
0100
0100
0100
0100
,  // measure 14
0001
1000
0010
0100
0001
1000
0010
0001
,  // measure 15
1000
1000
1000
1000
,  // measure 16
0010
0001
0100
0001
0100
0001
0100
0001
,  // measure 17
0100
0001
0100
0000
0010
0000
1000
0000
,  // measure 18
0100
0010
0100
0010
0100
0010
0100
0010
,  // measure 19
0100
0000
0000
0020
0000
2030
0000
3200
,  // measure 20
0000
0301
0100
0001
0100
0001
0100
0001
,  // measure 21
0100
0001
0100
0000
0010
0000
0001
0000
,  // measure 22
1000
0100
1000
0100
1000
0100
1000
0100
,  // measure 23
1000
0000
0010
0000
0010
0000
0010
1000
,  // measure 24
1001
0000
0001
0000
0001
0100
0001
0010
,  // measure 25
0110
0000
1000
0000
1000
0010
1000
0100
,  // measure 26
1100
0000
0100
0000
0100
0001
0100
0010
,  // measure 27
0011
0000
0001
0000
0001
1000
0001
0010
,  // measure 28
1010
0000
1000
0000
1000
0100
1000
0100
,  // measure 29
0110
0000
0100
0000
0100
0001
0100
0010
,  // measure 30
1010
0000
0100
0000
0100
0010
0100
0100
,  // measure 31
0101
0000
0001
0000
0001
0010
0001
1000
,  // measure 32
1010
1000
0001
1000
,  // measure 33
0001
0010
1000
0010
0001
0010
1000
0000
,  // measure 34
1100
0010
0100
0010
,  // measure 35
0100
1000
0010
1000
0100
1000
0010
0000
,  // measure 36
0101
0001
0100
0001
,  // measure 37
0100
1000
0001
0010
0100
1000
0001
0000
,  // measure 38
0120
0000
0000
0000
,  // measure 39
2000
0000
0000
3030
,  // measure 40
0001
0100
1000
0000
0010
1000
0001
0000
,  // measure 41
1000
0100
1000
0000
0010
0100
1000
0000
,  // measure 42
0010
0001
1000
0000
0001
0010
0100
0000
,  // measure 43
0001
0100
1000
0000
0010
1000
0001
0000
,  // measure 44
0100
0010
0001
0000
1000
1000
0010
0000
,  // measure 45
1000
0001
0100
0000
0001
0010
1000
0000
,  // measure 46
0001
0100
1000
0000
0010
0010
0001
0000
,  // measure 47
0100
0100
0100
0000
0010
0010
0010
0000
,  // measure 48
1010
0000
0100
0000
0001
0000
1000
1000
,  // measure 49
0010
0001
0100
0001
0010
0100
1000
0100
,  // measure 50
0001
0000
0100
0000
0001
0000
0010
1000
,  // measure 51
0001
0000
0100
0000
1000
0010
0100
0010
,  // measure 52
0001
0000
1000
0000
0001
0000
0010
0001
,  // measure 53
1000
0000
0010
1000
0001
1000
0100
1000
,  // measure 54
0001
0000
1000
0000
0010
0100
1000
0010
,  // measure 55
0100
0010
0002
0000
0023
0000
2030
0000
,  // measure 56
3010
1000
0100
0001
,  // measure 57
1000
0010
0001
0010
1000
0100
0010
0100
,  // measure 58
0001
0020
0000
0230
0000
0301
1000
0000
,  // measure 59
0100
0000
0001
0000
1000
0000
0001
0100
,  // measure 60
1000
0000
0010
0000
0001
0000
0100
0010
,  // measure 61
0001
0000
0010
0000
1000
0000
0100
0100
,  // measure 62
1000
0001
1000
0001
1000
0100
0001
0000
,  // measure 63
0010
0100
0010
1000
0200
0000
0300
0000
,  // measure 64
0101
0000
0010
1000
0001
0000
1000
0001
,  // measure 65
0011
0000
1000
0010
0100
0000
0001
0010
,  // measure 66
1100
0000
0010
0100
0001
0000
0100
0001
,  // measure 67
1010
0000
1000
0100
0001
0000
0010
1000
,  // measure 68
0110
0000
0001
0100
1000
0000
0100
0010
,  // measure 69
0101
0000
1000
0010
0001
0000
0100
0010
,  // measure 70
1001
0000
0010
0001
1000
0000
0100
0100
,  // measure 71
0001
1000
0001
1000
0001
1000
0001
1000
,  // measure 72
0220
0000
0330
0000
0100
0100
0001
0000
,  // measure 73
0202
0000
0303
0000
0010
0010
1000
0000
,  // measure 74
2020
0000
0000
3000
1030
0000
0001
0000
1000
0000
0001
0000
1000
0000
0100
0000
,  // measure 75
0002
0203
0320
2030
,  // measure 76
3200
2300
3002
0203
,  // measure 77
0302
0023
2030
3200
,  // measure 78
0302
2003
3002
0203
,  // measure 79
0310
0000
0010
0000
0001
0000
0001
0010
,  // measure 80
1000
0000
1000
0000
0001
0100
0001
1000
,  // measure 81
0010
0001
0100
0001
1000
0100
1000
0010
,  // measure 82
2002
0000
3003
0000
;
