#VERSION:0.83;
#TITLE:ORION.78 ~civilization mix~;
#SUBTITLE:;
#ARTIST:2MB;
#TITLETRANSLIT:;
#SUBTITLETRANSLIT:;
#ARTISTTRANSLIT:;
#GENRE:;
#ORIGIN:;
#CREDIT:;
#BANNER:ORION.78~civilization mix~.png;
#BACKGROUND:ORION.78~civilization mix~-bg.png;
#PREVIEWVID:;
#JACKET:ORION.78~civilization mix~-jacket.png;
#CDIMAGE:;
#DISCIMAGE:;
#LYRICSPATH:;
#CDTITLE:;
#MUSIC:ORION.78~civilization mix~.ogg;
#OFFSET:0.000000;
#SAMPLESTART:61.104000;
#SAMPLELENGTH:12.000000;
#SELECTABLE:YES;
#DISPLAYBPM:200.000000;
#BPMS:0.000=200.000,
76.000=200.500,
236.000=200.000;
#STOPS:;
#DELAYS:;
#WARPS:;
#TIMESIGNATURES:0.000=4=4;
#TICKCOUNTS:0.000=4;
#COMBOS:0.000=1;
#SPEEDS:0.000=1.000=0.000=0;
#SCROLLS:0.000=1.000;
#FAKES:;
#LABELS:0.000=Song Start;
#BGCHANGES:;
#KEYSOUNDS:;
#ATTACKS:
;

//---------------dance-single - ----------------
#NOTEDATA:;
#CHARTNAME:;
#STEPSTYPE:dance-single;
#DESCRIPTION:;
#CHARTSTYLE:;
#DIFFICULTY:Beginner;
#METER:4;
#RADARVALUES:0.129122,0.221990,0.089392,0.000000,0.000000,91.000000,82.000000,9.000000,0.000000,0.000000,0.000000,0.000000,0.000000,0.000000,0.129122,0.221990,0.089392,0.000000,0.000000,91.000000,82.000000,9.000000,0.000000,0.000000,0.000000,0.000000,0.000000,0.000000;
#CREDIT:;
#DISPLAYBPM:200.000000;
#NOTES:
// measure 0
0000
0000
0000
0000
,  // measure 1
0000
0000
0000
0000
,  // measure 2
0000
0000
0000
0000
,  // measure 3
0000
0000
0000
0000
,  // measure 4
0000
0000
0000
0000
,  // measure 5
0000
0000
0000
0000
,  // measure 6
0000
0000
0000
0000
,  // measure 7
0000
0000
0000
0000
,  // measure 8
0000
0000
0000
0000
,  // measure 9
0001
0000
0000
0000
,  // measure 10
1000
0000
0000
0000
,  // measure 11
0000
0000
0000
0000
,  // measure 12
0000
0000
0000
0000
,  // measure 13
0010
0000
0000
0000
,  // measure 14
1000
0000
0000
0000
,  // measure 15
0100
0000
0000
0000
,  // measure 16
0000
0000
0000
0000
,  // measure 17
0000
0000
0000
0000
,  // measure 18
0000
0000
0000
0000
,  // measure 19
0010
0000
0010
0000
,  // measure 20
0010
0000
0010
0000
,  // measure 21
0010
0000
0010
0000
,  // measure 22
0010
0000
0010
0000
,  // measure 23
1000
0000
1000
0000
,  // measure 24
0001
0000
0001
0000
,  // measure 25
0100
0000
0100
0000
,  // measure 26
0010
0000
0010
0000
,  // measure 27
1010
0000
0000
0000
,  // measure 28
0000
0000
0000
0000
,  // measure 29
1100
0000
0000
0000
,  // measure 30
0000
0000
0000
0000
,  // measure 31
0001
0000
0001
0000
,  // measure 32
1000
0000
1000
0000
,  // measure 33
0010
0000
0010
0000
,  // measure 34
0100
0000
0100
0000
,  // measure 35
1001
0000
0000
0000
,  // measure 36
0000
0000
0000
0000
,  // measure 37
0110
0000
0000
0000
,  // measure 38
0000
0000
0000
0000
,  // measure 39
1000
0000
1000
0000
,  // measure 40
1000
0000
1000
0000
,  // measure 41
1000
0000
1000
0000
,  // measure 42
1000
0000
1000
0000
,  // measure 43
0101
0000
0000
0000
,  // measure 44
0000
0000
0000
0000
,  // measure 45
1010
0000
0000
0000
,  // measure 46
0000
0000
0000
0000
,  // measure 47
0000
0010
0000
0010
,  // measure 48
0000
0100
0000
0100
,  // measure 49
0000
0001
0000
0001
,  // measure 50
0000
1000
0000
1000
,  // measure 51
0100
0000
0000
0000
,  // measure 52
0010
0000
0000
0000
,  // measure 53
0001
0000
0000
0000
,  // measure 54
1000
0000
0000
0000
,  // measure 55
0000
0010
0000
0010
,  // measure 56
0000
0001
0000
0001
,  // measure 57
0000
1000
0000
1000
,  // measure 58
0000
1000
0000
1000
,  // measure 59
1001
0000
0000
0000
,  // measure 60
0000
0000
0000
0000
,  // measure 61
0000
0000
0000
0000
,  // measure 62
0000
0000
0000
0000
,  // measure 63
0010
0000
0010
0000
,  // measure 64
0010
0000
0010
0000
,  // measure 65
0010
0000
0001
0000
,  // measure 66
0001
0000
0001
0000
,  // measure 67
1100
0000
0000
0000
,  // measure 68
0000
0000
0000
0000
,  // measure 69
0110
0000
0000
0000
,  // measure 70
0000
0000
0000
0000
,  // measure 71
0001
0000
0001
0000
,  // measure 72
0001
0000
0001
0000
,  // measure 73
1000
0000
1000
0000
,  // measure 74
1000
0000
1000
0000
;

//---------------dance-single - ----------------
#NOTEDATA:;
#CHARTNAME:;
#STEPSTYPE:dance-single;
#DESCRIPTION:;
#CHARTSTYLE:;
#DIFFICULTY:Easy;
#METER:6;
#RADARVALUES:0.222771,0.371226,0.139054,0.148987,0.000000,157.000000,143.000000,14.000000,15.000000,0.000000,0.000000,0.000000,0.000000,0.000000,0.222771,0.371226,0.139054,0.148987,0.000000,157.000000,143.000000,14.000000,15.000000,0.000000,0.000000,0.000000,0.000000,0.000000;
#CREDIT:;
#DISPLAYBPM:200.000000;
#NOTES:
// measure 0
0000
0000
0000
0000
,  // measure 1
0000
0000
0000
0000
,  // measure 2
0000
0000
0000
0000
,  // measure 3
0000
0000
0000
0000
,  // measure 4
0000
0000
0000
0000
,  // measure 5
0000
0000
0000
0000
,  // measure 6
0000
0000
0000
0000
,  // measure 7
0200
0000
0300
0000
,  // measure 8
0200
0000
0300
0000
,  // measure 9
0200
0000
0300
0000
,  // measure 10
0000
0000
0000
0000
,  // measure 11
0000
0000
0000
0000
,  // measure 12
0000
0000
0000
0000
,  // measure 13
0020
0000
0031
0000
,  // measure 14
0020
0000
0031
0000
,  // measure 15
0020
0000
0130
0000
,  // measure 16
0000
0000
1000
0000
,  // measure 17
0001
0001
0001
0001
,  // measure 18
0001
0001
0001
0001
,  // measure 19
0101
0000
0100
0000
,  // measure 20
0010
0000
1000
0000
,  // measure 21
0001
0000
0100
0000
,  // measure 22
0010
0000
0001
0000
,  // measure 23
1000
0000
0100
0000
,  // measure 24
1000
0000
0010
0000
,  // measure 25
1000
0000
0100
0000
,  // measure 26
0001
0000
1000
0000
,  // measure 27
2001
0000
3001
0000
,  // measure 28
0120
0000
1030
0000
,  // measure 29
1200
0000
0301
0000
,  // measure 30
0001
0000
0010
0000
,  // measure 31
1000
0000
0100
0000
,  // measure 32
1000
0000
1000
0000
,  // measure 33
0001
0000
1000
0000
,  // measure 34
0100
0000
1000
0000
,  // measure 35
0210
0000
1300
0000
,  // measure 36
0120
0000
0031
0000
,  // measure 37
0012
0000
1003
0000
,  // measure 38
0100
0000
1000
0000
,  // measure 39
0010
0010
0010
0010
,  // measure 40
0010
0010
0010
0010
,  // measure 41
0010
0010
0010
0010
,  // measure 42
0010
0010
0010
0010
,  // measure 43
1010
0000
0000
0000
,  // measure 44
0000
0000
0000
0000
,  // measure 45
1100
0000
1000
0000
,  // measure 46
0100
0000
1000
0000
,  // measure 47
0001
0000
0100
0000
,  // measure 48
0001
0000
1000
0000
,  // measure 49
0010
0000
0010
0000
,  // measure 50
0010
0000
0010
0000
,  // measure 51
0110
0000
1000
0000
,  // measure 52
0100
0000
1000
0000
,  // measure 53
0001
0000
0001
0000
,  // measure 54
1000
0000
1000
0000
,  // measure 55
0010
0100
0010
0100
,  // measure 56
0010
0100
0010
0100
,  // measure 57
0010
0100
0010
0100
,  // measure 58
0010
0100
0010
0010
,  // measure 59
0000
0000
0000
0000
,  // measure 60
0000
0000
0000
0000
,  // measure 61
0000
0000
0000
0000
,  // measure 62
0000
0000
0000
0000
,  // measure 63
1000
0000
1000
0000
,  // measure 64
0001
0000
0001
0000
,  // measure 65
0101
0000
0010
0000
,  // measure 66
1000
0000
0100
0000
,  // measure 67
1002
0000
0103
0000
,  // measure 68
0210
0000
1300
0000
,  // measure 69
2100
0000
3001
0000
,  // measure 70
0100
0000
0010
0000
,  // measure 71
1000
1000
1000
1000
,  // measure 72
1000
1000
1000
1000
,  // measure 73
1000
1000
1000
1000
,  // measure 74
1000
1000
1000
1000
;

//---------------dance-single - ----------------
#NOTEDATA:;
#CHARTNAME:;
#STEPSTYPE:dance-single;
#DESCRIPTION:;
#CHARTSTYLE:;
#DIFFICULTY:Medium;
#METER:10;
#RADARVALUES:0.395879,0.668206,0.486690,0.238379,0.000000,279.000000,230.000000,49.000000,24.000000,0.000000,0.000000,0.000000,0.000000,0.000000,0.395879,0.668206,0.486690,0.238379,0.000000,279.000000,230.000000,49.000000,24.000000,0.000000,0.000000,0.000000,0.000000,0.000000;
#CREDIT:;
#DISPLAYBPM:200.000000;
#NOTES:
// measure 0
0000
0000
0000
0000
,  // measure 1
0000
0000
0000
0000
,  // measure 2
0000
0000
0000
0000
,  // measure 3
0000
0000
0000
0000
,  // measure 4
0000
0000
0000
0000
,  // measure 5
0000
0000
0000
0000
,  // measure 6
0000
0000
0000
0000
,  // measure 7
2002
3000
0003
0000
,  // measure 8
0002
0000
0003
0000
,  // measure 9
0020
0000
0030
0000
,  // measure 10
1000
0000
0100
0000
,  // measure 11
0001
0001
0001
0000
,  // measure 12
1000
0000
0010
0000
,  // measure 13
0200
0010
0310
0000
,  // measure 14
0002
1000
1003
0000
,  // measure 15
0020
0100
0130
0000
,  // measure 16
0010
0000
0001
0000
,  // measure 17
0000
0100
0000
0100
0000
0100
0000
0100
,  // measure 18
0000
0100
0000
0100
0000
0100
0000
0100
,  // measure 19
0101
0001
0001
0001
,  // measure 20
0001
0001
0001
0001
,  // measure 21
0001
0001
0001
0001
,  // measure 22
0001
0001
0001
0001
,  // measure 23
0010
0010
0010
0010
,  // measure 24
0010
0010
0010
0010
,  // measure 25
0010
0010
0010
0010
,  // measure 26
0010
0010
0010
0010
,  // measure 27
0210
1000
0301
1000
,  // measure 28
0012
1000
0103
1000
,  // measure 29
0021
0100
1030
0100
,  // measure 30
1000
0001
1000
0010
,  // measure 31
1100
0010
0100
0001
,  // measure 32
1000
0001
1000
0100
,  // measure 33
0100
0001
1000
0000
0010
0000
1000
0000
,  // measure 34
0100
0001
1000
0100
,  // measure 35
0102
0100
0013
1000
,  // measure 36
0120
1000
0031
1000
,  // measure 37
2100
0010
3001
0100
,  // measure 38
0001
1000
0010
0100
,  // measure 39
0110
1100
0101
1001
,  // measure 40
0110
1100
1001
1001
,  // measure 41
0101
0110
1100
1001
,  // measure 42
1010
0110
1100
0101
,  // measure 43
0010
0000
0000
0000
,  // measure 44
0000
0000
0000
0000
,  // measure 45
1000
0000
1000
0000
,  // measure 46
0001
0000
0001
0000
,  // measure 47
0100
0100
1000
1000
,  // measure 48
0010
0010
0001
0001
,  // measure 49
0100
0100
0010
0010
,  // measure 50
0100
0100
0001
0001
,  // measure 51
1010
1000
0001
1000
,  // measure 52
0110
0001
0100
0001
,  // measure 53
1100
0010
1000
0100
,  // measure 54
0011
0010
1000
0010
,  // measure 55
0011
0002
0013
0020
,  // measure 56
1030
0200
0301
2000
,  // measure 57
3100
0002
0013
0200
,  // measure 58
1300
0020
0031
2000
,  // measure 59
3100
0000
0000
0000
,  // measure 60
0000
0000
0000
0000
,  // measure 61
0010
0000
0000
0000
,  // measure 62
0000
0000
0000
0000
,  // measure 63
0100
0100
0100
0100
,  // measure 64
0100
0100
0100
0100
,  // measure 65
1000
0001
1000
0000
1000
0000
1000
0000
,  // measure 66
1000
1000
1000
1000
,  // measure 67
0102
0100
1003
0010
,  // measure 68
2001
0100
3001
0100
,  // measure 69
1200
0010
0301
1000
,  // measure 70
0001
0100
0001
1000
,  // measure 71
0101
1001
0110
1100
,  // measure 72
1100
0101
1001
0110
,  // measure 73
0011
0011
1100
0110
,  // measure 74
1100
0101
1001
1001
;

//---------------dance-single - ----------------
#NOTEDATA:;
#CHARTNAME:;
#STEPSTYPE:dance-single;
#DESCRIPTION:;
#CHARTSTYLE:;
#DIFFICULTY:Hard;
#METER:12;
#RADARVALUES:0.542028,0.705329,0.615812,0.089392,0.019865,382.000000,320.000000,62.000000,9.000000,0.000000,0.000000,0.000000,0.000000,0.000000,0.542028,0.705329,0.615812,0.089392,0.019865,382.000000,320.000000,62.000000,9.000000,0.000000,0.000000,0.000000,0.000000,0.000000;
#CREDIT:;
#DISPLAYBPM:200.000000;
#NOTES:
// measure 0
0000
0000
0000
0000
,  // measure 1
0000
0000
0000
0000
,  // measure 2
0000
0000
0000
0000
,  // measure 3
0000
0000
0000
0000
,  // measure 4
0000
0000
0000
0000
,  // measure 5
0000
0000
0000
0000
,  // measure 6
0000
0000
0000
0000
,  // measure 7
0120
0000
0030
0000
,  // measure 8
0102
0000
0003
0000
,  // measure 9
2100
0001
0000
0100
3000
0000
0000
0000
,  // measure 10
0010
1000
0000
0001
0000
0000
0010
0010
,  // measure 11
1000
0100
0001
1000
0000
0000
0000
0000
,  // measure 12
0010
0100
0001
1000
0001
1000
0010
0010
,  // measure 13
0102
0010
0013
0000
,  // measure 14
1200
0010
0310
0000
,  // measure 15
0102
1000
0010
0000
0013
0000
0100
0000
,  // measure 16
0001
1000
0000
0010
0100
0000
0001
0000
,  // measure 17
1000
0101
0000
1001
0000
0110
0000
1100
,  // measure 18
0000
0101
0000
0110
0000
1100
0000
1001
,  // measure 19
1010
0000
1000
0001
1000
0000
1000
0001
,  // measure 20
1000
0001
1000
0001
1000
0000
1000
0001
,  // measure 21
1000
0000
1000
0001
1000
0001
1000
0001
,  // measure 22
1000
0000
1000
0001
1000
0000
1000
0100
,  // measure 23
0010
0000
0010
0100
0010
0000
0010
0100
,  // measure 24
0010
0100
0010
0100
0010
0000
0010
0100
,  // measure 25
0010
0000
0010
0100
0010
0100
0010
0100
,  // measure 26
0010
0000
0010
0100
0010
0000
0010
0000
,  // measure 27
0101
0000
0001
1000
0010
0000
0100
0000
,  // measure 28
0010
0000
1000
0001
0100
0000
0001
0000
,  // measure 29
0100
0000
1000
0010
0010
0000
0100
0000
,  // measure 30
0001
0000
1000
0100
0010
0000
0100
0000
,  // measure 31
0001
0100
1000
0100
0001
0010
1000
0000
,  // measure 32
0001
1000
0100
0001
0010
0000
0100
0000
,  // measure 33
0010
1100
0000
0000
0001
0010
1000
0010
,  // measure 34
0001
0000
0100
1000
0010
0001
1000
0000
,  // measure 35
1010
0001
0100
1000
0100
0000
0001
0000
,  // measure 36
1000
0010
0001
0100
1000
0000
0010
0000
,  // measure 37
0001
1000
0100
0010
0001
0000
1000
0000
,  // measure 38
0001
0010
1000
0001
0010
0000
1000
0000
,  // measure 39
0110
0011
1100
0101
,  // measure 40
1001
0011
1100
0110
,  // measure 41
1100
0101
0110
1100
,  // measure 42
1001
1001
0101
0110
,  // measure 43
0010
0000
0000
0000
0000
0000
0000
0000
0100
0000
0000
0000
0000
0001
0000
0000
,  // measure 44
1000
0000
0000
0000
0000
0010
0000
0000
0100
0000
0000
0000
0000
0000
0000
0000
,  // measure 45
1100
0000
0000
0000
0000
0001
0000
0000
0100
0000
0000
0000
0000
0000
0000
0000
,  // measure 46
0100
0000
0000
0000
0000
0000
0000
0000
0010
0000
0000
0000
0000
0001
0000
0000
,  // measure 47
1000
0000
0010
0100
0001
0000
1000
0010
,  // measure 48
0100
0000
0001
1000
0100
0000
0001
0010
,  // measure 49
1000
0000
0100
0010
0100
0000
0001
1000
,  // measure 50
0001
0000
0010
1000
0100
0000
0001
0100
,  // measure 51
0101
1100
0101
1100
,  // measure 52
1001
1100
0110
0011
,  // measure 53
1100
0000
0001
0010
1000
0000
0001
0010
,  // measure 54
1000
0000
0010
0001
0100
0000
0020
0000
,  // measure 55
1030
0000
1000
0100
0001
0000
0001
1000
,  // measure 56
0010
0000
0010
1000
0001
0000
0001
0010
,  // measure 57
0100
0000
0100
0001
1000
0000
1000
0001
,  // measure 58
0010
0000
0010
0100
0010
0000
0010
0100
,  // measure 59
0200
0000
0000
0000
,  // measure 60
0000
0000
0000
0000
,  // measure 61
0002
0000
0000
0000
,  // measure 62
0000
0000
0303
0000
,  // measure 63
0010
0010
0010
0010
,  // measure 64
0010
0010
0010
0010
,  // measure 65
0001
0110
0000
0000
1000
0000
1000
0000
,  // measure 66
1000
1000
1000
1000
,  // measure 67
0101
0001
1000
0100
0010
0000
0100
0000
,  // measure 68
0001
1000
0001
1000
0010
0000
0100
0000
,  // measure 69
0001
0010
1000
0010
0001
0000
0100
0000
,  // measure 70
0010
1000
0100
0001
1000
0000
0010
0000
,  // measure 71
1100
0110
1010
0110
,  // measure 72
1001
1001
0101
0110
,  // measure 73
1100
1001
0101
0011
,  // measure 74
1010
1100
0101
1001
;

//---------------dance-single - ----------------
#NOTEDATA:;
#CHARTNAME:;
#STEPSTYPE:dance-single;
#DESCRIPTION:;
#CHARTSTYLE:;
#DIFFICULTY:Challenge;
#METER:16;
#RADARVALUES:0.754867,1.008455,0.446961,0.268176,0.178784,532.000000,487.000000,45.000000,27.000000,0.000000,0.000000,0.000000,0.000000,0.000000,0.754867,1.008455,0.446961,0.268176,0.178784,532.000000,487.000000,45.000000,27.000000,0.000000,0.000000,0.000000,0.000000,0.000000;
#CREDIT:;
#OFFSET:0.000000;
#BPMS:0.000000=200.000000
,76.000000=401.000000
,268.000000=200.500000
,332.000000=100.000000
,340.000000=200.000000
,356.000000=400.000000
,420.000000=200.000000
,421.000000=190.000000
,422.000000=180.000000
,423.000000=175.000000
,425.000000=190.000000
,427.000000=95.000000
;
#STOPS:;
#DELAYS:;
#WARPS:;
#TIMESIGNATURES:0.000000=4=4
;
#TICKCOUNTS:0.000000=4
;
#COMBOS:0.000000=1
;
#SPEEDS:0.000000=1.000000=0.000000=0
;
#SCROLLS:0.000000=1.000000
;
#FAKES:;
#LABELS:0.000000=Song Start
;
#DISPLAYBPM:200.000000;
#NOTES:
// measure 0
0000
0000
0000
0000
,  // measure 1
0000
0000
0000
0000
,  // measure 2
0000
0000
0000
0000
,  // measure 3
0000
0000
0000
0000
,  // measure 4
0000
0000
0020
0130
,  // measure 5
0001
2000
3000
2000
,  // measure 6
3000
0000
2000
0000
3000
0000
2000
3000
,  // measure 7
0102
0000
0003
0000
,  // measure 8
2010
0100
0001
0010
3001
1000
0001
0000
,  // measure 9
0120
1000
0001
0100
1030
0001
1000
0000
,  // measure 10
0010
0100
0001
0100
0000
0010
0001
0010
,  // measure 11
0100
1000
0001
0100
0001
0000
0000
0000
,  // measure 12
0001
0010
1000
0001
1000
0001
0100
1000
,  // measure 13
0102
0010
0013
0000
,  // measure 14
2010
0000
0100
0010
3001
0000
0000
0000
,  // measure 15
0120
0000
0100
1000
1030
0001
0100
0000
,  // measure 16
0012
0100
0103
0010
,  // measure 17
1000
0101
0000
1001
0000
0110
0000
1100
,  // measure 18
0000
0101
0000
1001
0000
0110
0000
1100
,  // measure 19
0101
0000
0001
0010
,  // measure 20
1000
0000
0001
0010
,  // measure 21
1000
0001
0100
0010
,  // measure 22
0001
0000
1000
0100
,  // measure 23
0001
0000
1000
0001
,  // measure 24
0010
0001
1000
0001
,  // measure 25
0100
0000
0001
0010
,  // measure 26
1000
0000
0001
0100
,  // measure 27
1000
0000
0001
0010
,  // measure 28
1000
0000
0010
1000
,  // measure 29
0001
1000
0100
1000
,  // measure 30
0001
0000
1000
0100
,  // measure 31
0010
0000
1000
0001
,  // measure 32
0100
0010
0001
0010
,  // measure 33
1000
0000
0001
0100
,  // measure 34
1000
0000
0010
0010
,  // measure 35
1100
0010
0100
0000
0001
0000
0001
0000
,  // measure 36
1000
0100
0001
0010
,  // measure 37
1000
0001
1000
0000
0010
0000
0100
0000
,  // measure 38
0001
0100
0100
1000
,  // measure 39
0001
0010
1000
0000
0100
0000
0010
0000
,  // measure 40
1000
0001
1000
0001
,  // measure 41
1000
0000
0010
0100
,  // measure 42
0001
0010
1000
0100
,  // measure 43
0010
0001
0100
0001
,  // measure 44
1000
0010
1000
0001
,  // measure 45
0100
1000
0010
1000
,  // measure 46
0001
0100
0001
1000
,  // measure 47
0010
0101
1000
0100
,  // measure 48
0001
1000
0001
1000
,  // measure 49
0010
0001
0100
0001
,  // measure 50
1000
0010
1000
0100
,  // measure 51
0001
1000
0001
1000
0001
0000
0100
0000
,  // measure 52
0001
1000
0010
1000
,  // measure 53
0010
0100
0010
0100
0010
0000
0001
0000
,  // measure 54
0100
0001
1000
0010
,  // measure 55
1000
0001
1000
0001
1000
0000
0100
0000
,  // measure 56
0001
1000
0001
1000
,  // measure 57
0100
0001
1000
0010
,  // measure 58
0100
0001
1000
0010
,  // measure 59
0110
0001
1000
0001
,  // measure 60
1100
0010
0001
0100
,  // measure 61
0011
1000
0001
1000
,  // measure 62
0110
0001
0010
1000
,  // measure 63
1010
0100
0001
1000
,  // measure 64
0101
1000
0010
0001
,  // measure 65
1100
0001
1000
0010
,  // measure 66
1001
0100
0001
1000
,  // measure 67
0010
0000
0000
0000
0000
0000
0000
1000
0000
0000
0000
0000
0001
0000
0000
0100
,  // measure 68
0000
0000
0000
0000
0000
0010
0000
0000
0001
0000
0000
0000
0000
0000
0000
0000
,  // measure 69
0110
0000
0000
0000
0000
0010
0000
0000
1000
0000
0000
0000
0000
0000
0000
0000
,  // measure 70
0100
0000
0000
0000
0000
0000
0000
0000
0010
0000
0000
0000
0000
0001
0000
0100
,  // measure 71
0010
0000
0000
1000
0001
0000
0000
0100
1000
0000
0000
0100
0001
0000
0000
0010
,  // measure 72
0100
0000
0000
0000
1000
0000
0000
0100
0010
0000
0000
0001
0100
0000
0000
0010
,  // measure 73
0001
0000
0000
0010
1000
0000
0000
0100
0001
0000
0000
0100
1000
0000
0000
0100
,  // measure 74
0001
0000
0000
0001
0100
0000
0000
0001
1000
0000
0000
0010
1000
0000
0000
0000
,  // measure 75
0101
0110
1100
1001
,  // measure 76
1001
0110
0101
1001
,  // measure 77
0110
1100
1001
1001
,  // measure 78
0101
0110
1100
0110
,  // measure 79
0001
0000
0000
0010
0001
0000
0000
0010
1000
0000
0000
0100
0010
0000
0000
1000
,  // measure 80
0100
0000
0000
0001
1000
0000
0000
0010
0100
0000
0000
0001
0100
0000
0000
0010
,  // measure 81
0001
0000
0000
1000
0100
0000
0000
1000
0001
0000
0000
0100
0010
0000
0000
1000
,  // measure 82
0100
0000
0000
0001
0100
0000
0000
0010
1000
0000
0000
0000
0100
0000
0000
0000
,  // measure 83
0101
0020
2030
3200
0302
2003
3002
2003
,  // measure 84
3020
0230
0320
2030
3200
0302
0000
0023
,  // measure 85
1030
0100
0001
1000
0001
1000
0010
1000
,  // measure 86
0100
0001
1000
0010
0001
0100
0001
1000
,  // measure 87
0010
1010
0100
0001
1000
0001
1000
0010
,  // measure 88
0001
0100
0001
1000
0010
0100
0010
0000
,  // measure 89
0001
0010
1000
0010
0001
0000
0100
0000
,  // measure 90
0001
1000
0010
0100
,  // measure 91
0001
0100
1000
0100
0001
0000
0001
0000
,  // measure 92
1000
0001
0100
0100
,  // measure 93
0001
1000
0010
1000
0001
0000
0100
0000
,  // measure 94
0010
1000
0100
0001
,  // measure 95
1000
0001
1000
0100
,  // measure 96
0001
1000
0010
1000
,  // measure 97
0001
0010
0100
0000
0001
0010
1000
0000
,  // measure 98
0100
0010
1000
0000
0010
0100
0001
0000
,  // measure 99
0100
0001
1000
0000
0001
0010
1000
0000
,  // measure 100
0001
0100
0010
0000
0001
1000
0001
0000
,  // measure 101
0010
0100
0001
0000
0100
0010
0001
0000
,  // measure 102
0100
1000
0010
0000
0001
0100
0010
0000
,  // measure 103
0001
1000
0001
0000
0010
0100
0001
0000
,  // measure 104
0100
0001
1000
0000
0001
0100
0010
0100
,  // measure 105
0020
0000
0000
0000
0100
0000
0000
0000
0001
0000
0000
0000
0100
0000
0000
0001
,  // measure 106
0030
0000
0000
0000
1000
0000
0000
0010
0000
0000
0000
0000
0100
0000
0001
0000
;
