#VERSION:0.83;
#TITLE:Night of Fire;
#SUBTITLE:;
#ARTIST:niko;
#TITLETRANSLIT:;
#SUBTITLETRANSLIT:;
#ARTISTTRANSLIT:;
#GENRE:;
#ORIGIN:;
#CREDIT:;
#BANNER:Night Of Fire.png;
#BACKGROUND:Night Of Fire-bg.png;
#PREVIEWVID:;
#JACKET:;
#CDIMAGE:;
#DISCIMAGE:;
#LYRICSPATH:;
#CDTITLE:;
#MUSIC:Night Of Fire.mp3;
#OFFSET:-2.611000;
#SAMPLESTART:52.901001;
#SAMPLELENGTH:12.000000;
#SELECTABLE:YES;
#BPMS:0.000=155.100;
#STOPS:;
#DELAYS:;
#WARPS:;
#TIMESIGNATURES:0.000=4=4;
#TICKCOUNTS:0.000=4;
#COMBOS:0.000=1;
#SPEEDS:0.000=1.000=0.000=0;
#SCROLLS:0.000=1.000;
#FAKES:;
#LABELS:0.000=Song Start;
#BGCHANGES:;
#KEYSOUNDS:;
#ATTACKS:
;

//---------------dance-single - ----------------
#NOTEDATA:;
#CHARTNAME:;
#STEPSTYPE:dance-single;
#DESCRIPTION:;
#CHARTSTYLE:;
#DIFFICULTY:Challenge;
#METER:14;
#RADARVALUES:0.648860,0.849495,0.444890,0.206926,0.346601,439.000000,396.000000,43.000000,20.000000,0.000000,0.000000,0.000000,0.000000,0.000000,0.648860,0.849495,0.444890,0.206926,0.346601,439.000000,396.000000,43.000000,20.000000,0.000000,0.000000,0.000000,0.000000,0.000000;
#CREDIT:;
#NOTES:
// measure 0
0000
0000
0000
0000
,  // measure 1
0000
0000
0000
0000
,  // measure 2
0000
0000
0000
0000
,  // measure 3
0000
0000
0000
0000
,  // measure 4
0101
0001
0001
0001
,  // measure 5
1010
1000
1000
1000
,  // measure 6
0110
0010
0010
0010
,  // measure 7
1100
0000
0000
0101
0000
0000
0110
0000
0000
1100
0000
0000
0101
0000
0101
0000
,  // measure 8
0000
0000
0000
0000
0000
0000
0000
0000
0010
0000
0100
0000
0001
1000
0010
1000
,  // measure 9
0100
0010
0001
1000
0100
0001
0010
0000
1000
0000
0100
0001
1000
0000
0100
0010
,  // measure 10
0001
0000
1000
0100
0001
0000
1000
0001
0010
0000
0100
0000
0001
0010
1000
0010
,  // measure 11
0001
0100
1000
0001
0010
1000
0001
0000
0100
0000
0001
0010
1000
0000
0001
0010
,  // measure 12
1000
0000
0010
0100
1000
0000
0100
1000
0001
0000
1000
0000
0001
0100
1000
0100
,  // measure 13
0010
0001
1000
0010
0100
0010
0001
0000
1000
0000
0010
0100
0001
0000
0100
1000
,  // measure 14
0001
0000
1000
0100
0010
0000
0100
0010
1000
0000
0100
0000
0001
0010
1000
0100
,  // measure 15
0001
0100
1000
0100
0010
1000
0001
0000
0110
0000
0000
0101
0000
0000
0110
0000
,  // measure 16
0000
1100
0000
0000
0101
0000
0101
0000
0010
0000
0010
0000
0100
0000
1000
0000
,  // measure 17
0001
1000
0001
0000
0100
0001
0010
1000
,  // measure 18
0001
0000
1000
0000
0001
0000
1000
0000
0010
0000
0100
0000
1000
0100
0010
0100
,  // measure 19
0001
0010
1000
0010
0001
0100
1000
0100
0010
1000
0100
1000
0001
0010
1000
0100
,  // measure 20
0001
0100
0010
1000
0100
0000
0000
0000
0010
0000
0100
0000
1000
0000
0001
0000
,  // measure 21
0100
0001
1000
0000
0010
0100
0001
1000
,  // measure 22
0001
0000
0100
0000
0001
0000
1000
0000
0010
0000
0100
0000
0010
0001
1000
0001
,  // measure 23
0100
1000
0001
0010
1000
0010
0001
0000
1100
0000
0000
1010
0000
0000
0110
0000
,  // measure 24
0000
0101
0000
0000
1001
0000
1001
0000
0200
0000
0000
0000
0310
0000
1000
0000
,  // measure 25
0001
1000
0001
0200
0000
0301
1000
0001
,  // measure 26
2000
0000
3002
0000
0013
0100
0101
0101
,  // measure 27
1000
0100
1010
1010
0001
0100
1000
0200
,  // measure 28
0000
0320
0000
2030
3002
0000
0013
2000
,  // measure 29
0000
3200
0000
0302
0000
0013
0001
1000
,  // measure 30
0002
0023
0130
0000
,  // measure 31
0101
0000
0000
1000
0000
0010
0100
0001
,  // measure 32
1000
0001
0000
0000
0110
0000
1010
0000
,  // measure 33
0010
0200
0010
0300
0010
0100
0010
1000
,  // measure 34
0010
0001
0010
0000
0010
1000
0010
0001
,  // measure 35
0010
1000
0010
0100
0010
0100
0010
0100
,  // measure 36
0010
0001
0010
0000
1010
0000
1100
0000
,  // measure 37
1000
0001
1000
0000
1000
0010
1000
0001
,  // measure 38
1000
0100
1000
0000
1000
0010
1000
0100
,  // measure 39
1000
0001
1000
0100
1000
0100
1000
0010
,  // measure 40
1000
0000
0010
0000
1000
0001
0010
0100
0101
0000
0000
0000
0011
0000
0000
0000
,  // measure 41
0001
1000
0001
0000
0001
0010
0001
1000
,  // measure 42
0001
0100
0001
0000
0001
0010
0001
0100
,  // measure 43
0001
0010
0001
0100
0001
0100
0001
1000
,  // measure 44
0001
0000
1000
0000
0001
0000
1000
0001
0110
0000
0000
0000
0110
0000
0000
0000
,  // measure 45
0100
0001
0100
0000
0100
0010
0100
1000
,  // measure 46
0100
0001
0100
0000
0100
0010
0100
0001
,  // measure 47
0100
0001
0100
0110
0000
1001
1001
1001
,  // measure 48
1001
0000
0000
0000
0110
0000
0000
0000
1000
0000
0000
0100
1000
0000
0010
0000
,  // measure 49
1000
0000
0010
0000
1000
0000
0100
0000
1000
0000
0000
0001
1000
0000
0010
0000
,  // measure 50
1000
0000
0000
0000
1000
0000
0000
0000
0001
0000
0000
0100
0001
0000
1000
0000
,  // measure 51
0001
0010
0001
0100
0001
0010
0001
1000
,  // measure 52
0001
0000
0000
0000
0001
0000
0000
0000
0010
0000
0000
0100
0010
0000
1000
0000
,  // measure 53
0010
0000
0100
0000
0010
0000
0100
0000
0010
0000
0000
0001
0010
0000
1000
0000
,  // measure 54
0010
0000
0000
0000
0010
0000
0000
0000
0100
0000
0000
0010
0100
0000
0010
0000
,  // measure 55
0100
0000
0001
0000
0100
0000
1000
0000
0000
0000
0000
0000
0000
0000
0000
2002
,  // measure 56
0000
0000
3003
0220
0000
0000
0330
2002
0000
0000
3003
0000
0000
0000
0000
0000
;
