#TITLE:New Rules;
#SUBTITLE:;
#ARTIST:Dua Lipa;
#TITLETRANSLIT:;
#SUBTITLETRANSLIT:;
#ARTISTTRANSLIT:;
#GENRE:;
#CREDIT:;
#BANNER:;
#BACKGROUND:Dua Lipa - New Rules (Official Music Video) (HQ).jpg;
#LYRICSPATH:;
#CDTITLE:;
#MUSIC:Dua Lipa - New Rules (Official Music Video) (384kbit_Vorbis) 00_00_09-00_03_44.ogg;
#OFFSET:1.035000;
#SAMPLESTART:59.223999;
#SAMPLELENGTH:16.000000;
#LASTBEATHINT:0.067667;
#SELECTABLE:YES;
#BPMS:0.000000=116.000000
;
#STOPS:
;
#BGCHANGES:2.000=Dua Lipa - New Rules (Official Music Video) (1080p_25fps_H264-128kbit_AAC) 00_00_09-00_03_44.mp4=1.000=0=0=1=====,
99999=-nosongbg-=1.000=0=0=0 // don't automatically add -songbackground-
;
#KEYSOUNDS:;
#ATTACKS:;

//---------------dance-single - ----------------
#NOTES:
     dance-single:
     :
     Hard:
     8:
     0.510923,0.537516,0.060460,0.134873,0.306952,769.000000,756.000000,13.000000,29.000000,0.000000,0.000000,0.510923,0.537516,0.060460,0.134873,0.306952,769.000000,756.000000,13.000000,29.000000,0.000000,0.000000:
// measure 0
0000
0000
0000
0000
,  // measure 1
0000
0000
0000
0000
,  // measure 2
0000
0000
0000
0000
,  // measure 3
0000
0000
0000
0000
,  // measure 4
0000
0000
0000
0000
,  // measure 5
0100
0001
0010
0001
0100
1000
0100
0000
,  // measure 6
0010
1000
0100
0001
1000
0000
0001
0000
,  // measure 7
0100
0000
0001
0100
0010
0100
0010
0100
,  // measure 8
0000
0100
0010
0100
0010
0100
0000
0100
,  // measure 9
0001
1000
0100
1000
0001
1000
0100
0000
,  // measure 10
0001
0010
0001
0100
1000
0000
0100
0000
,  // measure 11
0001
0000
0010
0100
1000
0100
1000
0100
,  // measure 12
0000
0100
1000
0100
1000
0100
0000
0100
,  // measure 13
0002
0000
0000
1000
0000
0000
1000
0000
0100
0000
0000
0010
0000
0000
0010
0000
,  // measure 14
0010
0000
0000
1000
0000
0000
1000
0000
0023
0000
0000
0100
0000
0000
0100
0000
,  // measure 15
1030
0000
0000
0001
0000
0000
0100
0000
0010
0000
0000
1000
0000
0000
0001
0000
,  // measure 16
1000
0000
0000
0010
0000
0000
0100
0000
1000
0001
1000
0001
1000
0000
0010
0000
,  // measure 17
2000
0000
0000
0010
0000
0000
0010
0000
0100
0000
0000
0001
0000
0000
0001
0000
,  // measure 18
0010
0000
0000
0100
0000
0000
0100
0000
3200
0000
0000
1000
0000
0000
1000
0000
,  // measure 19
0301
0000
0000
0010
0000
0000
0001
0000
0100
0000
0000
1000
0000
0000
0010
0000
,  // measure 20
0100
0000
0000
1000
0000
0000
1000
0000
0010
0000
0000
0010
0000
0000
0010
0000
,  // measure 21
1100
0000
0000
1000
0010
0000
1000
0000
0001
0000
0000
0001
0100
0000
0001
0000
,  // measure 22
1000
0000
0001
0010
0100
1000
0001
0010
0100
1000
0000
0010
0001
0000
0010
0000
,  // measure 23
0110
0000
0000
1000
0010
0000
1000
0000
0001
0000
0000
0001
0100
0000
0001
0000
,  // measure 24
0010
0000
0000
0010
1000
0000
0010
0000
0100
0000
0000
0100
1000
0000
0100
0000
,  // measure 25
0011
0000
0000
0001
1000
0000
0001
0000
0010
0000
0000
0010
0001
0000
0010
0000
,  // measure 26
1000
0100
0010
0100
1000
0100
0010
0100
1000
0000
0000
1000
0100
0000
1000
0000
,  // measure 27
0100
0000
0000
0001
1000
0000
0001
0000
0010
0000
0000
1000
0010
0000
1000
0000
,  // measure 28
0100
0000
0000
0100
0001
0000
1000
0000
0010
0000
0000
0010
0001
0000
0100
0000
,  // measure 29
0000
2000
3002
0203
0320
2030
3200
0302
,  // measure 30
1003
0001
1000
0001
0100
0000
0011
0000
0100
0000
0001
0000
0100
0000
0010
0000
,  // measure 31
0100
0010
0100
0010
0100
1000
0100
1000
,  // measure 32
0100
1000
0100
0001
0100
1000
0100
0001
,  // measure 33
0100
0000
0010
0000
0100
0000
1000
0000
0100
0000
0001
0000
0100
1000
0001
0000
,  // measure 34
0001
0100
0001
1000
0001
0010
0001
1000
,  // measure 35
0001
0100
0001
1000
0001
0100
0001
0010
,  // measure 36
0001
1000
0001
0010
0001
1000
0001
0100
,  // measure 37
0001
0000
1000
0000
0001
0000
0010
0000
0001
0000
1000
0000
0001
1000
0010
0000
,  // measure 38
0100
0001
0010
0001
0100
0000
0100
1000
,  // measure 39
0010
1000
0100
0001
1000
0000
0001
0000
,  // measure 40
0100
0000
0001
0100
0010
0100
0010
0100
,  // measure 41
0100
0100
0010
0100
0010
0100
0100
0000
,  // measure 42
0001
1000
0100
1000
0001
1000
0100
0010
,  // measure 43
0001
0010
0001
0100
1000
0000
0100
0000
,  // measure 44
0001
0000
0010
0100
1000
0100
1000
0100
,  // measure 45
0000
0100
1000
0100
1000
0100
0010
0100
,  // measure 46
0002
0000
0000
1000
0000
0000
1000
0000
0100
0000
0000
0010
0000
0000
0010
0000
,  // measure 47
0010
0000
0000
1000
0000
0000
1000
0000
0023
0000
0000
0100
0000
0000
0100
0000
,  // measure 48
1030
0000
0000
0001
0000
0000
0100
0000
0010
0000
0000
1000
0000
0000
0001
0000
,  // measure 49
1000
0100
0010
0001
0010
0100
1000
0100
,  // measure 50
1100
0000
0000
1000
0010
0000
1000
0000
0001
0000
0000
0001
0100
0000
0001
0000
,  // measure 51
1000
0000
0001
0010
0100
1000
0001
0010
0100
1000
0000
0010
0001
0000
0010
0000
,  // measure 52
0110
0000
0000
1000
0010
0000
1000
0000
0001
0000
0000
0001
0100
0000
0001
0000
,  // measure 53
0010
0000
0000
0010
1000
0000
0010
0000
0100
0000
0000
0100
1000
0000
0100
0000
,  // measure 54
0011
0000
0000
0001
1000
0000
0001
0000
0010
0000
0000
0010
0001
0000
0010
0000
,  // measure 55
1000
0100
0010
0100
1000
0100
0010
0100
1000
0000
0000
1000
0100
0000
1000
0000
,  // measure 56
0100
0000
0000
0001
1000
0000
0001
0000
0010
0000
0000
1000
0010
0000
1000
0000
,  // measure 57
0100
0000
0000
0100
0001
0000
1000
0000
0010
0000
0000
0010
0001
0000
0100
0000
,  // measure 58
0000
2000
3002
0203
0320
2030
3200
0302
,  // measure 59
1003
0001
1000
0001
0010
0000
1100
0000
0010
0000
0001
0000
0010
0000
0100
0000
,  // measure 60
0010
0100
0010
0100
0010
1000
0010
1000
,  // measure 61
0010
1000
0010
0001
0010
1000
0010
0001
,  // measure 62
0010
0000
0100
0000
0010
0000
1000
0000
0010
0000
0001
0000
0010
0100
1000
0000
,  // measure 63
1000
0100
1000
0001
1000
0010
1000
0001
,  // measure 64
1000
0100
1000
0001
1000
0100
1000
0010
,  // measure 65
1000
0001
1000
0010
1000
0001
1000
0100
,  // measure 66
1000
0000
0001
0000
1000
0000
0010
0000
1000
0000
0001
0000
1000
0001
0100
0000
,  // measure 67
1000
0000
0000
0001
0000
0000
0010
0000
0100
0000
0000
0001
0000
0000
1000
0000
,  // measure 68
0001
0000
0000
1000
0000
0000
0100
0000
0010
0000
0000
0001
0000
0000
0001
0000
,  // measure 69
1000
0000
0000
0100
0000
0000
0010
0000
1000
0000
0001
0000
1000
0000
0001
0000
,  // measure 70
1000
1000
1000
1000
1000
1000
1000
1000
,  // measure 71
0010
0000
0000
0100
0000
0000
0001
0000
1000
0000
0000
0100
0000
0000
0001
0000
,  // measure 72
0010
0000
0000
0001
0000
0000
0100
0000
1000
0000
0000
0010
0000
0000
0100
0000
,  // measure 73
1000
0000
0000
0001
0000
0000
0010
0000
1000
0000
0000
0001
0000
0000
0010
0000
,  // measure 74
1000
0000
0000
0001
1000
0000
0000
0001
1000
0000
0000
0001
1000
0000
0000
0001
,  // measure 75
1100
0000
0000
1000
0010
0000
1000
0000
0001
0000
0000
0001
0100
0000
0001
0000
,  // measure 76
1000
0000
0001
0010
0100
1000
0001
0010
0100
1000
0000
0010
0001
0000
0010
0000
,  // measure 77
0110
0000
0000
1000
0010
0000
1000
0000
0001
0000
0000
0001
0100
0000
0001
0000
,  // measure 78
0010
0000
0000
0010
1000
0000
0010
0000
0100
0000
0000
0100
1000
0000
0100
0000
,  // measure 79
0011
0000
0000
0001
1000
0000
0001
0000
0010
0000
0000
0010
0001
0000
0010
0000
,  // measure 80
1000
0100
0010
0100
1000
0100
0010
0100
1000
0000
0000
1000
0100
0000
1000
0000
,  // measure 81
0100
0000
0000
0001
1000
0000
0001
0000
0010
0000
0000
1000
0010
0000
1000
0000
,  // measure 82
0100
0000
0000
0100
0001
0000
1000
0000
0010
0000
0000
0010
0001
0000
0100
0000
,  // measure 83
0000
2000
3002
0203
0320
2030
3200
0302
,  // measure 84
1003
0001
1000
0001
0001
0000
0110
0000
0001
0000
0100
0000
0001
0000
0010
0000
,  // measure 85
0001
0010
0001
0010
0001
1000
0001
1000
,  // measure 86
0001
1000
0001
0100
0001
1000
0001
0100
,  // measure 87
0001
0000
0010
0000
0001
0000
1000
0000
0001
0000
0100
0000
0001
1000
0100
0000
,  // measure 88
0100
0001
0100
1000
0100
0010
0100
1000
,  // measure 89
0100
0001
0100
1000
0100
0001
0100
0010
,  // measure 90
0100
0001
1000
0001
0100
0000
0010
0000
0100
0001
1000
0000
0100
0000
0001
0000
,  // measure 91
0100
0000
1000
0000
0100
0000
0010
0000
0100
0000
1000
0000
0100
1000
0010
0000
,  // measure 92
1000
0000
0001
0010
1000
0000
0101
0000
0010
0000
1000
0100
0001
0000
0100
0000
,  // measure 93
0001
0100
0001
0100
0001
0100
0001
0100
,  // measure 94
0010
0000
1000
0100
0001
0000
0010
0000
0001
0000
0010
1000
0100
0000
1000
0000
,  // measure 95
0100
1000
0100
1000
0100
1000
0100
1000
,  // measure 96
0001
0000
0010
1000
0100
0000
0001
0000
0010
0000
0001
1000
0001
0000
1000
0000
,  // measure 97
0001
1000
0001
1000
0001
1000
0001
1000
,  // measure 98
0010
0000
0001
0100
1000
0000
0010
0000
1000
0000
0001
0100
0010
0000
0100
0000
,  // measure 99
0010
0000
0100
0000
0010
0000
0100
0000
0010
0100
0000
1000
0000
0001
0000
1000
,  // measure 100
0000
0002
2000
0000
0000
0000
0000
0000
3003
0000
0000
0000
0000
0000
0000
0000
;
