#TITLE:000~430~000;
#SUBTITLE:(Face Reality Mix);
#ARTIST:Unknown artist;
#TITLETRANSLIT:;
#SUBTITLETRANSLIT:;
#ARTISTTRANSLIT:;
#GENRE:;
#CREDIT:;
#BANNER:MaXX ~430~ (Face Reality Mix) - bn.png;
#BACKGROUND:MaXX ~430~ (Face Reality Mix) - bg.png;
#LYRICSPATH:;
#CDTITLE:;
#MUSIC:DJ Slash - MaXX ~430~ (Face Reality Mix).mp3;
#OFFSET:0.000000;
#SAMPLESTART:0.000000;
#SAMPLELENGTH:12.000000;
#SELECTABLE:YES;
#BPMS:0.000000=215.000000
,8.000000=430.000000
,72.000000=215.000000
,80.000000=430.000000
,272.000000=215.000000
,304.000000=430.000000
,368.000000=107.500000
,372.000000=430.000000
;
#STOPS:
;
#BGCHANGES:;
#KEYSOUNDS:;
#ATTACKS:;

//---------------dance-single - ----------------
#NOTES:
     dance-single:
     :
     Hard:
     1:
     0.610540,1.323476,0.118120,0.042953,0.032214,398.000000,387.000000,11.000000,4.000000,0.000000,2.000000,0.610540,1.323476,0.118120,0.042953,0.032214,398.000000,387.000000,11.000000,4.000000,0.000000,2.000000:
// measure 0
0000
0000
0000
0000
,  // measure 1
4040
0000
0000
0000
,  // measure 2
3131
0010
1000
0100
,  // measure 3
0001
1000
0001
1000
,  // measure 4
0001
1000
0010
0001
,  // measure 5
0100
1000
0001
0100
,  // measure 6
0010
1000
0100
0001
,  // measure 7
1000
0001
1000
0010
,  // measure 8
1000
0100
1000
0100
,  // measure 9
0001
0000
1000
0000
0010
0100
0010
0100
,  // measure 10
0010
0001
1000
0001
,  // measure 11
1000
0010
0100
0001
,  // measure 12
1000
0100
1000
0010
,  // measure 13
0100
0001
1000
0110
,  // measure 14
1001
0010
0100
0001
,  // measure 15
1000
0001
1000
0010
,  // measure 16
1000
0100
0001
1000
,  // measure 17
0001
1000
0100
0001
,  // measure 18
1000
0000
0000
0000
0000
0100
1000
0010
1000
0000
0000
0000
0000
0010
1000
0100
,  // measure 19
0001
0000
0000
0000
0000
0100
0010
1000
0001
0000
1000
0000
0001
0000
0000
0000
,  // measure 20
0010
0010
0010
0010
,  // measure 21
0010
0010
0010
0010
,  // measure 22
0100
0100
0100
0100
,  // measure 23
0100
0100
0100
0100
,  // measure 24
1000
1000
1000
1000
,  // measure 25
1000
1000
1000
1000
,  // measure 26
0001
0001
0001
0001
,  // measure 27
0001
0001
0001
0001
,  // measure 28
0100
0100
0100
0100
,  // measure 29
0100
0100
0100
0100
,  // measure 30
0010
0010
0010
0010
,  // measure 31
0010
0010
0010
0010
,  // measure 32
1000
1000
1000
1000
,  // measure 33
1000
1000
1000
1000
,  // measure 34
0001
0001
0001
0001
,  // measure 35
0001
0001
0001
0010
,  // measure 36
1001
0100
1000
0001
,  // measure 37
1000
0001
0010
0010
,  // measure 38
1000
0001
0100
1000
,  // measure 39
0001
1000
0001
0010
,  // measure 40
1000
0100
0001
1000
,  // measure 41
0010
1000
0001
0100
,  // measure 42
0001
1000
0001
1000
,  // measure 43
0010
0001
1000
0001
,  // measure 44
0100
0001
1000
0001
,  // measure 45
0010
1000
0100
0001
,  // measure 46
0010
0001
1000
0100
,  // measure 47
1000
0001
0100
0001
,  // measure 48
1000
0010
1000
0100
,  // measure 49
0001
1000
0001
0010
,  // measure 50
1000
0001
0100
0001
,  // measure 51
0010
0000
0100
0000
0001
1000
0001
1000
,  // measure 52
0001
1000
0100
0001
,  // measure 53
1000
0001
0100
1000
,  // measure 54
0010
1000
0001
0100
,  // measure 55
0001
0010
1000
0001
,  // measure 56
0100
0001
0010
1000
,  // measure 57
0001
1000
0001
0100
,  // measure 58
1000
0010
1000
0001
,  // measure 59
0100
0001
1000
0100
,  // measure 60
0001
0010
0001
1000
,  // measure 61
0001
0100
0010
0001
,  // measure 62
1000
0001
1000
0100
,  // measure 63
0001
0010
1000
0001
,  // measure 64
0100
0001
0100
1000
,  // measure 65
0010
1000
0001
0100
,  // measure 66
0001
1000
0100
0001
,  // measure 67
0010
0000
0001
0000
1000
0100
1000
0100
,  // measure 68
0001
0001
0001
0001
,  // measure 69
0010
0010
0010
0010
,  // measure 70
0100
0100
0100
0100
,  // measure 71
1000
1000
1000
1000
,  // measure 72
0001
0001
0001
0000
0010
0010
0010
0000
,  // measure 73
0100
0100
0100
0000
1000
1000
0001
0001
,  // measure 74
0010
0010
0010
0000
0100
0100
0100
0000
,  // measure 75
0001
0001
0001
0000
1001
0110
1001
0000
,  // measure 76
0001
0010
0100
0001
,  // measure 77
0010
0001
1000
0001
,  // measure 78
0010
1000
0100
1000
,  // measure 79
0001
1000
0001
1000
,  // measure 80
0010
1000
0001
1000
,  // measure 81
0001
1000
0001
0010
,  // measure 82
1000
0001
1000
1000
,  // measure 83
0100
0010
1000
0100
,  // measure 84
1000
1000
1000
0100
,  // measure 85
0001
0100
1000
0100
,  // measure 86
0001
0010
0010
1000
,  // measure 87
0100
0100
0001
0001
,  // measure 88
0010
0010
0100
0010
,  // measure 89
0100
1000
0001
1000
,  // measure 90
0001
0100
1000
0001
,  // measure 91
0100
0010
1000
0001
,  // measure 92
2002
0000
0000
0000
0000
0000
3003
0404
,  // measure 93
1303
0000
0000
0000
,  // measure 94
0000
0000
0000
0000
,  // measure 95
0000
0000
0000
0000
,  // measure 96
0000
0000
0000
0000
,  // measure 97
0000
0000
0000
0000
,  // measure 98
0000
0000
0000
0000
,  // measure 99
0000
0000
0000
0000
,  // measure 100
0000
0000
0000
0000
,  // measure 101
0000
0000
0000
0000
,  // measure 102
0000
0000
0000
0000
,  // measure 103
0000
0000
0000
0000
,  // measure 104
0000
0000
0000
0000
,  // measure 105
0000
0000
0000
0000
,  // measure 106
0000
0000
0000
0000
,  // measure 107
0000
0000
0000
0000
,  // measure 108
0000
0000
0000
0000
,  // measure 109
0000
0000
0000
0000
,  // measure 110
0000
0000
0000
0000
,  // measure 111
0000
0000
0000
0000
,  // measure 112
0000
0000
0000
0000
,  // measure 113
0000
0000
0000
0000
,  // measure 114
0000
0000
0000
0000
,  // measure 115
0000
0000
0000
0000
,  // measure 116
0000
0000
0000
0000
,  // measure 117
0000
0000
0000
0000
,  // measure 118
0000
0000
0000
0000
,  // measure 119
0000
0000
0000
0000
,  // measure 120
0000
0000
0000
0000
,  // measure 121
0000
0000
0000
0000
,  // measure 122
0000
0000
0000
0000
,  // measure 123
0000
0000
0000
0000
,  // measure 124
0000
0000
0000
0000
,  // measure 125
0000
0000
0000
0000
,  // measure 126
0000
0000
0000
0000
,  // measure 127
0000
0000
0000
0000
,  // measure 128
0000
0000
0000
0000
,  // measure 129
0000
0000
0000
0000
,  // measure 130
0000
0000
0000
0000
,  // measure 131
0000
0000
0000
0000
,  // measure 132
0000
0000
0000
0000
,  // measure 133
0000
0000
0000
0000
,  // measure 134
0000
0000
0000
0000
,  // measure 135
0000
0000
0000
0000
,  // measure 136
0000
0000
0000
0000
,  // measure 137
0000
0000
0000
0000
,  // measure 138
0000
0000
0000
0000
,  // measure 139
0000
0000
0000
0000
,  // measure 140
0000
0000
0000
0000
,  // measure 141
2002
0000
0000
0000
,  // measure 142
0000
0000
0000
0000
,  // measure 143
0000
0000
0000
0000
,  // measure 144
0000
0000
0000
0000
,  // measure 145
3003
0000
0000
0000
;
