#TITLE:MAX 360;
#SUBTITLE:;
#ARTIST:BEMANI Sound Team "[𝑥]";
#TITLETRANSLIT:;
#SUBTITLETRANSLIT:;
#ARTISTTRANSLIT:;
#GENRE:;
#CREDIT:;
#BANNER:MAX 360.png;
#BACKGROUND:MAX 360.png;
#LYRICSPATH:;
#CDTITLE:;
#MUSIC:MAX 360.ogg;
#OFFSET:0.000000;
#SAMPLESTART:54.664001;
#SAMPLELENGTH:15.000000;
#SELECTABLE:YES;
#DISPLAYBPM:360.000000;
#BPMS:0.000000=360.000000
,264.000000=180.000000
,296.000000=360.000000
,455.000000=180.000000
,486.000000=720.000000
,518.000000=360.000000
;
#STOPS:327.000000=0.167000,
518.000000=0.167000,
641.000000=0.167000,
644.000000=0.167000
;
#BGCHANGES:;
#KEYSOUNDS:;
#ATTACKS:;

//---------------dance-single - ----------------
#NOTES:
     dance-single:
     :
     Challenge:
     19:
     1.302174,1.929691,0.648193,0.964187,0.263328,1125.000000,1045.000000,80.000000,119.000000,0.000000,0.000000,1.302174,1.929691,0.648193,0.964187,0.263328,1125.000000,1045.000000,80.000000,119.000000,0.000000,0.000000:
// measure 0
0000
0000
0000
0000
,  // measure 1
0000
0000
0000
0000
,  // measure 2
0000
0000
0000
0000
,  // measure 3
0000
0000
0000
0000
,  // measure 4
0000
0000
0000
0000
,  // measure 5
0000
0000
0000
0000
,  // measure 6
0000
0000
0000
0000
,  // measure 7
0000
0000
0000
0000
,  // measure 8
0000
0000
0000
0000
,  // measure 9
0000
0000
0000
0000
,  // measure 10
0101
0000
1100
0000
0010
1000
0000
0010
,  // measure 11
1000
0000
0110
0000
0001
0100
0000
0001
,  // measure 12
0200
0300
0000
0000
0110
0000
0000
0000
1000
0000
0010
0000
0000
0000
1000
0000
,  // measure 13
0010
0011
0110
1100
,  // measure 14
0220
0330
0000
0000
1001
0000
0000
0000
0100
0000
0010
0000
0000
0000
0100
0000
,  // measure 15
0010
0000
1010
0000
0001
1000
0000
0001
,  // measure 16
2000
3000
0000
0000
0110
0000
0000
0000
0100
0000
0001
0000
0000
0000
0100
0000
,  // measure 17
0001
0010
0100
1000
0001
0010
0100
1000
,  // measure 18
0020
0030
0001
0000
0100
0000
1000
0000
0010
0000
1000
0000
0100
0000
0001
0000
,  // measure 19
1000
0001
0100
0010
1000
0100
0001
1000
,  // measure 20
0002
0003
0100
0000
1000
0000
0010
0000
0100
0000
1000
0000
0100
0000
0001
0000
,  // measure 21
1000
0001
1000
0001
0010
0100
1000
0001
,  // measure 22
2000
3000
0001
0000
0100
0000
0010
0000
1000
0000
0100
0000
0001
0000
1000
0000
,  // measure 23
0001
1000
0001
1000
0100
1000
0100
0001
,  // measure 24
2000
3000
0001
0000
1000
0000
0010
0000
0001
0000
0100
0000
1000
0000
0100
0000
,  // measure 25
1000
0001
1000
0001
0010
0001
0100
0001
,  // measure 26
2000
3000
0010
0000
1000
0000
0100
0000
0001
0000
1000
0000
0001
0000
1000
0000
,  // measure 27
0010
0001
0100
1000
0010
1000
0001
0100
,  // measure 28
0002
0003
0100
0000
1000
0000
0010
0000
1000
0000
0100
0000
0001
0000
1000
0000
,  // measure 29
0001
0100
1000
0010
0100
0001
1000
0001
,  // measure 30
0200
0300
1000
0000
0010
0000
1000
0000
0001
0000
0100
0000
0001
0000
1000
0000
,  // measure 31
0001
0100
1000
0100
0001
1000
0001
0010
,  // measure 32
0200
0300
1000
0000
0001
0000
0010
0000
0001
0000
1000
0000
0100
0000
1000
0000
,  // measure 33
0010
0100
0010
0100
0010
0100
0010
0100
,  // measure 34
0220
0330
1000
0000
0001
0000
0100
0000
1000
0000
0010
0000
0100
0000
1000
0000
,  // measure 35
0100
0001
1000
0001
1000
0010
1000
0010
,  // measure 36
0002
0003
0100
0000
1000
0000
0001
0000
0100
0000
0001
0000
1000
0000
0010
0000
,  // measure 37
1000
0100
0001
1000
0001
1000
0100
1000
,  // measure 38
0020
0030
1000
0000
0100
0000
0001
0000
1000
0000
0001
0000
0010
0000
0001
0000
,  // measure 39
0010
0001
0100
1000
0001
0100
1000
0010
,  // measure 40
0200
0300
0010
0000
1000
0000
0001
0000
0100
0000
0001
0000
1000
0000
0100
0000
,  // measure 41
1000
0001
0100
0001
1000
0100
0001
0010
,  // measure 42
2000
3000
0001
0000
1000
0000
0001
0000
0100
0000
1000
0000
0010
0000
0100
0000
,  // measure 43
0010
1000
0001
0100
0001
1000
0100
0001
,  // measure 44
2000
3000
0001
0000
0100
0000
1000
0000
0010
0000
1000
0000
0001
0000
0100
0000
,  // measure 45
0001
0010
1000
0100
0001
1000
0001
1000
,  // measure 46
0200
0000
0000
0000
0301
0010
1000
0100
,  // measure 47
0001
1000
0010
0100
0001
1000
0010
1000
,  // measure 48
0200
0300
0010
0000
0100
0000
0010
0000
0100
0000
0010
0000
0100
0000
0010
0000
,  // measure 49
0100
0001
1000
0001
1000
0001
1000
0001
,  // measure 50
2000
3000
0100
0000
1000
0000
0001
0000
0100
0000
0010
0000
0001
0000
0100
0000
,  // measure 51
1000
0100
1000
0001
0010
0100
0010
1000
,  // measure 52
0200
0300
0001
0000
1000
0000
0001
0000
1000
0000
0010
0000
1000
0000
0010
0000
,  // measure 53
0001
0100
1001
0000
1001
0000
1001
0000
,  // measure 54
2002
3003
0010
0000
0100
0000
1000
0000
0001
0000
0100
0000
1000
0000
0010
0000
,  // measure 55
1000
0100
0001
0010
0001
0100
1000
0001
,  // measure 56
2000
3000
0010
0000
1000
0000
0100
0000
0001
0000
0010
0000
0001
0000
1000
0000
,  // measure 57
0100
1000
0110
0000
0110
0000
0110
0000
,  // measure 58
0220
0330
0001
0000
0100
0000
0001
0000
1000
0000
0010
0000
1000
0000
0100
0000
,  // measure 59
0001
0010
1100
0000
1100
0000
1100
0000
,  // measure 60
2200
3300
0010
0000
0100
0000
1000
0000
0100
0000
0001
0000
1000
0000
0001
0000
,  // measure 61
1000
0100
0011
0000
0011
0000
0011
0000
,  // measure 62
0022
0033
0100
0000
0010
0000
0100
0000
0010
0000
0100
0000
1010
0000
0000
0000
,  // measure 63
0101
0010
1000
0010
1000
0010
0101
0000
,  // measure 64
2020
3030
0100
0000
0001
0000
0100
0000
0001
0000
0100
0000
0001
0000
0100
0000
,  // measure 65
1000
0001
1000
0001
1000
0001
1000
0001
,  // measure 66
0220
0330
0010
0000
1000
0001
0000
1000
0001
0000
0010
0000
0001
0100
0000
0001
,  // measure 67
0200
0300
1000
0000
0010
0100
0000
0010
0100
0000
0001
0000
1000
0000
0000
0000
,  // measure 68
0022
0033
0100
0000
0010
1000
0000
0010
1000
0000
0001
0000
0100
0010
0000
0100
,  // measure 69
0020
0030
1000
0000
0001
0100
0000
0001
0100
0000
0010
0000
1000
0000
0000
0000
,  // measure 70
0220
0330
1000
0000
0110
0001
0000
0100
1001
0000
0010
0000
0110
1000
0000
0100
,  // measure 71
2002
3003
0001
0000
1100
0010
0000
0100
0110
0000
1000
0000
0011
0000
0100
0000
,  // measure 72
2020
3030
0000
0001
1000
0000
0000
0010
0100
0000
0000
0001
0100
0000
0010
0000
,  // measure 73
2000
3100
0010
0001
1000
0100
0010
0001
1000
0100
0010
0001
1000
0100
0010
0001
,  // measure 74
2200
3300
0010
0000
1000
0000
0100
0000
0010
0000
1000
0000
0001
0000
1000
0000
,  // measure 75
0001
0100
1000
0100
0010
0001
1000
0001
,  // measure 76
2000
3000
0001
0000
0100
0000
1000
0000
0100
0000
0010
0000
0100
0000
0001
0000
,  // measure 77
1000
0001
1000
0100
0001
0010
0100
0001
,  // measure 78
2000
3000
0001
0000
0100
0000
1000
0000
0010
0000
0100
0000
1000
0000
0100
0000
,  // measure 79
0010
1000
0001
1000
0001
0100
0001
1000
,  // measure 80
0002
0003
0100
0000
1000
0000
0010
0000
1000
0000
0001
0000
0100
0000
0001
0000
,  // measure 81
1000
0000
0100
0000
0001
0000
0010
0000
0001
0000
1000
0000
0200
0300
0000
0000
,  // measure 82
1001
0100
0010
0001
0010
0100
0001
1000
,  // measure 83
0001
0000
0010
0000
0100
0000
1000
0000
0100
0000
0001
0000
2000
3000
0001
0000
,  // measure 84
0010
0001
0100
1000
0001
1000
0001
1000
,  // measure 85
0010
0000
0100
0000
0001
0000
1000
0000
0001
0000
1000
0000
0020
0030
1000
0000
,  // measure 86
0100
0001
1000
0001
1000
0010
0001
0100
,  // measure 87
1000
0000
0001
0000
1000
0000
0001
0000
1000
0000
0010
0000
0002
0003
1000
0000
,  // measure 88
0100
0010
0100
0010
0100
0010
0100
0010
,  // measure 89
0100
0000
0010
0000
0100
0000
0010
0000
0100
0000
0010
0000
2002
3003
0000
0000
,  // measure 90
0001
1100
0001
0110
,  // measure 91
1000
0000
0000
0000
0110
0000
0000
0000
0001
0000
0000
0000
2200
3300
0000
0000
,  // measure 92
0001
1001
0010
1100
,  // measure 93
0100
0000
0000
0000
0011
0000
0000
0000
1000
0000
0000
0000
0022
0033
0000
0000
,  // measure 94
1000
1010
0100
1010
,  // measure 95
1000
0000
0010
0000
1000
0000
0010
0000
1000
0000
0010
0000
2002
3003
0000
0000
,  // measure 96
0100
0011
1000
0011
,  // measure 97
1000
0000
0000
0000
0101
0000
0000
0000
1000
0000
0000
0000
0220
0330
0000
0000
,  // measure 98
1000
0101
0001
1010
,  // measure 99
0010
0000
0000
0000
1100
0000
0000
0000
0010
0000
0000
0000
2200
3300
0000
0000
,  // measure 100
0001
0000
0110
0000
0001
0100
0001
0100
,  // measure 101
0001
0000
0100
0000
0001
0000
0100
0000
0001
0000
0100
0000
0002
0003
1000
0000
,  // measure 102
0010
0000
0001
1000
0010
0000
0001
1000
,  // measure 103
0100
0000
0000
0000
0001
0000
1000
0000
0100
0000
0000
0000
0020
0030
1000
0000
,  // measure 104
0100
0000
0010
1000
0100
0000
0001
0100
,  // measure 105
1000
0000
0000
0000
0001
0000
0100
0000
1000
0000
0000
0000
0002
0003
0010
0000
,  // measure 106
1000
0000
0001
0010
1000
0000
0100
0001
,  // measure 107
0100
0000
0000
0000
1000
0000
0100
0000
0010
0000
0001
0000
0020
0030
0100
0000
,  // measure 108
1000
0100
0010
0001
0010
0000
0010
0001
,  // measure 109
0010
0000
0000
0000
1000
0000
0100
0000
1000
0000
0000
0000
2000
3000
0100
0000
,  // measure 110
1000
0000
0001
1000
0001
0000
0001
1000
,  // measure 111
0001
0000
0000
0000
0100
0000
0010
0000
0100
0000
0000
0000
0200
0300
0010
0000
,  // measure 112
0100
0000
1000
0010
0001
0000
1000
0010
,  // measure 113
0001
0000
0100
1000
0010
0000
0002
0100
,  // measure 114
0010
0100
0000
0010
0100
0000
1000
0000
0010
0100
0000
1000
0100
0000
0010
0000
,  // measure 115
0100
1000
0000
0100
1000
0000
0100
0000
1000
0000
0000
0000
0023
0000
0100
0000
,  // measure 116
1000
0001
0000
1000
0001
0000
0001
0000
0100
1000
0000
0100
1000
0000
0001
0000
,  // measure 117
1000
0100
0000
1000
0100
0000
1000
0000
0001
0000
0000
0000
0230
0000
0010
0000
,  // measure 118
0001
0010
0000
0001
0010
0000
0001
0000
1000
0010
0000
1000
0010
0000
0010
0000
,  // measure 119
1000
0001
0000
1000
0001
0000
0010
0000
1000
0000
0000
0000
2300
0000
0001
0000
,  // measure 120
0100
0000
0000
0001
0000
0000
0000
0000
0000
0100
0000
0000
0010
0000
0000
0000
0000
0000
0001
0000
0000
0000
0000
0000
0100
0000
0000
0001
0000
0000
0000
0000
0000
0100
0000
0000
0010
0000
0000
0000
0100
0000
0000
0000
0010
0000
0000
0000
,  // measure 121
0100
0010
0100
0010
0100
0010
0002
0000
0000
0000
0000
0000
,  // measure 122
0000
0000
0000
0000
,  // measure 123
0000
0000
0000
0000
,  // measure 124
0000
0000
0000
0000
,  // measure 125
0000
0000
0000
0000
,  // measure 126
0000
0000
0000
0000
,  // measure 127
0000
0000
0000
0000
,  // measure 128
0000
0000
0000
0000
,  // measure 129
0000
0000
0000
0000
3003
0000
1000
0001
,  // measure 130
0100
1000
0010
1000
0100
0001
1000
0001
,  // measure 131
0100
0000
0010
0000
1000
0000
0100
0000
0001
0000
1000
0000
0002
0003
0100
0000
,  // measure 132
1000
0010
0100
1000
0100
0001
1000
0001
,  // measure 133
1000
0000
0001
0000
0010
0000
0100
0000
1000
0000
0001
0000
2000
3000
0001
0000
,  // measure 134
0100
0010
1000
0100
0001
1000
0001
1000
,  // measure 135
0001
0000
1000
0000
0100
0000
1000
0000
0100
0000
0001
0000
2000
3000
0001
0000
,  // measure 136
1000
0010
0001
0100
1000
0100
1000
0001
,  // measure 137
1000
0000
0001
0000
0010
0000
0001
0000
0100
0000
0001
0000
2000
3000
0010
0000
,  // measure 138
1000
0100
0001
1000
0001
1000
0010
0001
,  // measure 139
0100
0000
1000
0000
0010
0000
1000
0000
0001
0000
0100
0000
0002
0003
0100
0000
,  // measure 140
1000
0010
1000
0100
0001
1000
0001
0100
,  // measure 141
1000
0000
0010
0000
0100
0000
0001
0000
1000
0000
0001
0000
0200
0300
1000
0000
,  // measure 142
0010
1000
0001
0100
0001
1000
0001
0100
,  // measure 143
1000
0000
0100
0000
0001
0000
1000
0000
0001
0000
0010
0000
0200
0300
1000
0000
,  // measure 144
0001
0010
0001
1000
0100
1000
0001
1000
,  // measure 145
0001
0000
1000
0000
0001
0000
1000
0000
0001
0000
0110
0000
2000
3000
0001
0000
,  // measure 146
0100
0010
1000
0001
0100
0010
1000
0202
,  // measure 147
0000
0000
0303
0000
0202
0000
0000
0000
0303
0000
0010
0000
2000
3000
0100
0000
,  // measure 148
0001
0010
1000
0100
0001
0010
1000
2020
,  // measure 149
0000
0000
3030
0000
2020
0000
0000
0000
3030
0000
0001
0000
0200
0300
1000
0000
,  // measure 150
0001
0100
1000
0001
0010
1000
0001
0010
,  // measure 151
1000
0000
0100
0000
0001
0000
0010
0000
0100
0000
0001
0000
0020
0030
0100
0000
,  // measure 152
1000
0100
0010
0001
0010
0100
1000
2002
,  // measure 153
0000
0000
3003
0000
2002
0000
0000
0000
3003
0000
0100
0000
2000
3000
0100
0000
,  // measure 154
0001
1000
0001
1000
0010
0001
1000
0220
,  // measure 155
0000
0000
0330
0000
0220
0000
0000
0000
0330
0000
1000
0000
0002
0003
1000
0000
,  // measure 156
0001
1000
0010
0001
0100
0001
1000
0202
,  // measure 157
0000
0000
0303
0000
0202
0000
0000
0000
0303
0000
0010
0000
2000
3000
0010
0000
,  // measure 158
1000
0100
0001
1000
0001
1000
0010
2002
,  // measure 159
0000
0000
0000
3003
0000
0000
2002
0000
0000
0000
0000
0000
3003
0000
0000
0000
0000
0000
0001
0000
0000
0000
0001
0000
,  // measure 160
0000
0001
0000
0000
0000
0000
1000
0000
1000
0000
1000
0000
,  // measure 161
0000
0000
0000
0010
0000
0010
0000
0010
0000
0100
0000
0100
,  // measure 162
0000
0100
0000
2002
0000
0000
0000
0000
0000
0000
0000
0000
,  // measure 163
0000
0000
0000
0000
,  // measure 164
0000
3003
0000
0000
;

//---------------dance-single - ----------------
#NOTES:
     dance-single:
     Notes only:
     Hard:
     19:
     1.157488,1.709002,0.000000,0.000000,0.636040,1000.000000,1000.000000,0.000000,0.000000,0.000000,0.000000,1.157488,1.709002,0.000000,0.000000,0.636040,1000.000000,1000.000000,0.000000,0.000000,0.000000,0.000000:
// measure 0
0000
0000
0000
0000
,  // measure 1
0000
0000
0000
0000
,  // measure 2
0000
0000
0000
0000
,  // measure 3
0000
0000
0000
0000
,  // measure 4
0000
0000
0000
0000
,  // measure 5
0000
0000
0000
0000
,  // measure 6
0000
0000
0000
0000
,  // measure 7
0000
0000
0000
0000
,  // measure 8
0000
0000
0000
0000
,  // measure 9
0000
0000
0000
0000
,  // measure 10
0000
0000
0000
0000
,  // measure 11
0000
0000
0000
0000
,  // measure 12
0000
0000
0000
0000
,  // measure 13
0000
0000
0000
0000
,  // measure 14
0000
0000
0000
0000
,  // measure 15
0000
0000
0000
0000
,  // measure 16
0000
0000
0000
0000
,  // measure 17
0000
0000
0000
0000
,  // measure 18
0001
0000
0010
0000
0100
0000
1000
0000
0000
0001
0000
0000
0010
0000
0000
0100
0000
0000
1000
0000
0000
0001
0000
0000
,  // measure 19
0010
0100
0010
0001
0010
0100
1000
0000
,  // measure 20
0001
0000
0100
0000
0010
0000
1000
0000
0000
0001
0000
0000
0100
0000
0000
0010
0000
0000
1000
0000
0000
0001
0000
0000
,  // measure 21
0100
0010
0100
0001
0100
0010
1000
0000
,  // measure 22
0010
1000
0010
1000
0001
0100
0001
0100
,  // measure 23
0001
0010
0100
1000
0001
1000
0100
0000
,  // measure 24
1000
0100
1000
0000
0001
0100
0001
0000
,  // measure 25
0100
0000
0001
0000
0100
0000
0001
0000
0000
1000
0000
0000
0100
0000
1000
0000
0100
0000
1000
0000
0000
0001
0000
0000
,  // measure 26
0010
0001
1000
0100
1000
0001
0010
0100
,  // measure 27
0010
0000
0000
0001
0000
0000
1000
0000
0000
0010
0000
0000
0100
0000
0001
0000
0100
0000
0001
0000
0000
0000
0000
0000
,  // measure 28
1000
0100
0010
0100
1000
0001
0010
0100
,  // measure 29
0010
0000
0000
0001
0000
0000
1000
0000
0000
0010
0000
0000
0100
0000
0001
0000
0100
0000
0001
0000
0000
0000
0000
0000
,  // measure 30
1000
0100
0010
0000
0001
0100
0001
0000
,  // measure 31
1000
0010
0100
0000
0010
1000
0010
0000
,  // measure 32
1000
0010
0100
0001
1000
0100
0010
0001
,  // measure 33
1000
0000
0000
0010
0000
0000
1000
0000
0000
0100
0000
0000
1000
0000
0100
0000
1000
0000
0100
0000
1000
0000
0001
0000
,  // measure 34
1000
0010
0100
0001
0100
0001
1000
0010
,  // measure 35
1000
0001
0010
0100
0010
0001
1000
0000
,  // measure 36
0010
1000
0001
0010
0100
1000
0001
0100
,  // measure 37
0010
0100
0001
1000
0100
1000
0001
0000
,  // measure 38
1000
0100
1000
0001
0100
0010
1000
0001
,  // measure 39
0010
0100
0010
0001
1000
0010
0100
0001
,  // measure 40
1000
0010
0100
0000
0001
0010
0100
0000
,  // measure 41
1000
0001
0100
0000
0010
1000
0001
0000
,  // measure 42
1000
0001
0010
0100
1000
0001
0100
0010
,  // measure 43
1000
0010
0001
0010
,  // measure 44
0100
0001
1000
0100
0010
0100
1000
0001
,  // measure 45
0010
0001
0100
0001
,  // measure 46
0010
0000
0000
0000
0001
1000
0010
0100
,  // measure 47
0001
1000
0100
0010
0001
0010
0100
1000
,  // measure 48
0001
0100
0010
0000
1000
0100
0010
0000
,  // measure 49
0100
0010
0001
0000
0100
0010
1000
0000
,  // measure 50
0010
1000
0010
1000
0001
0010
0001
0010
,  // measure 51
0100
1000
0100
1000
0001
0100
0001
0100
,  // measure 52
0010
1000
0100
0010
0001
0100
0010
1000
,  // measure 53
0010
0010
0001
0001
,  // measure 54
0100
0001
0100
0001
1000
0100
1000
0100
,  // measure 55
0010
0001
0010
0001
1000
0010
1000
0010
,  // measure 56
0100
0001
0010
0100
1000
0010
0100
0001
,  // measure 57
0100
0001
0100
0001
,  // measure 58
0001
0000
0010
0000
0001
0000
0010
0000
0000
0100
0000
0000
1000
0000
0000
0001
0000
0000
0100
0000
0000
0010
0000
0000
,  // measure 59
1000
0001
0010
0010
,  // measure 60
1000
0000
0010
0000
1000
0000
0010
0000
0000
0100
0000
0000
0001
0000
0000
1000
0000
0000
0100
0000
0000
0010
0000
0000
,  // measure 61
0100
0100
0010
0001
,  // measure 62
0001
0000
0010
0000
0001
0000
0010
0000
0000
0001
0000
0000
0010
0000
0000
0000
0000
0000
0100
0000
0000
0000
0000
0000
,  // measure 63
1000
0000
0010
0000
1000
0000
0010
0000
0000
1000
0000
0000
0010
0000
0000
0000
0000
0000
0001
0000
0000
0000
0000
0000
,  // measure 64
0001
0010
0100
1000
0010
0100
0001
1000
,  // measure 65
0100
0010
0001
0100
0010
1000
0001
0010
,  // measure 66
0100
1000
0001
0000
0100
0010
1000
0001
0010
0100
1000
0000
0010
0100
0010
1000
,  // measure 67
0001
0010
0100
0000
1000
0001
0010
0100
1000
0000
0001
0000
0010
0000
0001
0000
,  // measure 68
0010
0001
1000
0000
0010
0100
0001
1000
0100
0010
0001
0000
0100
0010
0100
0001
,  // measure 69
1000
0100
0010
0000
0001
1000
0100
0010
0001
0000
1000
0000
0010
0000
0001
0000
,  // measure 70
0010
0000
0001
0000
0100
0001
0100
0001
0010
0000
0100
0000
0100
1000
0100
1000
,  // measure 71
0010
0000
0001
0000
0010
0100
0010
0100
0010
0000
0100
0000
0001
0000
0000
0000
,  // measure 72
0100
0000
0000
0100
0010
0000
0000
0010
0001
0000
1000
0000
0001
0000
1000
0000
,  // measure 73
0001
0000
0000
0000
,  // measure 74
0001
0000
0010
0000
0100
0000
1000
0000
0000
0000
0000
0000
1000
0000
0000
0001
0000
0000
0000
0000
0000
0001
0000
0000
,  // measure 75
1000
0000
0100
0000
0010
0000
0001
0000
0000
0000
0000
0000
1000
0000
0000
0001
0000
0000
0000
0000
0000
0001
0000
0000
,  // measure 76
1000
0000
0100
0000
1000
0000
0001
0000
0000
0000
0000
0000
0010
0000
0000
0100
0000
0000
0000
0000
0000
0100
0000
0000
,  // measure 77
0010
0000
0001
0000
0010
0000
0001
0000
0000
0100
0000
0000
0010
0000
0000
1000
0000
0000
0001
0000
0000
0000
0000
0000
,  // measure 78
1000
0000
0100
0000
0010
0000
0001
0000
0000
0000
0000
0000
0001
0000
0000
1000
0000
0000
0000
0000
0000
1000
0000
0000
,  // measure 79
0001
0000
0010
0000
0100
0000
1000
0000
0000
0000
0000
0000
0001
0000
0000
1000
0000
0000
0000
0000
0000
1000
0000
0000
,  // measure 80
0001
0000
0010
0000
0001
0000
1000
0000
0000
0000
0000
0000
0100
0000
0000
0010
0000
0000
0000
0000
0000
0010
0000
0000
,  // measure 81
0100
0000
1000
0000
0100
0000
1000
0000
0000
0010
0000
0000
0100
0000
0000
0001
0000
0000
1000
0000
0000
0000
0000
0000
,  // measure 82
0001
0000
1000
0010
0100
0000
0001
0100
,  // measure 83
0010
1000
0010
0100
0001
0000
0010
0001
,  // measure 84
1000
0100
0010
0001
0100
0010
1000
0001
,  // measure 85
0100
0010
1000
0001
0100
0000
0001
0100
,  // measure 86
0010
0000
1000
0001
0100
0000
0010
1000
,  // measure 87
0001
0010
0100
1000
0010
0000
0100
0001
,  // measure 88
1000
0000
0100
1000
0001
0000
1000
0100
,  // measure 89
0010
0001
0010
0100
1000
0001
1000
0000
,  // measure 90
0100
0010
0001
0010
,  // measure 91
0010
0001
0001
0100
,  // measure 92
0001
1000
0010
1000
,  // measure 93
1000
0100
0100
0010
,  // measure 94
0100
1000
0010
0100
,  // measure 95
0100
0001
0001
0001
,  // measure 96
0010
0000
0001
0010
0100
0010
0001
0000
,  // measure 97
1000
0000
0010
1000
0001
1000
0010
0000
,  // measure 98
0100
0000
0001
1000
0100
1000
0001
0000
,  // measure 99
0010
0000
0100
1000
0001
1000
0100
0000
,  // measure 100
0010
0001
0010
0000
0001
0010
0100
1000
,  // measure 101
0001
0010
0100
1000
0001
0000
1000
0100
,  // measure 102
0010
0000
0010
0001
0100
0000
0100
0001
,  // measure 103
0010
0000
0010
0100
1000
0000
1000
0001
,  // measure 104
0100
0000
0100
0010
1000
0000
1000
0001
,  // measure 105
0010
0000
0010
0100
1000
0000
1000
0010
,  // measure 106
0100
0000
0100
0010
1000
0000
0100
1000
,  // measure 107
0100
0010
0001
0100
0010
1000
0100
0010
,  // measure 108
0001
0000
0001
0100
0010
0000
0010
1000
,  // measure 109
0001
0000
0001
0010
0100
0000
0100
1000
,  // measure 110
0001
0000
0001
1000
0010
0000
0010
1000
,  // measure 111
0100
0000
0100
1000
0001
0000
0001
0010
,  // measure 112
0100
0000
0100
1000
0010
0000
0010
0100
,  // measure 113
0001
0000
0001
0000
0000
0000
0001
0100
,  // measure 114
0010
1000
0000
0010
1000
0000
0100
0000
0010
0001
0000
0010
0001
0000
1000
0000
,  // measure 115
0001
0100
0000
0010
1000
0000
0001
0000
0001
0000
0000
0000
1000
0000
0100
0000
,  // measure 116
0010
0001
0000
0010
0001
0000
0100
0000
0010
1000
0000
0010
1000
0000
0001
0000
,  // measure 117
1000
0100
0000
0010
0001
0000
1000
0000
1000
0000
0000
0000
0001
0000
0010
0000
,  // measure 118
0100
1000
0000
1000
0001
0000
0100
0000
0001
0010
0000
0010
0100
0000
1000
0000
,  // measure 119
0001
0100
0000
0100
0010
0000
1000
0000
1000
0000
0000
0000
0001
0000
1000
0100
,  // measure 120
0010
0000
0000
0001
0000
0000
0100
0000
0000
0010
0000
0000
1000
0000
0000
0000
0000
0000
0001
0000
0000
0010
0000
0000
0100
0000
0000
1000
0000
0000
0010
0000
0000
0100
0000
0000
0001
0000
0000
0000
0010
0000
0000
0000
0100
0000
0000
0000
,  // measure 121
1000
0100
0010
0001
0000
0000
0001
0000
0000
0000
0000
0000
,  // measure 122
0000
0000
0000
0000
,  // measure 123
0000
0000
0000
0000
,  // measure 124
0000
0000
0000
0000
,  // measure 125
0000
0000
0000
0000
,  // measure 126
0000
0000
0000
0000
,  // measure 127
0000
0000
0000
0000
,  // measure 128
0000
0000
0000
0000
,  // measure 129
0000
0000
0000
0000
0000
0000
0000
0000
0000
0001
1000
0100
,  // measure 130
1000
0000
0000
0010
0000
0000
0100
0000
0000
0010
0000
0000
0100
0000
0000
0001
0000
0000
0100
0000
0001
0000
0010
0000
,  // measure 131
0100
0000
0000
0010
0000
0000
0100
0000
0000
1000
0000
0000
0010
0000
0000
1000
0000
0000
0010
0000
1000
0000
0100
0000
,  // measure 132
1000
0000
0000
0100
0000
0000
1000
0000
0000
0001
0000
0000
0100
0000
0000
0001
0000
0000
0100
0000
0001
0000
1000
0000
,  // measure 133
0100
0000
0000
1000
0000
0000
0010
0000
0000
0100
0000
0000
0001
0000
0000
1000
0000
0000
0100
0000
0010
0000
0001
0000
,  // measure 134
1000
0000
0000
0100
0000
0000
1000
0000
0000
0001
0000
0000
0100
0000
0000
0010
0000
0000
1000
0000
0001
0000
1000
0000
,  // measure 135
0010
0000
0000
0100
0000
0000
0010
0000
0000
0100
0000
0000
0001
0000
0000
1000
0000
0000
0001
0000
0100
0000
0010
0000
,  // measure 136
1000
0000
0000
0010
0000
0000
1000
0000
0100
0000
0010
0000
0001
0000
0000
0010
0000
0000
0001
0000
1000
0000
0001
0000
,  // measure 137
0100
0000
0000
0010
0000
0000
1000
0000
0001
0000
1000
0000
0100
0000
0000
1000
0000
0000
0001
0000
0100
0000
0001
0000
,  // measure 138
1000
0000
0000
0010
0000
0000
0100
0000
0000
0001
0000
0000
0010
0000
0000
0100
0000
0000
1000
0000
0001
0000
0010
0000
,  // measure 139
0100
0000
0000
1000
0000
0000
0010
0000
0000
0100
0000
0000
0001
0000
0000
0100
0000
0000
0010
0000
1000
0000
0001
0000
,  // measure 140
0010
0000
0000
0100
0000
0000
1000
0000
0000
0001
0000
0000
0100
0000
0000
0010
0000
0000
1000
0000
0001
0000
0010
0000
,  // measure 141
0100
0000
0000
1000
0000
0000
0010
0000
0000
1000
0000
0000
0100
0000
0000
0010
0000
0000
0100
0000
1000
0000
0001
0000
,  // measure 142
0100
0000
0000
0001
0000
0000
1000
0000
0100
0000
1000
0000
0100
0000
0000
0010
0000
0000
0001
0000
0010
0000
0001
0000
,  // measure 143
0100
0000
0000
0010
0000
0000
1000
0000
0100
0000
1000
0000
0001
0000
0000
0010
0000
0000
0100
0000
1000
0000
0010
0000
,  // measure 144
1000
0000
0000
0001
0000
0000
0100
0000
0001
0000
0100
0000
0010
0000
0000
1000
0000
0000
0010
0000
0100
0000
0001
0000
,  // measure 145
1000
0000
0000
0000
0000
0000
0100
0000
0000
0000
0000
0000
0010
0000
0000
0000
0001
0000
0000
0000
1000
0000
0000
0000
0100
0000
0000
0000
0000
0000
0010
0000
0000
0000
0000
0000
0001
0000
0000
1000
0000
0000
0001
0000
0000
0000
0000
0000
,  // measure 146
0100
0001
1000
0100
0010
0001
1000
0000
,  // measure 147
0010
0000
0000
0000
0000
0000
0010
0000
0000
0000
0000
0000
0100
0001
0100
0000
,  // measure 148
0010
1000
0001
1000
0100
0010
0001
0000
,  // measure 149
1000
0000
0000
0000
0000
0000
0001
0000
0000
0000
0000
0000
0001
0010
0100
0000
,  // measure 150
1000
0000
0001
0000
0010
0000
0100
0000
0010
0000
0001
0000
1000
0010
0100
0000
,  // measure 151
0001
0000
1000
0000
0010
0000
0100
0000
0001
0000
0100
0000
0001
1000
0100
0000
,  // measure 152
0010
0001
1000
0100
1000
0001
1000
0000
,  // measure 153
0001
0000
0000
0000
0000
0000
0001
0000
0000
0000
0000
0000
1000
0001
0010
0000
,  // measure 154
0100
0010
0001
1000
0100
0010
0100
0000
,  // measure 155
1000
0000
0000
0000
0000
0000
0001
0000
0000
0000
0000
0000
0001
0100
0010
0000
,  // measure 156
1000
0001
0100
0010
1000
0010
0100
0000
,  // measure 157
0001
0000
0000
0000
0000
0000
0001
0000
0000
0000
0000
0000
0010
0100
1000
0000
,  // measure 158
0001
0010
0001
1000
0100
0010
0001
0000
,  // measure 159
1000
0000
0000
0000
0000
0000
0000
0000
0000
0100
0000
0000
0000
0000
0000
0000
0000
0000
0001
0000
0000
0000
0001
0000
,  // measure 160
0000
0001
0000
0000
0000
0000
1000
0000
1000
0000
1000
0000
,  // measure 161
0000
0001
0100
0010
0000
0010
0000
0010
1000
0100
0000
0100
,  // measure 162
0000
0100
0000
0001
0000
0000
0000
0000
0000
0000
0000
0000
;

//---------------dance-single - ----------------
#NOTES:
     dance-single:
     :
     Medium:
     18:
     0.925990,1.596986,0.153946,0.032410,0.093178,800.000000,781.000000,19.000000,4.000000,0.000000,0.000000,0.925990,1.596986,0.153946,0.032410,0.093178,800.000000,781.000000,19.000000,4.000000,0.000000,0.000000:
// measure 0
0000
0000
0000
0000
,  // measure 1
0000
0000
0000
0000
,  // measure 2
0000
0000
0000
0000
,  // measure 3
0000
0000
0000
0000
,  // measure 4
0000
0000
0000
0000
,  // measure 5
0000
0000
0000
0000
,  // measure 6
0000
0000
0000
0000
,  // measure 7
0000
0000
0000
0000
,  // measure 8
0000
0000
0000
0000
,  // measure 9
0000
0000
0000
0000
,  // measure 10
0001
0000
0100
0000
0001
0010
0100
0000
,  // measure 11
0010
0000
1000
0000
0010
0001
1000
0000
,  // measure 12
0010
0000
1000
0000
0100
0001
1000
0000
,  // measure 13
0010
0100
0001
0000
,  // measure 14
1000
0000
0010
0001
0100
1000
0001
0100
,  // measure 15
0010
0000
0100
0001
1000
0100
0010
1000
,  // measure 16
0001
1000
0100
0000
0010
0001
0100
0000
,  // measure 17
1000
0010
0001
1000
0010
0001
0100
1000
,  // measure 18
0010
0001
0100
0000
1000
0000
0100
0000
,  // measure 19
1000
0001
0100
0010
,  // measure 20
0100
0010
1000
0000
0001
0000
0010
0000
,  // measure 21
0001
1000
0010
0100
,  // measure 22
1000
0001
0100
0000
1000
0000
0001
0000
,  // measure 23
0010
0100
1000
0001
,  // measure 24
0100
1000
0010
0000
0100
0001
1000
0000
,  // measure 25
0100
0001
0010
0000
0001
0100
1000
0000
,  // measure 26
0001
1000
0100
0000
1000
0000
0100
0000
,  // measure 27
1000
0001
0100
0010
,  // measure 28
0100
0001
1000
0000
0001
0000
1000
0000
,  // measure 29
0010
0010
0100
1000
,  // measure 30
0100
0010
1000
0000
0001
0000
0010
0000
,  // measure 31
1000
0010
0100
0001
,  // measure 32
1000
0100
0010
0000
0100
0000
1000
0000
,  // measure 33
0001
0000
1000
0000
0010
0001
0100
0001
,  // measure 34
0010
0100
1000
0000
0100
0000
0001
0000
,  // measure 35
1000
0100
1000
0100
,  // measure 36
1000
0001
0010
0000
0001
0000
0010
0000
,  // measure 37
1000
0001
1000
0100
,  // measure 38
1000
0001
0010
0000
1000
0000
1000
0000
,  // measure 39
0001
0100
1000
0010
,  // measure 40
0010
1000
0100
0000
1000
0000
0100
0000
,  // measure 41
1000
0000
0100
0000
1000
0010
1000
0010
,  // measure 42
0001
0100
1000
0000
0010
0000
0100
0000
,  // measure 43
0001
1000
0100
0010
,  // measure 44
0100
0010
1000
0000
0001
0000
0010
0000
,  // measure 45
1000
0100
1000
0100
,  // measure 46
0020
1000
0031
1000
,  // measure 47
0100
0010
0100
0001
,  // measure 48
1000
0010
0100
0000
0010
0000
0100
0001
,  // measure 49
1000
0001
0100
0001
0010
0001
1000
0000
,  // measure 50
0001
1000
0010
0000
0001
0000
1000
0000
,  // measure 51
0100
1000
0100
0010
,  // measure 52
0001
1000
0100
0010
,  // measure 53
0100
0011
0011
0011
,  // measure 54
0010
0100
1000
0000
0010
0000
0001
0000
,  // measure 55
0010
0001
1000
0100
,  // measure 56
0010
0100
0001
0010
,  // measure 57
0100
1100
1100
1100
,  // measure 58
1000
0010
0001
0000
1000
0000
0100
0000
,  // measure 59
0010
1001
1001
1001
,  // measure 60
1000
0001
0100
0000
0010
0000
0100
0000
,  // measure 61
0001
1010
1010
1010
,  // measure 62
0100
0001
0010
0000
1000
0000
0101
0000
,  // measure 63
0011
0001
1000
0110
,  // measure 64
0110
0000
0100
0010
1000
0000
0100
0000
,  // measure 65
0010
0100
0001
0100
1000
0010
0100
0010
,  // measure 66
0001
0100
0001
0100
0010
0001
0010
0001
,  // measure 67
1000
0010
1000
0010
0100
1000
0010
0000
,  // measure 68
0001
0010
0001
0010
0100
0001
0100
0001
,  // measure 69
1000
0100
1000
0100
0001
1000
0001
0000
,  // measure 70
0001
0100
1000
0100
1000
0001
0010
0100
,  // measure 71
1000
0100
1000
0001
0100
0010
0100
0010
,  // measure 72
0001
0000
0000
1000
0100
0000
0000
0001
1000
0000
0010
0000
0100
0000
0001
0000
,  // measure 73
1000
0100
0010
0001
0010
0100
1000
0100
0010
0001
0010
0100
1000
0100
0010
0000
,  // measure 74
0001
1000
0100
0000
1000
0000
0100
0000
,  // measure 75
0010
0100
0001
0000
1000
0000
0010
0000
,  // measure 76
0100
0001
1000
0000
0100
0000
0010
0000
,  // measure 77
1000
0010
0001
0000
0010
0000
0001
0000
,  // measure 78
1000
0001
0100
0000
0010
0000
0100
0000
,  // measure 79
1000
0001
0100
0000
0010
0000
1000
0000
,  // measure 80
0001
0100
0010
0000
1000
0000
0100
0000
,  // measure 81
1000
0010
0100
0000
1000
0000
0010
0000
,  // measure 82
0011
1000
0100
1000
,  // measure 83
0100
1000
0010
0000
1000
0000
0001
0000
,  // measure 84
1000
0001
0010
0000
1000
0000
0100
0000
,  // measure 85
0010
1000
0100
0000
0001
0000
1000
0000
,  // measure 86
0100
0001
0010
0000
0100
0000
1000
0000
,  // measure 87
0100
0010
1000
0001
,  // measure 88
0010
1000
0100
0010
1000
0001
0100
0010
,  // measure 89
1000
0001
0100
1000
0010
0000
1001
0000
,  // measure 90
0010
1000
0010
0100
,  // measure 91
0001
1000
0100
0010
,  // measure 92
0100
1000
0100
0010
,  // measure 93
0001
0010
0001
1000
,  // measure 94
0100
0010
0100
1000
,  // measure 95
1000
0100
0010
0001
1000
0100
0010
0000
,  // measure 96
0001
0100
0010
0100
,  // measure 97
0001
1000
0010
1000
,  // measure 98
0010
0010
1000
0001
,  // measure 99
1000
0100
0010
0100
,  // measure 100
1000
0000
0001
0000
0001
0010
0100
1000
,  // measure 101
0001
0010
0100
1000
0001
0010
0100
1000
,  // measure 102
0100
0000
0100
0001
0100
0000
1000
0010
,  // measure 103
1000
0000
1000
0100
1000
0000
0001
0010
,  // measure 104
0001
0000
0001
1000
0001
0000
0010
0100
,  // measure 105
0010
0000
0010
1000
0010
0000
0100
0001
,  // measure 106
0100
0000
0100
0010
0100
0000
0001
0010
,  // measure 107
0001
1000
0001
0100
0001
0100
0010
0000
,  // measure 108
0000
0000
0010
1000
0100
0000
0010
0100
,  // measure 109
1000
0000
0001
0100
0010
0000
0100
0001
,  // measure 110
1000
0000
0100
0010
1000
0000
0100
1000
,  // measure 111
0010
0000
0100
1000
0001
0000
0010
0001
,  // measure 112
0100
0000
1000
0010
0100
0000
1000
0010
,  // measure 113
0001
0000
0000
0000
0000
0000
0001
0010
,  // measure 114
0001
1000
0100
0010
0001
1000
0100
0010
,  // measure 115
0100
1000
0010
1000
0100
0000
0010
0100
,  // measure 116
0001
1000
0100
1000
0100
0010
1000
0001
,  // measure 117
1000
0100
0010
1000
0001
0000
0010
1000
,  // measure 118
0100
1000
0001
0010
0100
1000
0001
0010
,  // measure 119
0100
1000
0010
1000
0001
0000
0010
0100
,  // measure 120
1000
0000
0000
0100
0000
0000
1000
0000
0000
0001
0000
0000
0010
0000
0000
1000
0000
0000
1000
0000
0010
0000
0001
0000
,  // measure 121
0100
1000
0010
0001
0100
1000
0020
0000
0000
0000
0000
0000
,  // measure 122
0000
0000
0000
0000
,  // measure 123
0000
0000
0000
0000
,  // measure 124
0000
0000
0000
0000
,  // measure 125
0000
0000
0000
0000
,  // measure 126
0000
0000
0000
0000
,  // measure 127
0000
0000
0000
0000
,  // measure 128
0000
0000
0000
0000
,  // measure 129
0000
0000
0000
0000
0030
0000
0010
0100
,  // measure 130
1000
0000
0100
0000
1000
0000
0100
0001
,  // measure 131
1000
0000
0001
0000
0100
0000
0001
1000
,  // measure 132
0100
0000
1000
0000
0001
0000
0001
1000
,  // measure 133
0010
0000
0100
0000
1000
0000
0001
0010
,  // measure 134
1000
0000
0010
0000
0100
0000
1000
0001
,  // measure 135
0100
0000
1000
0000
0001
0000
0100
1000
,  // measure 136
0010
0000
0100
0000
1000
0000
0100
0010
,  // measure 137
1000
0000
0001
0000
0010
0000
0100
0001
,  // measure 138
1000
0000
0100
0000
0001
0000
1000
0100
,  // measure 139
0010
0000
0100
0000
1000
0000
0010
0001
,  // measure 140
1000
0000
0001
0000
0010
0000
0100
0001
,  // measure 141
1000
0000
0001
0000
0010
0000
0001
0010
,  // measure 142
0001
0000
1000
0100
1000
0000
0010
0001
,  // measure 143
0100
0000
1000
0010
0001
0000
0010
0100
,  // measure 144
0010
0000
0100
0001
1000
0000
0001
0100
,  // measure 145
0010
1000
0001
0010
1000
0000
0100
0001
,  // measure 146
1000
0100
0010
0100
1000
0100
0001
0000
,  // measure 147
0000
0000
0000
0000
0000
0000
0001
1000
,  // measure 148
0100
0010
1000
0010
0100
0001
0010
0000
,  // measure 149
0000
0000
0000
0000
0000
0000
0001
0100
,  // measure 150
0001
0100
0001
0100
0001
0100
0010
1000
,  // measure 151
0010
1000
0010
1000
0010
1000
1000
0001
,  // measure 152
1000
0001
1000
0001
1000
0001
0010
0000
,  // measure 153
0000
0000
0000
0000
0000
0000
0100
0001
,  // measure 154
0010
0100
1000
0100
0010
0100
0010
0000
,  // measure 155
0000
0000
0000
0000
0000
0000
0001
0010
,  // measure 156
1000
0100
0010
1000
0100
0010
0001
0000
,  // measure 157
0000
0000
0000
0000
0000
0000
1000
0001
,  // measure 158
0100
1000
0010
0100
0001
0100
0010
0100
,  // measure 159
0000
0000
0000
0000
0000
0000
0000
0000
0000
0001
0000
0001
,  // measure 160
0000
0001
0000
0000
0000
0000
0010
0000
0010
0000
0010
0000
,  // measure 161
0000
0000
0000
1000
0000
1000
0000
1000
0000
0100
0000
0100
,  // measure 162
0000
0100
0000
2200
0000
0000
0000
0000
0000
0000
0000
0000
,  // measure 163
0000
0000
0000
0000
,  // measure 164
0000
3300
0000
0000
;

//---------------dance-single - ----------------
#NOTES:
     dance-single:
     :
     Beginner:
     12:
     0.369239,0.598870,0.089127,0.089127,0.000000,319.000000,308.000000,11.000000,11.000000,0.000000,0.000000,0.369239,0.598870,0.089127,0.089127,0.000000,319.000000,308.000000,11.000000,11.000000,0.000000,0.000000:
// measure 0
0000
0000
0000
0000
,  // measure 1
0000
0000
0000
0000
,  // measure 2
0000
0000
0000
0000
,  // measure 3
0000
0000
0000
0000
,  // measure 4
0000
0000
0000
0000
,  // measure 5
0000
0000
0000
0000
,  // measure 6
0000
0000
0000
0000
,  // measure 7
0000
0000
0000
0000
,  // measure 8
0000
0000
0000
0000
,  // measure 9
0000
0000
0000
0000
,  // measure 10
0000
0000
0000
0000
,  // measure 11
0000
0000
0000
0000
,  // measure 12
0000
0000
0000
0000
,  // measure 13
0000
0000
0000
0000
,  // measure 14
0000
0000
0000
0000
,  // measure 15
0000
0000
0000
0000
,  // measure 16
0000
0000
0000
0000
,  // measure 17
0000
0000
0000
0000
,  // measure 18
0001
0000
0001
0000
,  // measure 19
1000
0000
1000
0000
,  // measure 20
0010
0000
0010
0000
,  // measure 21
0100
0000
0100
0000
,  // measure 22
1000
0000
1000
0000
,  // measure 23
0001
0000
0001
0000
,  // measure 24
0100
0000
0100
0000
,  // measure 25
0100
0000
0100
0000
,  // measure 26
0010
0000
0010
0000
,  // measure 27
1000
0000
1000
0000
,  // measure 28
0001
0000
0001
0000
,  // measure 29
0100
0000
0100
0000
,  // measure 30
0001
0000
0001
0000
,  // measure 31
1000
0000
1000
0000
,  // measure 32
0010
0100
0010
0100
,  // measure 33
0010
0100
0010
0000
,  // measure 34
0110
0000
0000
0000
,  // measure 35
0000
0000
0100
0000
,  // measure 36
0001
0000
0000
0000
,  // measure 37
0000
0000
0100
0000
,  // measure 38
1000
0000
0000
0000
,  // measure 39
0000
0000
0000
0000
,  // measure 40
0010
0000
0010
0000
,  // measure 41
0100
0000
0100
0000
,  // measure 42
0001
0000
1000
0000
,  // measure 43
0100
0000
0001
0000
,  // measure 44
1000
0000
0001
0000
,  // measure 45
1000
0000
0010
0000
,  // measure 46
0002
0000
1003
0000
,  // measure 47
0100
0000
0010
0000
,  // measure 48
1000
0000
0001
0000
,  // measure 49
0100
0100
0001
0001
,  // measure 50
1000
0000
0000
0000
,  // measure 51
1000
0000
0100
0000
,  // measure 52
0010
0000
0001
0000
,  // measure 53
0100
0000
1000
0000
,  // measure 54
0110
0000
0000
0000
,  // measure 55
0001
0000
1000
0000
,  // measure 56
0010
0000
0100
0000
,  // measure 57
0001
0000
0100
0000
,  // measure 58
0101
0000
0000
0000
,  // measure 59
0100
0000
0010
0000
,  // measure 60
0110
0000
0000
0000
,  // measure 61
0001
0000
1000
0000
,  // measure 62
1001
0000
0000
0000
,  // measure 63
0110
0000
0000
0000
,  // measure 64
1001
0000
1001
0000
,  // measure 65
1001
0000
0001
0000
,  // measure 66
0100
0100
1000
1000
,  // measure 67
0001
0001
0010
0010
,  // measure 68
0100
0100
0001
0001
,  // measure 69
1000
1000
0010
0010
,  // measure 70
0100
0100
0100
0100
,  // measure 71
0001
0001
0001
0001
,  // measure 72
1000
0010
1000
0010
,  // measure 73
0200
0000
0000
0300
,  // measure 74
0001
0000
0001
0000
,  // measure 75
0100
0000
1000
0000
,  // measure 76
0001
0000
0100
0000
,  // measure 77
0001
0000
1000
0000
,  // measure 78
0010
0000
0100
0000
,  // measure 79
0010
0000
0100
0000
,  // measure 80
1000
0000
0100
0000
,  // measure 81
0001
1000
0001
1000
,  // measure 82
0000
0001
0000
1000
,  // measure 83
0000
0001
0000
0100
,  // measure 84
0000
1000
0000
0100
,  // measure 85
0000
0010
0000
0100
,  // measure 86
0000
0010
0000
1000
,  // measure 87
0000
0001
0000
0100
,  // measure 88
0001
0100
0001
0100
,  // measure 89
0001
0100
0001
0010
,  // measure 90
0000
0010
0000
0100
,  // measure 91
0000
0100
0000
1000
,  // measure 92
0000
1000
0000
0001
,  // measure 93
0000
0001
0000
0010
,  // measure 94
0000
0010
0000
1000
,  // measure 95
0200
0000
0000
0301
,  // measure 96
0000
0001
0000
1000
,  // measure 97
0000
1000
0000
0010
,  // measure 98
0000
0010
0000
0100
,  // measure 99
0000
0100
0000
0001
,  // measure 100
0000
0001
0000
1000
,  // measure 101
0000
1000
0000
0010
,  // measure 102
0000
0001
0000
0010
,  // measure 103
0000
0001
0000
1000
,  // measure 104
0000
0100
0000
1000
,  // measure 105
0000
0100
0000
0010
,  // measure 106
0000
0100
0000
0020
,  // measure 107
0000
0200
0000
0330
,  // measure 108
0000
1000
0000
0001
,  // measure 109
0000
1000
0000
0001
,  // measure 110
0000
0100
0000
1000
,  // measure 111
0000
0100
0000
1000
,  // measure 112
0000
0001
0000
0100
,  // measure 113
0000
0001
0000
1000
,  // measure 114
0010
1000
0010
1000
,  // measure 115
0010
1000
0000
0001
,  // measure 116
0100
0001
0100
0001
,  // measure 117
0100
0001
0000
0100
,  // measure 118
0010
0100
0010
0100
,  // measure 119
0010
0100
0000
1000
,  // measure 120
0100
1000
0100
0001
,  // measure 121
1000
0001
2002
0000
,  // measure 122
0000
0000
0000
0000
,  // measure 123
0000
0000
0000
0000
,  // measure 124
0000
0000
0000
0000
,  // measure 125
0000
0000
0000
0000
,  // measure 126
0000
0000
0000
0000
,  // measure 127
0000
0000
0000
0000
,  // measure 128
0000
0000
0000
0000
,  // measure 129
0000
0000
3003
0001
,  // measure 130
0000
0001
0000
1000
,  // measure 131
0000
1000
0000
0100
,  // measure 132
0000
0100
0000
0010
,  // measure 133
0000
0010
0000
0100
,  // measure 134
0000
0100
0000
1000
,  // measure 135
0000
1000
0000
0001
,  // measure 136
0000
0001
0000
0100
,  // measure 137
0000
0100
0000
0010
,  // measure 138
0000
0010
0000
0010
,  // measure 139
0000
0010
0000
0010
,  // measure 140
0000
0010
0000
0010
,  // measure 141
0000
0010
0000
1000
,  // measure 142
0000
0001
0000
0100
,  // measure 143
0000
0010
0000
1000
,  // measure 144
0100
1000
0100
1000
,  // measure 145
0100
1000
0000
1000
,  // measure 146
0001
1000
0001
1000
,  // measure 147
0000
0000
0000
0010
,  // measure 148
0100
0010
0100
0010
,  // measure 149
0000
0000
0000
0001
,  // measure 150
1000
0001
1000
0010
,  // measure 151
1000
0010
1000
0100
,  // measure 152
1000
0100
1000
0100
,  // measure 153
0000
0000
0000
0001
,  // measure 154
0100
0001
0100
0001
,  // measure 155
0000
0000
0000
0010
,  // measure 156
0100
0010
0100
0010
,  // measure 157
0000
0000
0000
1000
,  // measure 158
0100
1000
0100
1000
,  // measure 159
0000
0000
0000
0002
,  // measure 160
0000
0003
2000
0000
,  // measure 161
3000
0001
0000
1000
,  // measure 162
0000
2002
0000
0000
,  // measure 163
0000
0000
0000
0000
,  // measure 164
0000
3003
0000
0000
;

//---------------dance-single - ----------------
#NOTES:
     dance-single:
     :
     Easy:
     15:
     0.586846,1.138085,0.121536,0.081024,0.024307,507.000000,492.000000,15.000000,10.000000,0.000000,0.000000,0.586846,1.138085,0.121536,0.081024,0.024307,507.000000,492.000000,15.000000,10.000000,0.000000,0.000000:
// measure 0
0000
0000
0000
0000
,  // measure 1
0000
0000
0000
0000
,  // measure 2
0000
0000
0000
0000
,  // measure 3
0000
0000
0000
0000
,  // measure 4
0000
0000
0000
0000
,  // measure 5
0000
0000
0000
0000
,  // measure 6
0000
0000
0000
0000
,  // measure 7
0000
0000
0000
0000
,  // measure 8
0000
0000
0000
0000
,  // measure 9
0000
0000
0000
0000
,  // measure 10
0001
0000
0001
0000
,  // measure 11
1000
0000
1000
0000
,  // measure 12
0010
0000
0010
0000
,  // measure 13
0100
0000
0100
0000
,  // measure 14
0001
0000
0001
0000
,  // measure 15
1000
0000
1000
0000
,  // measure 16
0220
0000
0000
0000
,  // measure 17
0000
0000
0330
0000
,  // measure 18
0001
1000
0001
1000
,  // measure 19
0001
1000
0001
1000
,  // measure 20
0100
0010
0100
0010
,  // measure 21
0100
0010
0100
0010
,  // measure 22
1000
0100
1000
0100
,  // measure 23
1000
0100
1000
0100
,  // measure 24
0001
0010
0001
0010
,  // measure 25
0001
0010
0001
0010
,  // measure 26
1000
0100
0010
0001
,  // measure 27
0010
0100
1000
0100
,  // measure 28
0010
1000
0010
0001
,  // measure 29
0010
1000
0010
0001
,  // measure 30
0100
1000
0100
0001
,  // measure 31
0100
1000
0010
0001
,  // measure 32
0010
1000
0010
0001
,  // measure 33
0010
1000
0100
0001
,  // measure 34
0010
0000
0000
0000
,  // measure 35
0000
0000
0100
1000
,  // measure 36
0010
0000
0000
0000
,  // measure 37
0000
0000
1000
0001
,  // measure 38
1000
0000
0000
0000
,  // measure 39
0000
0010
0000
0100
,  // measure 40
0010
0000
0010
0000
,  // measure 41
0001
1000
0100
0001
,  // measure 42
1000
0001
1000
0001
,  // measure 43
1000
0001
1000
0001
,  // measure 44
1000
0001
1000
0001
,  // measure 45
1000
0001
1000
0001
,  // measure 46
2000
0000
3010
0001
,  // measure 47
0010
0001
0010
0001
,  // measure 48
0010
0001
0010
0001
,  // measure 49
0010
0001
0010
0001
,  // measure 50
0100
0000
1000
0100
,  // measure 51
0010
0001
1000
0100
,  // measure 52
0010
0001
1000
0100
,  // measure 53
0010
0001
0001
0001
,  // measure 54
1001
0000
0001
0010
,  // measure 55
0100
1000
0001
0010
,  // measure 56
0100
1000
0001
0010
,  // measure 57
0100
1000
1000
1000
,  // measure 58
1001
0000
0100
0000
,  // measure 59
0010
0100
0100
0100
,  // measure 60
0110
0000
0001
0000
,  // measure 61
1000
0010
0010
0010
,  // measure 62
0110
0000
0100
0001
,  // measure 63
0001
0000
0010
0100
,  // measure 64
0100
0000
0001
1000
,  // measure 65
0001
1000
0001
1000
,  // measure 66
0001
0000
0100
0000
0001
0100
0001
0000
,  // measure 67
1000
0000
0100
0000
1000
0100
1000
0000
,  // measure 68
0001
0000
0010
0000
0001
0010
0001
0000
,  // measure 69
1000
0000
0010
0000
1000
0010
1000
0000
,  // measure 70
0001
0000
0100
0000
0001
0100
0001
0000
,  // measure 71
1000
0000
0100
0000
1000
0100
1000
0000
,  // measure 72
0001
1000
0001
1000
,  // measure 73
0002
0000
0000
0003
,  // measure 74
1000
0001
1000
0100
,  // measure 75
0001
1000
0010
0001
,  // measure 76
0100
1000
0100
0001
,  // measure 77
1000
0001
1000
0010
,  // measure 78
0001
0100
0001
1000
,  // measure 79
0010
1000
0100
0001
,  // measure 80
1000
0001
1000
0001
,  // measure 81
1000
0010
0010
0010
,  // measure 82
1001
0100
0001
1000
,  // measure 83
0001
1000
0010
0001
,  // measure 84
0100
0001
1000
0010
,  // measure 85
0100
0001
0100
0001
,  // measure 86
1000
0010
1000
0010
,  // measure 87
0100
0010
0100
1000
,  // measure 88
0001
1000
0001
0100
,  // measure 89
0001
0100
0001
0100
,  // measure 90
0000
0100
0000
1000
,  // measure 91
0000
1000
0000
0010
,  // measure 92
0000
0010
0000
0001
,  // measure 93
0000
0001
0000
0100
,  // measure 94
0000
0100
0000
0001
,  // measure 95
0010
0100
1000
0100
,  // measure 96
0000
0100
0000
0001
,  // measure 97
0000
0001
0000
1000
,  // measure 98
0000
1000
0000
0010
,  // measure 99
0000
0010
0000
0100
,  // measure 100
0000
0100
0000
0001
,  // measure 101
0100
1000
0100
0001
,  // measure 102
0010
0001
0000
1000
,  // measure 103
0100
1000
0000
0010
,  // measure 104
0100
0010
0000
1000
,  // measure 105
0001
1000
0000
0100
,  // measure 106
0001
0100
0000
0010
,  // measure 107
1000
0010
1000
0010
,  // measure 108
0000
0101
0000
0001
,  // measure 109
1000
0001
0000
0100
,  // measure 110
0001
0100
0000
0010
,  // measure 111
1000
0010
0000
0100
,  // measure 112
0010
0100
0000
1000
,  // measure 113
0001
1000
0000
0001
,  // measure 114
0100
0000
0001
0100
0001
0000
1000
0000
,  // measure 115
0100
0000
1000
0100
1000
0000
0010
0000
,  // measure 116
0100
0000
0010
0100
0010
0000
1000
0000
,  // measure 117
0001
0000
1000
0001
1000
0000
0010
0000
,  // measure 118
0001
0000
0010
0001
0010
0000
1000
0000
,  // measure 119
0001
0000
1000
0001
1000
0000
0001
0000
,  // measure 120
0100
0000
0000
0000
0000
0000
0001
0000
0000
0100
0000
0000
0001
0000
0000
0000
0000
0000
1000
0000
0001
0000
1000
0000
,  // measure 121
0001
1000
0001
1000
0001
1000
2002
0000
0000
0000
0000
0000
,  // measure 122
0000
0000
0000
0000
,  // measure 123
0000
0000
0000
0000
,  // measure 124
0000
0000
0000
0000
,  // measure 125
0000
0000
0000
0000
,  // measure 126
0000
0000
0000
0000
,  // measure 127
0000
0000
0000
0000
,  // measure 128
0000
0000
0000
0000
,  // measure 129
0000
0000
3003
0001
,  // measure 130
0100
0001
1000
0010
,  // measure 131
1000
0010
0100
0010
,  // measure 132
0100
0001
1000
0001
,  // measure 133
0100
0001
1000
0100
,  // measure 134
0010
1000
0001
0100
,  // measure 135
0001
1000
0010
0001
,  // measure 136
0100
0001
1000
0001
,  // measure 137
1000
0010
0100
0010
,  // measure 138
0010
0100
0100
1000
,  // measure 139
1000
0001
0001
0010
,  // measure 140
0010
0100
0100
1000
,  // measure 141
1000
0001
0001
0100
,  // measure 142
0001
0100
0001
1000
,  // measure 143
0010
1000
0010
1000
,  // measure 144
0001
1000
0001
1000
,  // measure 145
0001
1000
0001
1000
,  // measure 146
0100
0010
0001
0110
,  // measure 147
0000
0000
0000
0001
,  // measure 148
0010
0100
1000
0101
,  // measure 149
0000
0000
0000
1000
,  // measure 150
0100
0010
0001
1000
,  // measure 151
0100
0010
0001
0001
,  // measure 152
0010
0100
1000
1001
,  // measure 153
0000
0000
0000
0001
,  // measure 154
0100
1000
0100
0101
,  // measure 155
0000
0000
0000
1000
,  // measure 156
0010
0001
0010
1010
,  // measure 157
0000
0000
0000
1000
,  // measure 158
0010
0001
0100
1100
,  // measure 159
0000
0000
0000
0002
,  // measure 160
0000
0003
2000
0000
,  // measure 161
3000
0001
0000
1000
,  // measure 162
0000
2002
0000
0000
,  // measure 163
0000
0000
0000
0000
,  // measure 164
0000
0000
0000
0000
,  // measure 165
0000
3003
0000
0000
;
