#VERSION:0.83;
#TITLE:Lion Garden;
#SUBTITLE:;
#ARTIST:Hydelic;
#TITLETRANSLIT:;
#SUBTITLETRANSLIT:;
#ARTISTTRANSLIT:;
#GENRE:;
#ORIGIN:;
#CREDIT:;
#BANNER:;
#BACKGROUND:background.png;
#PREVIEWVID:;
#JACKET:;
#CDIMAGE:;
#DISCIMAGE:;
#LYRICSPATH:;
#CDTITLE:;
#MUSIC:39 Lion Garden.mp3;
#OFFSET:-0.250000;
#SAMPLESTART:140.395996;
#SAMPLELENGTH:12.000000;
#SELECTABLE:YES;
#BPMS:0.000=68.500,
60.000=137.000,
196.000=68.500,
212.000=137.000;
#STOPS:244.000=0.438,
259.000=0.438;
#DELAYS:;
#WARPS:;
#TIMESIGNATURES:0.000=4=4;
#TICKCOUNTS:0.000=4;
#COMBOS:0.000=1;
#SPEEDS:0.000=1.000=0.000=0;
#SCROLLS:0.000=1.000;
#FAKES:;
#LABELS:0.000=Song Start;
#BGCHANGES:;
#KEYSOUNDS:;
#ATTACKS:
;

//---------------dance-single - ----------------
#NOTEDATA:;
#CHARTNAME:;
#STEPSTYPE:dance-single;
#DESCRIPTION:;
#CHARTSTYLE:;
#DIFFICULTY:Hard;
#METER:7;
#RADARVALUES:0.303205,0.711016,0.091288,0.232783,0.109545,465.000000,445.000000,20.000000,51.000000,0.000000,0.000000,0.000000,0.000000,0.000000,0.303205,0.711016,0.091288,0.232783,0.109545,465.000000,445.000000,20.000000,51.000000,0.000000,0.000000,0.000000,0.000000,0.000000;
#CREDIT:;
#NOTES:
// measure 0
0000
0000
0000
0000
,  // measure 1
0000
0000
0000
0000
,  // measure 2
0000
0000
0000
0000
,  // measure 3
0000
0000
0000
0000
,  // measure 4
1000
0000
0000
0000
1000
0000
0000
0000
1000
0000
0000
0010
1000
0010
0001
0100
,  // measure 5
0001
0000
0000
0000
0001
0000
0000
0000
0001
0000
0000
0010
0001
0100
1000
0001
,  // measure 6
0100
0000
0000
0000
0100
0000
0000
0000
0100
0000
0000
0010
0100
0001
1000
0001
,  // measure 7
1000
0000
0000
0000
1000
0000
0000
0000
1000
0000
0000
0001
1000
0100
0001
1000
,  // measure 8
0010
0000
0000
0000
0010
0000
0000
0000
0010
0000
0000
0100
0010
0001
1000
0001
,  // measure 9
1000
0000
0000
0000
1000
0000
0000
0000
1000
0000
0000
0010
1000
0100
0001
1000
,  // measure 10
0001
0000
0000
0000
0001
0000
0000
0000
0001
0000
0000
0100
0001
1000
0001
1000
,  // measure 11
0010
0000
0000
0000
0010
0000
0000
0000
0010
0000
0000
0100
0010
0001
0100
0001
,  // measure 12
1000
0000
0000
0000
2000
0000
3002
0000
2003
0000
3000
0001
1000
0010
1000
0001
,  // measure 13
0100
0000
0000
0000
0100
0000
0000
0000
0100
0000
0000
0010
0100
0001
1000
0010
,  // measure 14
0001
0000
0002
2003
3002
0003
0100
0000
,  // measure 15
0020
0000
0000
0000
,  // measure 16
0200
0000
0000
0330
,  // measure 17
0101
2000
0200
3300
,  // measure 18
0000
0000
0000
0000
0001
1000
0000
0000
,  // measure 19
1000
0000
0010
0000
,  // measure 20
0100
0000
0000
0000
0010
1000
0001
0100
,  // measure 21
0001
0020
0200
0330
,  // measure 22
0000
0000
0000
0000
1000
0001
0000
0000
,  // measure 23
0001
0000
0100
0000
,  // measure 24
0010
0000
0000
0000
0100
0001
1000
0001
,  // measure 25
1000
0000
1000
0000
,  // measure 26
0001
0000
0000
0010
0001
0100
0001
1000
,  // measure 27
0100
0000
0100
0000
,  // measure 28
0100
0000
0000
0001
0100
0010
1000
0100
,  // measure 29
0001
0000
0001
0000
,  // measure 30
0001
0000
0000
0100
0001
0100
1000
0001
,  // measure 31
1000
0000
1000
0000
,  // measure 32
1000
0000
0000
0010
1000
0100
0001
1000
,  // measure 33
0010
0000
0010
0000
,  // measure 34
0010
0000
0000
0100
0001
1000
0001
1000
,  // measure 35
0100
0000
0100
0000
,  // measure 36
0100
0000
0000
1000
0100
0001
1000
0001
,  // measure 37
0010
0000
0010
0000
,  // measure 38
0010
0000
0000
0100
0010
0001
1000
0001
,  // measure 39
1000
0000
1000
0000
,  // measure 40
1200
0000
0000
0010
1300
0001
1000
0001
,  // measure 41
0110
0000
0100
0000
,  // measure 42
0100
0000
0000
0010
0100
1000
0001
1000
,  // measure 43
0001
0000
0001
0000
,  // measure 44
0021
0000
0000
0100
0031
0100
1000
0010
,  // measure 45
0101
0000
0100
0000
,  // measure 46
0100
0000
0000
0010
0100
1000
0001
1000
,  // measure 47
0001
0000
0001
0000
,  // measure 48
2001
0000
0000
0010
3001
0100
0001
1000
,  // measure 49
0020
0000
0030
2000
,  // measure 50
0002
0000
0000
0000
3003
0000
0000
0000
0020
0000
0000
0000
0031
1000
0001
1000
,  // measure 51
0200
0000
0300
0200
,  // measure 52
0302
0000
0000
0000
0003
0000
0000
0000
2000
0000
0000
0000
3001
0100
0001
1000
,  // measure 53
0010
0010
0010
0010
,  // measure 54
0010
0000
0010
0100
0010
0100
0010
1000
,  // measure 55
0010
0010
0010
0010
,  // measure 56
0010
0000
0010
0100
0010
0100
0010
0001
,  // measure 57
0010
1000
0001
1000
0001
1000
0010
0100
,  // measure 58
0001
1000
0001
1000
0010
0001
0100
0001
,  // measure 59
1000
0001
1000
0001
1000
0001
1000
0001
1000
0001
1000
0001
1000
0001
1000
0001
,  // measure 60
0100
0010
0100
0010
0100
0010
0100
0010
0100
0000
0001
0000
0001
0010
1000
0001
,  // measure 61
0100
0001
0000
0100
,  // measure 62
0000
0010
0100
0001
1000
0010
2200
0000
,  // measure 63
0000
3300
0010
0100
,  // measure 64
0000
0010
0001
0100
0001
1000
0010
0000
,  // measure 65
0100
0000
0000
0000
1000
0000
0000
0010
,  // measure 66
0001
0100
0001
1000
0202
0000
0000
0000
,  // measure 67
0303
0000
1000
0000
0010
0000
0000
0001
,  // measure 68
0100
1000
0001
1000
0220
0000
0000
0000
,  // measure 69
0330
0000
0001
0000
1000
0000
0000
0001
,  // measure 70
0100
0001
1000
0010
2200
0000
0000
0000
,  // measure 71
3300
0000
0001
0000
0100
0000
0000
0100
,  // measure 72
0010
0001
1000
0001
0220
0000
0000
0000
,  // measure 73
0330
0000
1000
0000
0001
0000
0000
0100
,  // measure 74
0010
1000
0001
1000
0202
0000
0000
0000
,  // measure 75
0303
0100
0010
0100
,  // measure 76
0100
0010
1000
0010
2020
0000
0000
0000
,  // measure 77
3030
0000
0100
0000
0001
0000
1000
0010
,  // measure 78
1000
0100
0001
1000
0202
0000
0000
0000
,  // measure 79
0303
0000
1000
0000
0001
0000
0100
1000
,  // measure 80
0001
0100
1000
0010
2002
0000
0000
0000
,  // measure 81
3003
0000
0010
0000
0100
0000
0001
0010
,  // measure 82
1000
0100
0001
1000
0202
0000
0000
0000
,  // measure 83
0303
0000
0100
0000
0001
0000
1000
0010
,  // measure 84
0001
0100
1000
0001
2020
0000
0000
0000
,  // measure 85
3030
0000
0010
0000
0100
0000
0001
0100
,  // measure 86
1000
0100
0001
0010
2200
0000
0000
0000
,  // measure 87
3300
0000
0010
0000
0001
0000
0100
1000
,  // measure 88
0001
0100
1000
0100
2002
0000
0000
0000
,  // measure 89
3003
0000
0100
0000
0001
0000
1000
0010
,  // measure 90
0001
0010
0100
1000
0220
0000
0000
0000
,  // measure 91
0330
0000
0001
0000
0100
0000
0010
0100
,  // measure 92
0001
1000
0001
0100
0010
0000
0000
0000
,  // measure 93
0010
0000
0010
0000
,  // measure 94
0100
0000
0001
0000
,  // measure 95
1000
0000
1000
0000
,  // measure 96
1000
0000
0001
0000
,  // measure 97
0100
0000
0001
0000
,  // measure 98
0010
0000
0100
0000
,  // measure 99
0001
0000
1000
0000
,  // measure 100
0010
0000
0100
0000
;
