#VERSION:0.83;
#TITLE:Let You Go;
#SUBTITLE:;
#ARTIST:Clara La San;
#TITLETRANSLIT:;
#SUBTITLETRANSLIT:;
#ARTISTTRANSLIT:;
#GENRE:;
#ORIGIN:;
#CREDIT:;
#BANNER:;
#BACKGROUND:background.PNG;
#PREVIEWVID:;
#JACKET:jacket.PNG;
#CDIMAGE:;
#DISCIMAGE:;
#LYRICSPATH:;
#CDTITLE:;
#MUSIC:Let you Go - Clara La San_1064366974 - Clara La San Archive.mp3;
#OFFSET:-1.899000;
#SAMPLESTART:30.304001;
#SAMPLELENGTH:12.000000;
#SELECTABLE:YES;
#DISPLAYBPM:68.000000:135.000000;
#BPMS:0.000=67.250,
4.000=67.500,
8.000=67.750,
24.000=67.500,
32.000=135.000,
96.000=67.500,
128.000=135.000,
248.000=67.500;
#STOPS:;
#DELAYS:;
#WARPS:;
#TIMESIGNATURES:0.000=4=4;
#TICKCOUNTS:0.000=4;
#COMBOS:0.000=1;
#SPEEDS:0.000=1.000=0.000=0;
#SCROLLS:0.000=1.000;
#FAKES:;
#LABELS:0.000=Song Start;
#BGCHANGES:;
#KEYSOUNDS:;
#ATTACKS:
;

//---------------dance-single - ----------------
#NOTEDATA:;
#CHARTNAME:;
#STEPSTYPE:dance-single;
#DESCRIPTION:;
#CHARTSTYLE:;
#DIFFICULTY:Hard;
#METER:5;
#RADARVALUES:0.252570,0.299979,0.255055,0.342005,0.011593,305.000000,261.000000,44.000000,59.000000,0.000000,0.000000,0.000000,0.000000,0.000000,0.252570,0.299979,0.255055,0.342005,0.011593,305.000000,261.000000,44.000000,59.000000,0.000000,0.000000,0.000000,0.000000,0.000000;
#CREDIT:;
#DISPLAYBPM:68.000000:135.000000;
#NOTES:
0010
0000
0000
0000
0010
0000
0000
0000
0100
0000
0001
1000
0010
0000
0000
0000
,
0100
0000
0000
0000
0001
0000
0000
0000
1000
0000
0010
0100
0010
0000
0000
0000
,
0100
0000
0000
0000
0001
0000
0000
0000
0010
0000
0001
0100
1000
0000
0000
0000
,
0010
0000
0000
0000
0010
0000
0000
0000
0100
0000
0000
0001
0010
0000
0000
0000
,
1000
0000
0001
0000
0100
1000
0010
0000
,
0100
0000
0100
0100
1000
0000
1000
0000
,
0010
0100
0001
1000
0001
0000
0001
0000
,
0010
0010
1000
1000
0001
0000
0001
0000
,
2200
0000
0000
0300
0010
0000
0000
0001
,
3000
0100
0020
0000
2030
0000
3002
0000
,
0200
0000
0303
0000
1010
0000
0000
1100
,
0000
1001
0000
0000
0101
0000
0000
0000
,
0022
0000
0030
0000
1000
0000
0000
0100
,
0003
0100
0020
0000
2030
0000
3002
0000
,
0200
0000
0303
0000
0110
0000
0000
0101
,
0000
1001
0000
0000
1100
0000
0000
0000
,
0220
0000
0300
0000
1000
0000
0000
0100
,
0030
0100
0002
0000
2003
0000
3002
0000
,
0200
0000
0303
0000
1001
0000
0000
0110
,
0000
0101
0000
0000
1100
0000
0000
0000
,
0220
0000
0300
0000
1000
0000
0000
0100
,
0030
0100
2000
0000
3002
0000
2003
0000
,
0020
0000
3030
0000
0101
0000
0000
1001
,
0000
1001
0000
0000
0110
0000
0000
0000
,
0001
0000
0001
0000
1000
0100
0001
0000
,
0010
0000
0010
0100
0010
0000
1000
0000
,
0001
0100
0001
0000
0010
1000
1000
0000
,
0100
0000
1000
0000
0001
0001
0100
0000
,
0010
0000
0010
0000
1000
1000
0001
0000
,
0100
0000
0100
0000
0010
0010
1000
0000
,
0100
0001
1000
0001
1000
0000
1000
0000
,
0010
0100
0010
1000
0001
0000
0001
0000
,
2200
0000
0000
0300
0010
0000
0000
0001
,
3000
0100
0020
0000
2030
0000
3002
0000
,
0200
0000
0303
0000
1010
0000
0000
1100
,
0000
1001
0000
0000
0101
0000
0000
0000
,
0022
0000
0030
0000
1000
0000
0000
0100
,
0003
0100
0020
0000
2030
0000
3002
0000
,
0200
0000
0303
0000
0110
0000
0000
0101
,
0000
1001
0000
0000
1100
0000
0000
0000
,
0220
0000
0300
0000
1000
0000
0000
0100
,
0030
0100
0002
0000
2003
0000
3002
0000
,
0200
0000
0303
0000
1001
0000
0000
0110
,
0000
0101
0000
0000
1100
0000
0000
0000
,
0220
0000
0300
0000
1000
0000
0000
0100
,
0030
0100
2000
0000
3002
0000
2003
0000
,
0020
0000
3030
0000
0101
0000
0000
1001
,
0000
1001
0000
0000
0110
0000
0000
0001
,
0020
0000
0100
0000
1030
0000
0000
0100
,
0010
0100
0001
0000
0010
0000
0000
0000
,
0100
0000
0010
0000
0100
0000
0010
0100
,
0010
0100
0001
0000
1000
0000
0000
0000
,
0002
0000
1000
0000
0103
0000
0000
0010
,
0100
0010
1000
0000
0100
0000
0000
0000
,
0001
0000
1000
0000
0001
0010
0100
0010
,
0001
1000
0100
0000
,
0020
0000
0100
1000
0031
0000
0010
1000
,
0010
1000
0001
0010
0100
0000
0001
1000
,
0010
0000
0100
0010
0010
0100
0001
0100
,
0001
0000
1000
0010
0100
0000
0001
1000
,
0100
0000
0010
0100
0010
0000
0100
0001
,
0100
0000
0010
0001
1000
0000
0100
0001
,
2020
0000
0000
0000
,
3030
0000
0000
0000
,
0022
0000
0000
0000
,
0033
0000
0000
0000
,
2002
0000
0000
0000
,
3003
0000
0000
0000
,
0220
0000
0000
0000
,
0330
0000
0000
0000
;

//---------------dance-single - ----------------
#NOTEDATA:;
#CHARTNAME:;
#STEPSTYPE:dance-single;
#DESCRIPTION:;
#CHARTSTYLE:;
#DIFFICULTY:Challenge;
#METER:6;
#RADARVALUES:0.356083,0.479967,0.202884,0.295632,0.084052,430.000000,395.000000,35.000000,51.000000,0.000000,0.000000,0.000000,0.000000,0.000000,0.356083,0.479967,0.202884,0.295632,0.084052,430.000000,395.000000,35.000000,51.000000,0.000000,0.000000,0.000000,0.000000,0.000000;
#CREDIT:;
#DISPLAYBPM:68.000000:135.000000;
#NOTES:
// measure 0
0000
0000
0000
0000
,  // measure 1
0000
0000
0000
0000
,  // measure 2
0000
0000
0000
0000
,  // measure 3
0000
0000
0000
0000
,  // measure 4
0001
0000
1000
0100
0002
0000
0000
0000
0013
0000
0100
0000
0010
1000
0000
0100
,  // measure 5
0001
0000
0010
0000
0001
1000
0001
1000
0001
0000
0100
0000
0010
0000
0010
0000
,  // measure 6
1000
0001
1000
0001
0100
0010
0100
0010
1000
0000
1000
0000
1000
0000
0000
0000
,  // measure 7
0001
0100
0001
1000
0010
1000
0100
0001
1000
0000
1000
0000
1000
0000
0000
0000
,  // measure 8
1001
0000
0100
0100
0110
0000
0000
0101
,  // measure 9
0000
0101
0002
0000
2003
0000
3002
0000
,  // measure 10
0103
0010
1000
0010
1000
0000
0100
0001
,  // measure 11
1000
0001
1000
0000
0100
0010
0100
0010
,  // measure 12
0101
0000
0010
0010
0110
0000
0000
1010
,  // measure 13
0000
1010
0002
0000
2003
0000
3002
0000
,  // measure 14
0103
0010
1000
0010
0100
0000
0001
1000
,  // measure 15
0001
0100
0001
0000
0010
1000
0010
0100
,  // measure 16
0101
0000
0010
0010
1010
0000
0000
1100
,  // measure 17
0000
1100
0020
0000
0230
0000
0320
0000
,  // measure 18
1030
0001
1000
0001
0100
0000
0010
1000
,  // measure 19
0010
0100
0001
0000
0001
1000
0001
1000
,  // measure 20
0110
0000
0001
0001
0101
0000
0000
1010
,  // measure 21
0000
1010
0200
0000
0302
0000
2003
0000
,  // measure 22
3010
0100
0010
1000
0100
0000
0001
1000
,  // measure 23
0001
1000
0100
0000
0001
1000
0010
1000
,  // measure 24
0002
0000
0203
0000
2300
0000
0000
0010
3001
0000
0010
0000
0010
0000
0000
0000
,  // measure 25
0100
0000
0100
0000
1000
0000
1000
0000
0001
0000
0001
0010
1000
0000
0000
0000
,  // measure 26
0100
0000
0100
0010
0100
0000
1000
0000
0001
0000
1000
0100
1000
0000
0100
0000
,  // measure 27
0001
0000
1000
0001
1000
0000
0100
0000
0010
0000
0100
0010
0100
0000
0000
0001
,  // measure 28
1000
0000
0100
0000
0001
0000
0000
0100
0010
0000
0010
0000
0100
0000
0000
0000
,  // measure 29
0001
0001
1000
1000
0100
0100
1000
0000
,  // measure 30
0001
0100
0001
1000
0001
1000
0100
0001
1000
0000
1000
0000
0001
0000
0000
0000
,  // measure 31
0100
0010
0100
0010
1000
0100
0001
1000
0001
0000
0001
0000
1000
0000
0000
0000
,  // measure 32
1001
0000
0100
0100
0110
0000
0000
0101
,  // measure 33
0000
0101
0002
0000
2003
0000
3002
0000
,  // measure 34
0103
0010
1000
0010
1000
0000
0100
0001
,  // measure 35
1000
0001
1000
0000
0100
0010
0100
0010
,  // measure 36
0101
0000
0010
0010
0110
0000
0000
1010
,  // measure 37
0000
1010
0002
0000
2003
0000
3002
0000
,  // measure 38
0103
0010
1000
0010
0100
0000
0001
1000
,  // measure 39
0001
0100
0001
0000
0010
1000
0010
0100
,  // measure 40
0101
0000
0010
0010
1010
0000
0000
1100
,  // measure 41
0000
1100
0020
0000
0230
0000
0320
0000
,  // measure 42
1030
0001
1000
0001
0100
0000
0010
1000
,  // measure 43
0010
0100
0001
0000
0001
1000
0001
1000
,  // measure 44
0110
0000
0001
0001
0101
0000
0000
1010
,  // measure 45
0000
1010
0200
0000
0302
0000
2003
0000
,  // measure 46
3010
0100
0010
1000
0100
0000
0001
1000
,  // measure 47
0001
1000
0100
0000
0001
1000
0010
1000
,  // measure 48
1100
0000
1000
0001
1000
0000
0100
0010
,  // measure 49
0100
0000
0010
1000
0010
0000
0000
0000
,  // measure 50
0001
0000
0001
0000
1000
0010
1000
0100
,  // measure 51
0001
0001
1000
1000
,  // measure 52
1100
0000
1000
0001
1000
0000
0100
0010
,  // measure 53
0100
0000
0010
1000
0010
0000
0000
0000
,  // measure 54
0001
0000
0001
0000
1000
0010
1000
0100
,  // measure 55
0001
0001
1000
1000
,  // measure 56
1100
0000
1000
0001
1000
0000
1000
0001
,  // measure 57
1000
0000
0100
0010
0100
0000
0100
0010
,  // measure 58
0100
0000
0010
1000
0010
0000
0010
1000
,  // measure 59
0010
0000
0001
0100
1000
0000
0001
0100
,  // measure 60
1000
0000
0010
0100
0001
0000
0010
0100
,  // measure 61
0001
0000
1000
0001
1000
0000
1000
0001
,  // measure 62
2000
0000
0000
0000
3000
0002
0203
0302
,  // measure 63
0023
0000
0230
0000
,  // measure 64
0302
0000
0000
0000
0003
2000
3020
2030
,  // measure 65
3020
0000
2030
0000
,  // measure 66
3002
0000
0000
0000
0003
0020
2030
3020
,  // measure 67
0230
0000
0302
0000
,  // measure 68
0023
0000
0230
0302
2003
0000
0002
0000
,  // measure 69
3003
0000
0000
0000
;
