#TITLE:Let You Go (Astra G Remix);
#SUBTITLE:;
#ARTIST:Clara La San;
#TITLETRANSLIT:;
#SUBTITLETRANSLIT:;
#ARTISTTRANSLIT:;
#GENRE:;
#CREDIT:;
#BANNER:;
#BACKGROUND:background.PNG;
#LYRICSPATH:;
#CDTITLE:;
#MUSIC:Clara La San - Let You Go (Astra G Remix).mp3;
#OFFSET:-11.520000;
#SAMPLESTART:30.797001;
#SAMPLELENGTH:12.000000;
#SELECTABLE:YES;
#DISPLAYBPM:125.000000;
#BPMS:0.000000=62.250000
,20.000000=124.999992
;
#STOPS:
;
#BGCHANGES:;
#KEYSOUNDS:;
#ATTACKS:;

//---------------dance-single - ----------------
#NOTES:
     dance-single:
     :
     Hard:
     6:
     0.347076,0.351395,0.046584,0.272337,0.000000,678.000000,665.000000,13.000000,76.000000,0.000000,0.000000,0.347076,0.351395,0.046584,0.272337,0.000000,678.000000,665.000000,13.000000,76.000000,0.000000,0.000000:
// measure 0
0000
0000
0000
0000
,  // measure 1
0000
0000
0000
0000
,  // measure 2
0000
0000
0000
0000
,  // measure 3
0000
0000
0000
0000
,  // measure 4
0000
0000
0000
0000
,  // measure 5
2000
0000
0000
0000
3010
0001
0100
0001
,  // measure 6
1000
2000
3002
2003
,  // measure 7
3010
0100
0001
1000
,  // measure 8
0001
0100
0010
1000
,  // measure 9
0200
0000
0000
0000
0310
0001
1000
0001
,  // measure 10
1000
0020
0032
2003
,  // measure 11
3100
0010
1000
0001
,  // measure 12
1000
0001
0100
0001
,  // measure 13
0020
0000
0000
0000
0130
0001
1000
0001
,  // measure 14
0100
0002
2003
3020
,  // measure 15
0130
1000
0001
1000
,  // measure 16
0001
1000
0100
0001
,  // measure 17
0020
0000
0000
0000
0130
1000
0001
1000
,  // measure 18
0001
0100
0001
1000
,  // measure 19
0001
1000
0100
0001
,  // measure 20
1000
0010
0010
0000
,  // measure 21
0201
0000
0302
0000
2003
0000
3010
0001
,  // measure 22
0100
0000
0010
1000
0100
0000
0001
0010
,  // measure 23
0001
0000
0100
0000
0010
0100
0010
0100
,  // measure 24
0010
0000
0010
0001
1000
0000
1000
0010
,  // measure 25
0100
0010
1000
0100
0001
0000
0010
0000
,  // measure 26
0001
0000
0100
0010
0100
0000
0010
0000
,  // measure 27
1000
0000
0100
0001
1000
0000
0100
0000
,  // measure 28
0010
0000
0001
0001
0001
0000
0010
0000
,  // measure 29
0100
0001
2000
0001
,  // measure 30
3001
0000
0100
0100
0010
0000
1000
0000
,  // measure 31
0100
0000
0001
0000
1000
0010
0001
0010
,  // measure 32
1000
1000
0010
0010
,  // measure 33
0100
0001
1000
0001
0100
0010
1000
0100
,  // measure 34
0010
0000
1000
0100
0010
0000
0100
0001
,  // measure 35
1000
0001
0100
0001
1000
0010
0001
0100
,  // measure 36
0001
0000
0001
0100
0001
0000
0000
0000
,  // measure 37
1010
1000
0100
0001
1000
0001
1000
0010
,  // measure 38
0001
0020
0230
0320
,  // measure 39
1030
0100
0001
1000
,  // measure 40
0001
0100
0001
1000
,  // measure 41
0010
0100
0010
1000
0100
0001
1000
0001
,  // measure 42
1000
0002
0203
2300
,  // measure 43
3001
0100
0010
1000
,  // measure 44
0100
0001
1000
0001
,  // measure 45
0010
1000
0010
1000
0100
0001
1000
0001
,  // measure 46
0010
2000
3002
0203
,  // measure 47
0310
0001
1000
0001
,  // measure 48
1000
0100
0001
1000
,  // measure 49
0010
0100
0001
1000
0001
1000
0100
0001
,  // measure 50
1000
0200
0302
2003
,  // measure 51
3010
0100
0001
1000
,  // measure 52
0001
1000
0100
0000
,  // measure 53
0201
0000
0302
0000
2003
0000
3010
0001
,  // measure 54
0100
0000
0010
1000
0100
0000
0001
0010
,  // measure 55
0001
0000
0100
0000
0010
0100
0010
0100
,  // measure 56
0010
0000
0010
0001
1000
0000
1000
0010
,  // measure 57
0100
0010
1000
0100
0001
0000
0010
0000
,  // measure 58
0001
0000
0100
0010
0100
0000
0010
0000
,  // measure 59
1000
0000
0100
0001
1000
0000
0100
0000
,  // measure 60
0010
0000
0001
0001
0001
0000
0010
0000
,  // measure 61
0100
0001
2000
0001
,  // measure 62
3001
0000
0100
0100
0010
0000
1000
0000
,  // measure 63
0100
0000
0001
0000
1000
0010
0001
0010
,  // measure 64
1000
1000
0010
0010
,  // measure 65
0100
0001
1000
0001
0100
0010
1000
0100
,  // measure 66
0010
0000
1000
0100
0010
0000
0100
0001
,  // measure 67
1000
0001
0100
0001
1000
0010
0001
0100
,  // measure 68
0001
0000
0001
0100
0001
0000
0000
0000
,  // measure 69
0110
0010
1000
0001
0100
0001
1000
0010
,  // measure 70
1000
0200
0302
2003
,  // measure 71
3010
0000
0100
0001
0100
0000
0010
0000
,  // measure 72
1000
0100
1000
0000
0001
1000
1000
0000
,  // measure 73
0100
0001
1000
0010
0001
0100
0001
1000
,  // measure 74
0001
0200
0320
2030
,  // measure 75
3001
0100
0001
0000
0010
0000
1000
0000
,  // measure 76
0100
1000
0100
0000
0001
0100
0001
0000
,  // measure 77
0010
0100
0001
1000
0001
0001
0010
1000
,  // measure 78
0100
0002
2003
3002
,  // measure 79
0103
0010
1000
0000
0100
0000
0001
1000
,  // measure 80
0001
0000
0100
0000
0010
1000
0010
0000
,  // measure 81
0001
1000
0001
1000
0100
0001
1000
0001
,  // measure 82
1000
0020
0032
0203
,  // measure 83
0301
1000
0001
0000
0100
0000
0010
1000
,  // measure 84
0010
0100
1000
0000
0001
1000
0100
0000
,  // measure 85
0021
0000
0000
0000
1030
0001
1000
0001
,  // measure 86
1000
0200
2300
3002
,  // measure 87
0103
0010
1000
0000
0100
0000
0001
1000
,  // measure 88
0001
1000
0100
0000
0001
0100
0001
0000
,  // measure 89
0010
1000
0100
1000
0001
1000
0001
0100
,  // measure 90
0010
0200
0302
2003
,  // measure 91
3001
0100
0001
0000
0010
0000
1000
0100
,  // measure 92
1000
0001
0100
0000
0001
1000
0001
0000
,  // measure 93
0010
0100
0010
1000
0100
0001
1000
0001
,  // measure 94
1000
0200
0302
2003
,  // measure 95
3010
0100
0001
0000
1000
0000
0001
0100
,  // measure 96
0001
1000
0010
0000
0100
0010
0100
0000
,  // measure 97
0001
0010
1000
0010
0001
0100
1000
0100
,  // measure 98
0001
0020
0230
0320
,  // measure 99
1030
0100
0001
0000
0100
0000
0010
1000
,  // measure 100
0010
0100
0100
0000
,  // measure 101
0110
0000
0010
0100
0010
0000
1000
0100
,  // measure 102
0001
0000
1000
0000
0001
0000
0100
0010
,  // measure 103
0100
0000
0001
0000
1000
0000
0100
0001
,  // measure 104
1000
0000
0010
0000
0010
0000
0100
0010
,  // measure 105
0110
0000
0010
0100
0010
0000
1000
0100
,  // measure 106
0001
0000
1000
0000
0001
0000
0100
0010
,  // measure 107
0100
0000
0001
0000
1000
0000
0100
0001
,  // measure 108
1000
0000
0010
0000
0010
0000
0100
0010
,  // measure 109
0110
0000
0010
0100
0010
0000
0010
0100
,  // measure 110
0010
0000
1000
0100
0001
0000
1000
0100
,  // measure 111
0001
0000
0001
0010
1000
0000
0001
0010
,  // measure 112
1000
0000
0001
0100
0010
0000
0001
0100
,  // measure 113
0010
0000
1000
0100
1000
0000
1000
0100
,  // measure 114
1000
0000
0001
0100
0001
0000
0010
1000
,  // measure 115
0020
0230
0302
2003
3002
0203
0302
2003
,  // measure 116
3020
0230
0302
2003
,  // measure 117
3001
0010
0001
0100
,  // measure 118
0110
0010
1000
0010
,  // measure 119
0100
0001
1000
0001
1000
0010
0001
0100
,  // measure 120
0001
0020
2030
3002
,  // measure 121
0103
0010
1000
0100
,  // measure 122
1100
1000
0100
0001
,  // measure 123
1000
0001
0100
1000
0100
0001
1000
0010
,  // measure 124
0100
0002
2003
3002
,  // measure 125
0013
0100
0010
1000
,  // measure 126
1100
0001
0100
0001
,  // measure 127
0010
1000
0010
0100
0001
1000
0001
0100
,  // measure 128
0010
0001
0010
0010
,  // measure 129
1100
0010
0001
1000
,  // measure 130
0110
1000
0001
0100
;
