#VERSION:0.83;
#TITLE:La SeƱorita Virtual;
#SUBTITLE:;
#ARTIST:2MB;
#TITLETRANSLIT:;
#SUBTITLETRANSLIT:;
#ARTISTTRANSLIT:;
#GENRE:;
#ORIGIN:;
#CREDIT:;
#BANNER:La Senorita Virtual.png;
#BACKGROUND:La Senorita Virtual-bg.png;
#PREVIEWVID:;
#JACKET:La Senorita Virtual-jacket.png;
#CDIMAGE:;
#DISCIMAGE:;
#LYRICSPATH:La Senorita Virtual.lrc;
#CDTITLE:;
#MUSIC:2MB - La Senorita Virtual.mp3;
#OFFSET:-0.165000;
#SAMPLESTART:32.125000;
#SAMPLELENGTH:12.000000;
#SELECTABLE:YES;
#BPMS:0.000=182.100;
#STOPS:;
#DELAYS:;
#WARPS:;
#TIMESIGNATURES:0.000=4=4;
#TICKCOUNTS:0.000=4;
#COMBOS:0.000=1;
#SPEEDS:0.000=1.000=0.000=0;
#SCROLLS:0.000=1.000;
#FAKES:;
#LABELS:0.000=Song Start,
312.000=Song End;
#BGCHANGES:;
#KEYSOUNDS:;
#ATTACKS:
;

//---------------dance-single - ----------------
#NOTEDATA:;
#CHARTNAME:;
#STEPSTYPE:dance-single;
#DESCRIPTION:;
#CHARTSTYLE:;
#DIFFICULTY:Beginner;
#METER:2;
#RADARVALUES:0.133907,0.196140,0.084361,0.028120,0.000000,100.000000,91.000000,9.000000,3.000000,0.000000,0.000000,0.000000,0.000000,0.000000,0.133907,0.196140,0.084361,0.028120,0.000000,100.000000,91.000000,9.000000,3.000000,0.000000,0.000000,0.000000,0.000000,0.000000;
#CREDIT:;
#NOTES:
0000
0000
0000
0000
,
0000
0000
0000
0000
,
0000
0000
0000
0000
,
0000
0000
0000
0000
,
0000
0000
0000
0000
,
0010
0000
0000
0000
,
0010
0000
0000
0000
,
0100
0000
0000
0000
,
0100
0000
0000
0000
,
0001
0000
0000
0000
,
0001
0000
0000
0000
,
0010
0000
0000
0000
,
1000
0000
1000
0000
,
0001
0000
0001
0000
,
0100
0000
0100
0000
,
0010
0000
0010
0000
,
0001
0000
0001
0000
,
2000
0000
0000
0000
,
3000
0000
0000
0000
,
0000
0000
0000
0000
,
0000
0000
0000
0000
,
0110
0000
0010
0000
,
0100
0000
0100
0000
,
1000
0000
0000
0000
,
0001
0000
0000
0000
,
0010
0000
0010
0000
,
0100
0000
0100
0000
,
1000
0000
1000
0000
,
0001
0000
0001
0000
,
0100
0000
0100
0000
,
0100
0000
0100
0000
,
1000
0000
1000
0000
,
1000
0000
0010
0000
,
0110
0000
0000
0000
,
0011
0000
0000
0000
,
0101
0000
0000
0000
,
1001
0000
0000
0000
,
1100
0000
0000
0000
,
1100
0000
0000
0000
,
0110
0000
0000
0000
,
1010
0000
0000
0000
,
0100
0000
0100
0000
,
0001
0000
0001
0000
,
1000
0000
1000
0000
,
0010
0000
0010
0000
,
1000
0000
1000
0000
,
0100
0000
0100
0000
,
0001
0000
0001
0000
,
0010
0000
0010
0000
,
0100
0000
0000
0000
,
0000
0000
0000
0000
,
0000
0000
0000
0000
,
0000
0000
0000
0000
,
2000
0000
0000
0000
,
0000
0000
0000
0000
,
0000
0000
0000
0000
,
3000
0000
0000
0000
,
1000
0000
1000
0000
,
0001
0000
0001
0000
,
0100
0000
0100
0000
,
0010
0000
0010
0000
,
1000
0000
1000
0000
,
0100
0000
0100
0000
,
1000
0000
1000
0000
,
1000
0000
1000
0000
,
0010
0000
0010
0000
,
0010
0000
0010
0000
,
0001
0000
0001
0000
,
0001
0000
0001
0200
,
0000
0000
0000
0300
;

//---------------dance-single - ----------------
#NOTEDATA:;
#CHARTNAME:;
#STEPSTYPE:dance-single;
#DESCRIPTION:;
#CHARTSTYLE:;
#DIFFICULTY:Easy;
#METER:4;
#RADARVALUES:0.237015,0.326900,0.093735,0.037494,0.000000,177.000000,167.000000,10.000000,4.000000,0.000000,0.000000,0.000000,0.000000,0.000000,0.237015,0.326900,0.093735,0.037494,0.000000,177.000000,167.000000,10.000000,4.000000,0.000000,0.000000,0.000000,0.000000,0.000000;
#CREDIT:;
#NOTES:
0000
0000
0000
0000
,
0000
0000
0000
0000
,
0000
0000
0000
0000
,
0000
0000
0000
0000
,
0000
0000
0000
0000
,
1000
1000
0001
0000
,
0100
0100
0010
0000
,
0001
0100
0100
0000
,
0010
0100
0100
0000
,
1000
0001
0001
0000
,
0100
0010
0010
0000
,
0100
1000
1000
0000
,
0001
0010
0010
0000
,
0100
0100
1000
0010
,
0001
0001
0001
0001
,
0001
0010
1000
0100
,
0010
0010
0010
1000
,
0200
0000
0000
0000
,
0301
0001
0001
0001
,
0000
0000
0000
0000
,
0000
0000
0000
0000
,
0010
0010
0011
0000
,
1000
1000
1100
0000
,
0001
0001
0010
0000
,
1000
1000
1001
0000
,
0010
0010
0010
0000
,
0100
0100
0100
0000
,
1000
1000
1000
0000
,
0001
0001
0001
0000
,
1010
1010
1010
0000
,
0100
0100
0100
0000
,
1000
1000
1000
0000
,
0001
0001
0001
0000
,
0010
0000
0010
0000
,
0010
0000
0100
0000
,
0100
0000
1000
0000
,
1000
0000
0001
0000
,
0001
0000
0010
0000
,
0010
0000
0010
0000
,
0100
0000
0100
0000
,
1000
1000
1000
0000
,
0001
0001
0100
0000
,
0010
0010
0010
0000
,
0100
0100
0100
0000
,
1000
1000
1000
0000
,
0101
0101
0101
0000
,
0010
0010
0010
0000
,
1000
1000
1000
0000
,
0100
0100
0100
0000
,
0010
0000
0000
0000
,
0000
0000
0000
0000
,
0000
0000
0000
0000
,
0000
0000
0000
0000
,
0200
0000
0010
0000
,
0010
0000
0010
0000
,
0010
0000
0010
0000
,
0010
0000
0310
0000
,
0001
0000
1000
0000
,
0001
0000
1000
0000
,
0010
0000
0100
0000
,
0010
0000
0100
0000
,
0001
0001
1000
0000
,
0100
0100
0010
0000
,
0001
0001
0010
0000
,
1000
1000
0100
0000
,
0010
0010
0001
0100
,
0100
1000
0010
0010
,
1000
0100
0100
0001
,
0010
0010
0001
2002
,
0000
0000
0000
3003
;

//---------------dance-single - ----------------
#NOTEDATA:;
#CHARTNAME:;
#STEPSTYPE:dance-single;
#DESCRIPTION:;
#CHARTSTYLE:;
#DIFFICULTY:Medium;
#METER:6;
#RADARVALUES:0.345480,0.490350,0.187470,0.046867,0.000000,258.000000,238.000000,20.000000,5.000000,0.000000,0.000000,0.000000,0.000000,0.000000,0.345480,0.490350,0.187470,0.046867,0.000000,258.000000,238.000000,20.000000,5.000000,0.000000,0.000000,0.000000,0.000000,0.000000;
#CREDIT:;
#NOTES:
0000
0000
0000
0000
,
0000
0000
0000
0000
,
0000
0000
0000
0000
,
0000
0000
0000
0000
,
0000
0000
0000
0000
,
0001
0001
1000
1000
,
0010
0100
0010
0100
,
1000
0100
1000
0100
,
0001
0100
0001
0100
,
0010
0100
0010
0100
,
0010
1000
0010
1000
,
0010
0001
0010
0001
,
0010
0001
1000
0000
0100
0000
1000
0000
,
0001
0001
0001
0100
,
0010
0100
0010
0100
0010
0100
0010
0100
,
0010
1000
0100
0001
,
1000
1000
1000
1000
,
0220
0000
0000
0000
,
0330
0000
0000
0000
,
0001
0000
1000
0000
,
0001
0000
1000
0000
,
0010
0010
0100
0100
,
1000
1000
0001
0001
,
0100
0000
0000
0010
0100
0000
0010
0000
,
0000
0001
0001
0001
0001
0000
0001
0000
,
0100
1000
0100
1000
,
0001
1000
0001
1000
,
0010
1000
0010
0100
,
1000
0100
0001
1000
,
1001
1001
0100
0010
,
0100
1000
0100
0001
,
1000
0001
1000
0010
,
1000
0100
0001
1000
,
0011
0000
0010
0100
,
0110
0000
1000
0100
,
1100
0000
0001
0100
,
0101
0000
0010
0100
,
0110
0000
1000
0001
,
1001
0000
0100
1000
,
1100
0000
0000
0001
0100
0000
0010
0000
,
0000
0010
0010
0010
0010
0000
0010
0000
,
0100
0100
0001
1000
,
0001
0010
0100
0010
,
1000
0100
0001
1000
,
0001
1000
0010
0100
,
1001
1001
0100
0001
,
1000
0100
0001
1000
,
0001
1000
0010
1000
,
0100
1000
1000
0010
,
0100
0000
0000
0000
,
0000
0000
0000
0000
,
0010
0000
0010
0000
,
0001
0000
0001
0000
,
2000
0000
0001
0000
,
0001
0000
0001
0000
,
0001
0000
0001
0000
,
3001
0000
0001
0000
,
0110
0100
0010
1000
,
1100
0001
1000
0001
,
1100
0010
0001
0100
,
0001
0010
1000
0000
0001
0000
1000
0000
,
0110
0110
0100
0001
,
1000
0001
1000
0001
1000
0001
1000
0001
,
1000
0010
0100
0010
,
1000
0000
0100
0000
0001
0100
1000
0000
,
0011
0011
0100
0001
,
1000
0001
1000
0001
1000
0001
1000
0001
,
1000
1000
1000
0010
,
0001
0000
0100
1000
0001
0000
2002
0000
,
0000
0000
0000
3003
;

//---------------dance-single - ----------------
#NOTEDATA:;
#CHARTNAME:;
#STEPSTYPE:dance-single;
#DESCRIPTION:;
#CHARTSTYLE:;
#DIFFICULTY:Challenge;
#METER:9;
#RADARVALUES:0.622667,0.818715,0.337445,0.046867,0.000000,465.000000,429.000000,36.000000,5.000000,64.000000,0.000000,0.000000,0.000000,0.000000,0.622667,0.818715,0.337445,0.046867,0.000000,465.000000,429.000000,36.000000,5.000000,64.000000,0.000000,0.000000,0.000000,0.000000;
#CREDIT:;
#OFFSET:-0.165000;
#BPMS:0.000000=182.100006
;
#STOPS:;
#DELAYS:;
#WARPS:;
#TIMESIGNATURES:0.000000=4=4
;
#TICKCOUNTS:0.000000=4
;
#COMBOS:0.000000=1
;
#SPEEDS:0.000000=1.000000=0.000000=0
;
#SCROLLS:0.000000=1.000000
,16.000000=1.500000
,49.000000=2.000000
,68.000000=1.000000
,132.000000=1.500000
,162.000000=1.000000
,196.000000=0.500000
,228.000000=1.000000
,236.000000=1.250000
,244.000000=1.500000
,252.000000=1.750000
,260.000000=2.000000
,268.000000=2.250000
,276.000000=1.000000
;
#FAKES:;
#LABELS:0.000000=Song Start
,312.000000=Song End
;
#NOTES:
0000
0000
0000
0000
,
0000
0000
0000
0000
,
0000
0000
0000
0000
,
0000
0000
0000
0000
,
0000
0000
0000
0000
,
MMMM
0100
0010
1000
0001
0100
0001
0100
,
0001
1000
0001
0100
1000
0010
0100
0010
,
1000
0100
1000
0100
1000
0001
0100
0001
,
1000
0100
0001
MMMM
0100
0010
1000
0100
,
0010
1000
0010
0001
0100
1000
0100
0010
,
1000
0001
0100
0001
1000
0001
0100
1000
,
0010
0100
0010
1000
0100
1000
0001
1000
,
0001
0100
0010
MMMM
0100
0001
1000
0001
,
0100
0100
0100
0001
0010
1000
0001
0100
,
0010
0100
0100
0100
0100
1000
0100
1000
,
0100
1000
0010
1000
0100
1000
0010
0100
,
0010
0100
0001
1000
0001
1000
0100
0100
,
0001
0001
0001
0001
,
MMMM
0000
0100
0010
0100
0010
0100
0010
,
0100
0000
0000
0000
0100
0100
0000
0000
,
0100
0000
0100
0000
,
MMMM
0000
0010
0100
0010
1000
0100
0001
,
1000
0001
0100
1000
1000
1000
0010
0001
,
0110
0000
0100
0011
0011
0000
0010
0000
,
0100
0011
0011
0011
0011
1000
0100
0010
,
0001
1000
0001
1000
0001
1000
0001
1000
,
0010
1000
0010
1000
0010
0000
0100
0001
,
0100
0001
0100
0001
0100
1000
0100
1000
,
0100
1000
0100
1000
0100
0100
0010
0000
,
MMMM
1000
1001
0001
1001
1000
1001
0001
,
0001
0010
0100
0010
1000
0100
0001
1000
,
0001
1000
0001
1000
0000
0001
0100
0001
,
1000
0100
1000
0100
1000
0100
1000
0001
,
MMMM
0000
0010
0100
1000
0100
1000
0100
,
0001
0100
1000
0010
1000
0100
1000
0001
,
0100
0001
1000
0010
1000
0010
1000
0100
,
1000
0100
1000
0001
1000
0001
1000
0001
,
1000
0010
1000
0010
1000
0010
1000
0100
,
1000
0100
1000
0100
0001
1000
0001
1000
,
0110
0000
0010
1100
1100
0000
0100
0000
,
0001
0110
0110
0110
0110
0000
0100
0000
,
0001
0100
1000
0100
0001
0100
1000
0100
,
0001
0100
1000
1000
1000
0000
0010
0100
,
0001
0100
0001
0100
0010
0100
0010
0100
,
1000
0100
0010
0010
0010
0000
0100
0000
,
MMMM
0001
1001
1000
1001
0001
1001
1000
,
1000
0010
0100
0010
0100
1000
0001
0100
,
1000
0100
0010
0000
0001
0100
0001
1000
,
0010
0100
0010
1000
0100
0001
1000
0010
,
MMMM
1000
1000
1000
,
1000
1000
1000
1000
,
1000
0020
2000
3030
1000
0000
1000
0000
,
1000
1000
1000
1000
,
MMMM
0002
0010
0000
0100
0000
0000
0000
,
1000
0010
1000
0000
,
0100
0010
0100
0000
,
0010
0010
0013
0000
,
MMMM
0001
0100
0100
0100
0010
1000
1000
,
1000
0100
0001
0001
0001
1000
0010
1000
,
0010
1000
0010
0010
0010
0100
0001
0001
,
0001
1000
0001
1000
0001
1000
0010
1000
,
MMMM
0100
1100
1000
1000
0001
1000
1000
,
1000
0010
1010
0110
0011
0110
1100
0110
,
1001
0010
0100
0100
0100
0001
1000
1000
,
1000
0010
1000
0010
1000
0010
0100
0010
,
MMMM
0100
0110
0100
0010
1000
0100
0001
,
MMMM
0100
0011
1100
0011
1100
0011
1100
,
MMMM
0100
0001
1000
0001
1000
0010
0100
,
MMMM
0100
0010
0001
1000
0001
1000
2002
,
0000
0000
0000
0000
0000
0000
0000
3003
;

//---------------dance-single - ----------------
#NOTEDATA:;
#CHARTNAME:;
#STEPSTYPE:dance-single;
#DESCRIPTION:;
#CHARTSTYLE:;
#DIFFICULTY:Hard;
#METER:8;
#RADARVALUES:0.536966,0.556726,0.121855,0.206216,0.000000,401.000000,388.000000,13.000000,22.000000,0.000000,0.000000,0.000000,0.000000,0.000000,0.536966,0.556726,0.121855,0.206216,0.000000,401.000000,388.000000,13.000000,22.000000,0.000000,0.000000,0.000000,0.000000,0.000000;
#CREDIT:;
#OFFSET:-0.165000;
#BPMS:0.000000=182.100006
;
#STOPS:;
#DELAYS:;
#WARPS:;
#TIMESIGNATURES:0.000000=4=4
;
#TICKCOUNTS:0.000000=4
;
#COMBOS:0.000000=1
;
#SPEEDS:0.000000=1.000000=0.000000=0
;
#SCROLLS:0.000000=1.000000
,16.000000=1.500000
,49.000000=2.000000
,68.000000=1.000000
,132.000000=1.500000
,162.000000=1.000000
,196.000000=0.500000
,228.000000=1.000000
,236.000000=1.250000
,244.000000=1.500000
,252.000000=1.750000
,260.000000=2.000000
,268.000000=2.250000
,276.000000=1.000000
;
#FAKES:;
#LABELS:0.000000=Song Start
,312.000000=Song End
;
#NOTES:
// measure 0
0000
0000
0000
0000
,  // measure 1
0000
0000
0000
0000
,  // measure 2
0000
0000
0000
0000
,  // measure 3
0000
0000
0000
0000
,  // measure 4
0000
0000
0000
0000
,  // measure 5
0010
0100
0001
0010
0001
0100
0010
0001
,  // measure 6
0100
0000
1000
0100
1000
0001
0100
0001
,  // measure 7
0010
0000
0010
0100
0010
1000
0100
1000
,  // measure 8
0010
0000
1000
0010
0100
0001
0010
0100
,  // measure 9
0001
0000
0001
1000
0100
0010
0100
0001
,  // measure 10
0010
0000
0100
1000
0010
1000
0100
0010
,  // measure 11
0001
0000
0001
0010
0100
0010
1000
0010
,  // measure 12
1000
0100
0001
0000
0100
1000
0010
1000
,  // measure 13
0100
0100
0100
1000
0001
0010
1000
0100
,  // measure 14
0001
0100
0100
0100
0100
0010
0100
0010
,  // measure 15
0100
0010
0001
0010
0100
0010
0001
0100
,  // measure 16
0001
0100
1000
0010
1000
0010
0100
0100
,  // measure 17
1000
1000
1000
1000
,  // measure 18
0000
0000
0100
0001
0100
0001
0100
0001
,  // measure 19
0100
0000
0000
0000
0100
0100
0000
0000
,  // measure 20
0000
0000
0000
0000
,  // measure 21
0001
0000
0001
0010
0000
0100
0001
1000
,  // measure 22
0010
0000
0001
0010
0010
0010
0001
1000
,  // measure 23
0100
0000
0100
0010
0010
0000
0001
0000
,  // measure 24
0100
0001
0001
0001
0001
0010
0100
0001
,  // measure 25
1000
0010
1000
0010
1000
0010
1000
0010
,  // measure 26
0001
0010
0001
0010
0001
0000
0100
1000
,  // measure 27
0100
1000
0100
1000
0100
0010
0100
0010
,  // measure 28
0100
0010
0100
0010
0100
0100
0001
0000
,  // measure 29
2002
3003
2002
3003
2002
3003
2002
3003
,  // measure 30
1000
0001
0100
0001
0010
0100
1000
0010
,  // measure 31
1000
0010
1000
0010
0000
1000
0100
1000
,  // measure 32
0010
0100
0010
0100
0010
0100
0010
1000
,  // measure 33
0000
0000
0001
0100
0010
0100
0010
0100
,  // measure 34
1000
0000
0010
0001
0010
0100
0010
1000
,  // measure 35
0100
0000
0010
0001
0010
0001
0010
0100
,  // measure 36
0010
0000
0010
1000
0010
1000
0010
1000
,  // measure 37
0010
0000
0010
0001
0010
0001
0010
0100
,  // measure 38
0010
0000
0010
0100
1000
0010
1000
0010
,  // measure 39
0010
0000
0001
0010
0010
0000
0100
0000
,  // measure 40
1000
0100
0100
0100
0100
0000
0100
0000
,  // measure 41
1000
0100
0010
0100
1000
0100
0010
0100
,  // measure 42
1000
0100
0010
0010
0010
0000
0001
0100
,  // measure 43
1000
0100
1000
0100
0001
0100
0001
0100
,  // measure 44
0010
0100
0001
0001
0001
0000
0100
0000
,  // measure 45
0220
0330
0220
0330
0220
0330
0220
0330
,  // measure 46
0010
0001
0100
0001
0100
0010
1000
0100
,  // measure 47
0010
0100
0001
0000
1000
0100
1000
0010
,  // measure 48
0001
0100
0001
0010
0100
1000
0010
0001
,  // measure 49
0000
0000
0000
0000
,  // measure 50
0000
0000
0000
0000
,  // measure 51
0000
0002
0023
2000
0000
0000
3030
0000
,  // measure 52
0000
0000
0000
0000
,  // measure 53
2000
0001
0100
0000
,  // measure 54
0010
0001
0010
0000
,  // measure 55
0100
0001
0100
0000
,  // measure 56
0001
0001
3001
0000
,  // measure 57
0001
0000
0100
0100
0100
0000
0010
0010
,  // measure 58
0010
0000
1000
1000
1000
0000
0001
0000
,  // measure 59
0010
0000
0001
0001
0001
0000
1000
1000
,  // measure 60
1000
0010
1000
0010
1000
0010
0001
0000
,  // measure 61
0110
0000
0110
0000
0010
1000
0010
0010
,  // measure 62
0010
0100
0001
0001
0001
0001
0001
0100
,  // measure 63
1000
0001
0100
0100
0100
1000
0010
0010
,  // measure 64
0010
0001
0010
0001
0010
0001
0100
0000
,  // measure 65
0101
0000
0101
0000
0001
0010
0100
1000
,  // measure 66
0000
0100
0010
0010
0010
0010
0010
0010
,  // measure 67
0000
0100
1000
0010
1000
0010
0001
0100
,  // measure 68
0000
0100
0001
1000
0010
1000
0010
2002
,  // measure 69
0000
0000
0000
0000
0000
0000
0000
3003
;
