#TITLE:LEADING CYBER;
#SUBTITLE:;
#ARTIST:dj TAKA;
#TITLETRANSLIT:;
#SUBTITLETRANSLIT:;
#ARTISTTRANSLIT:;
#GENRE:;
#CREDIT:;
#BANNER:LEADING CYBER.png;
#BACKGROUND:LEADING CYBER-bg.png;
#LYRICSPATH:;
#CDTITLE:;
#MUSIC:LEADING CYBER.ogg;
#OFFSET:0.000000;
#SAMPLESTART:28.798000;
#SAMPLELENGTH:12.000000;
#SELECTABLE:YES;
#DISPLAYBPM:150.000000;
#BPMS:0.000000=150.000000
,68.000000=150.199997
,72.000000=150.000000
;
#STOPS:
;
#BGCHANGES:;
#KEYSOUNDS:;
#ATTACKS:;

//---------------dance-single - ----------------
#NOTES:
     dance-single:
     :
     Beginner:
     1:
     0.082200,0.115079,0.049603,0.000000,0.000000,58.000000,53.000000,5.000000,0.000000,0.000000,0.000000,0.082200,0.115079,0.049603,0.000000,0.000000,58.000000,53.000000,5.000000,0.000000,0.000000,0.000000:
// measure 0
0000
0000
0000
0000
,  // measure 1
0000
0000
0000
0000
,  // measure 2
0000
0000
0000
0000
,  // measure 3
0000
0000
0000
0000
,  // measure 4
0000
0000
0000
0000
,  // measure 5
0100
0000
0000
0000
,  // measure 6
1000
0000
0000
0000
,  // measure 7
0100
0000
0000
0000
,  // measure 8
0001
0000
0000
0000
,  // measure 9
0110
0000
0000
0000
,  // measure 10
1000
0000
0000
0000
,  // measure 11
0100
0000
0000
0000
,  // measure 12
0001
0000
0000
0000
,  // measure 13
1000
0000
0000
0000
,  // measure 14
0001
0000
0000
0000
,  // measure 15
0010
0000
0000
0000
,  // measure 16
0100
0000
0000
0000
,  // measure 17
0000
0000
0000
0000
,  // measure 18
1001
0000
0000
0000
,  // measure 19
0100
0000
0000
0000
,  // measure 20
0010
0000
0000
0000
,  // measure 21
1000
0000
0000
0000
,  // measure 22
0100
0000
0000
0000
,  // measure 23
0001
0000
0000
0000
,  // measure 24
1000
0000
0000
0000
,  // measure 25
0001
0000
0000
0000
,  // measure 26
0100
0000
0000
0000
,  // measure 27
0001
0000
0000
0000
,  // measure 28
1000
0000
0000
0000
,  // measure 29
0010
0000
0000
0000
,  // measure 30
1000
0000
0000
0000
,  // measure 31
0100
0000
0000
0000
,  // measure 32
0001
0000
0000
0000
,  // measure 33
1000
0000
0000
0000
,  // measure 34
0001
0000
0000
0000
,  // measure 35
0100
0000
0000
0000
,  // measure 36
0001
0000
0000
0000
,  // measure 37
1000
0000
0000
0000
,  // measure 38
0010
0000
0000
0000
,  // measure 39
0100
0000
0000
0000
,  // measure 40
0010
0000
0000
0000
,  // measure 41
1000
0000
0000
0000
,  // measure 42
0110
0000
0000
0000
,  // measure 43
0001
0000
0000
0000
,  // measure 44
1000
0000
0000
0000
,  // measure 45
0001
0000
0000
0000
,  // measure 46
1000
0000
0000
0000
,  // measure 47
0001
0000
0000
0000
,  // measure 48
0010
0000
0000
0000
,  // measure 49
0001
0000
0000
0000
,  // measure 50
1100
0000
0000
0000
,  // measure 51
1000
0000
0000
0000
,  // measure 52
0010
0000
0000
0000
,  // measure 53
0100
0000
0000
0000
,  // measure 54
1000
0000
0000
0000
,  // measure 55
0100
0000
0000
0000
,  // measure 56
0100
0000
0000
0000
,  // measure 57
0001
0000
0000
0000
,  // measure 58
1001
0000
0000
0000
;

//---------------dance-single - ----------------
#NOTES:
     dance-single:
     :
     Easy:
     3:
     0.205499,0.290179,0.089286,0.059524,0.000000,145.000000,136.000000,9.000000,6.000000,0.000000,0.000000,0.205499,0.290179,0.089286,0.059524,0.000000,145.000000,136.000000,9.000000,6.000000,0.000000,0.000000:
// measure 0
0000
0000
0000
0000
,  // measure 1
0000
0000
0000
0000
,  // measure 2
0000
0000
0000
0000
,  // measure 3
0000
0000
0000
0000
,  // measure 4
0000
0000
0000
0000
,  // measure 5
0010
0100
0000
0000
,  // measure 6
1000
0100
0000
0000
,  // measure 7
0001
1000
0000
0000
,  // measure 8
0010
0100
0000
0000
,  // measure 9
0011
0001
0001
0000
,  // measure 10
0010
0010
0010
0000
,  // measure 11
0100
0100
0100
0000
,  // measure 12
0001
1000
0100
0010
,  // measure 13
1000
1000
0000
0000
,  // measure 14
0001
0100
0000
0000
,  // measure 15
0010
0100
0000
0000
,  // measure 16
1000
0100
0000
0000
,  // measure 17
0000
0000
0000
0000
,  // measure 18
2000
3001
0000
0000
,  // measure 19
0020
0130
0000
0000
,  // measure 20
0200
1300
0000
0000
,  // measure 21
0200
0301
0000
0000
,  // measure 22
0011
0011
0000
0000
,  // measure 23
0110
0110
0000
0000
,  // measure 24
1000
1000
0000
0000
,  // measure 25
0100
0010
1000
1000
,  // measure 26
1100
0100
0000
0000
,  // measure 27
0100
0100
0010
0010
,  // measure 28
0001
1000
0000
0000
,  // measure 29
0001
0001
1000
1000
,  // measure 30
0010
0100
0010
0100
,  // measure 31
0001
1000
0001
1000
,  // measure 32
0100
0001
0100
0001
,  // measure 33
0010
0010
0010
0010
,  // measure 34
1000
1000
0000
0000
,  // measure 35
1000
0010
1000
0010
,  // measure 36
0001
0001
0000
0000
,  // measure 37
0001
0100
0001
0100
,  // measure 38
0010
1000
0010
1000
,  // measure 39
0100
0010
0100
0010
,  // measure 40
0001
1000
0001
1000
,  // measure 41
1000
0100
0010
0001
,  // measure 42
0101
0001
0000
0000
,  // measure 43
0010
0100
0000
0000
,  // measure 44
1000
0100
0000
0000
,  // measure 45
0010
0100
0000
0000
,  // measure 46
0001
0100
0000
0000
,  // measure 47
0010
0100
0000
0000
,  // measure 48
1000
0100
0000
0000
,  // measure 49
0001
0100
0000
0000
,  // measure 50
0110
0001
0000
0000
,  // measure 51
0100
0010
0000
0000
,  // measure 52
1000
0100
0000
0000
,  // measure 53
0001
0100
0000
0000
,  // measure 54
0010
0010
0000
0000
,  // measure 55
0100
0001
0000
0000
,  // measure 56
0001
1000
0000
0000
,  // measure 57
0100
0010
0000
0000
,  // measure 58
2002
0000
3003
0000
;
