#VERSION:0.83;
#TITLE:IT'S A SMALL WORLD (Ducking Hardcore MIX);
#SUBTITLE:;
#ARTIST:TOMOSUKE / U1-ASAMi;
#TITLETRANSLIT:;
#SUBTITLETRANSLIT:;
#ARTISTTRANSLIT:;
#GENRE:;
#ORIGIN:;
#CREDIT:;
#BANNER:IT'S A SMALL WORLD (Ducking Hardcore MIX).png;
#BACKGROUND:IT'S A SMALL WORLD (Ducking Hardcore MIX)-bg.png;
#PREVIEWVID:;
#JACKET:;
#CDIMAGE:;
#DISCIMAGE:;
#LYRICSPATH:;
#CDTITLE:;
#MUSIC:IT'S A SMALL WORLD (Ducking Hardcore MIX).mp3;
#OFFSET:-0.245000;
#SAMPLESTART:31.379999;
#SAMPLELENGTH:12.000000;
#SELECTABLE:YES;
#DISPLAYBPM:183.000000;
#BPMS:0.000=183.000;
#STOPS:;
#DELAYS:;
#WARPS:;
#TIMESIGNATURES:0.000=4=4;
#TICKCOUNTS:0.000=4;
#COMBOS:0.000=1;
#SPEEDS:0.000=1.000=0.000=0;
#SCROLLS:0.000=1.000;
#FAKES:;
#LABELS:0.000=Song Start;
#BGCHANGES:;
#KEYSOUNDS:;
#ATTACKS:
;

//---------------dance-single - ----------------
#NOTEDATA:;
#CHARTNAME:;
#STEPSTYPE:dance-single;
#DESCRIPTION:;
#CHARTSTYLE:;
#DIFFICULTY:Challenge;
#METER:16;
#RADARVALUES:0.727750,0.970931,0.615000,0.840500,0.015375,497.000000,437.000000,60.000000,82.000000,0.000000,0.000000,0.000000,0.000000,0.000000,0.727750,0.970931,0.615000,0.840500,0.015375,497.000000,437.000000,60.000000,82.000000,0.000000,0.000000,0.000000,0.000000,0.000000;
#CREDIT:;
#OFFSET:-0.245000;
#BPMS:0.000000=183.000000
,32.000000=366.000000
,96.000000=183.000000
,111.000000=366.000000
,203.000000=183.000000
,205.000000=366.000000
,261.000000=183.000000
,289.000000=366.000000
,305.000000=183.000000
,355.000000=366.000000
;
#STOPS:110.000000=0.328000
,305.000000=2.295000
,306.000000=2.295000
;
#DELAYS:;
#WARPS:;
#TIMESIGNATURES:0.000000=4=4
;
#TICKCOUNTS:0.000000=4
;
#COMBOS:0.000000=1
;
#SPEEDS:0.000000=1.000000=0.000000=0
;
#SCROLLS:0.000000=1.000000
;
#FAKES:;
#LABELS:0.000000=Song Start
;
#DISPLAYBPM:183.000000;
#NOTES:
// measure 0
0000
0000
0000
0000
,  // measure 1
0000
0000
0000
0000
,  // measure 2
0000
0000
0000
0000
,  // measure 3
0000
0000
0000
0000
,  // measure 4
0101
1010
0110
0110
,  // measure 5
1001
1001
0110
0101
,  // measure 6
1001
0110
1100
0101
,  // measure 7
0002
0023
0230
2300
,  // measure 8
3001
0010
1000
0001
,  // measure 9
0110
0000
1000
0001
0010
0000
0100
0000
,  // measure 10
1100
0001
0100
0010
,  // measure 11
1100
0000
0100
0001
0010
0000
1000
0000
,  // measure 12
0011
0100
1000
0010
,  // measure 13
0110
0000
0001
1000
0010
0000
0100
0000
,  // measure 14
1100
0001
1000
0001
,  // measure 15
1010
0000
0001
0010
1000
0000
0100
0000
,  // measure 16
1100
0010
1000
0100
,  // measure 17
0101
0000
1000
0001
0010
0000
0100
0000
,  // measure 18
1001
0001
0100
0001
,  // measure 19
1010
0000
0010
0100
0010
0000
0100
0000
,  // measure 20
1100
0001
1000
0001
,  // measure 21
1100
0010
0001
1000
,  // measure 22
0110
1000
0001
0010
,  // measure 23
1001
1001
1001
1001
,  // measure 24
0100
0000
0000
0000
0010
0000
0000
0000
1000
0000
0000
1000
0000
0000
0001
0000
,  // measure 25
0100
0000
0010
0000
1000
0000
0000
0000
0010
0000
0000
0010
0000
0000
0100
0000
,  // measure 26
1001
0000
0000
0000
1000
0000
0000
0000
1100
0000
0000
0100
0000
0000
0100
0000
,  // measure 27
0101
1001
0110
0010
,  // measure 28
1000
0100
0001
1000
,  // measure 29
0001
1000
0010
0001
,  // measure 30
0100
1000
0100
0010
,  // measure 31
1000
0100
0001
2002
,  // measure 32
3003
0010
0000
0220
,  // measure 33
0330
1000
0000
0000
1000
0000
2002
0000
,  // measure 34
3003
2002
3003
2002
,  // measure 35
3003
0200
0302
0023
,  // measure 36
1030
0100
1000
0001
,  // measure 37
0100
0002
2003
3020
,  // measure 38
0031
0100
1000
0100
,  // measure 39
0001
2000
3002
2003
,  // measure 40
3010
0100
0010
1000
,  // measure 41
0100
0002
2003
3002
,  // measure 42
1003
0001
1000
0100
,  // measure 43
1000
0200
0302
2003
,  // measure 44
3001
2000
3002
0023
,  // measure 45
0031
0200
2300
3200
,  // measure 46
0301
0020
0230
2300
,  // measure 47
3001
0020
0230
0302
,  // measure 48
0000
0023
0000
0230
,  // measure 49
0000
2300
0000
3200
,  // measure 50
0000
0310
0010
1100
,  // measure 51
0001
0001
0002
0000
0103
0000
1000
0000
,  // measure 52
0100
0001
1000
0002
,  // measure 53
2003
3020
0130
1000
,  // measure 54
0100
0001
1000
0002
,  // measure 55
2003
3002
1003
0010
,  // measure 56
0100
0001
1000
0002
,  // measure 57
0203
2300
3010
1000
,  // measure 58
0100
1000
0100
0002
,  // measure 59
2003
3002
1003
0002
,  // measure 60
0203
0320
0031
2000
,  // measure 61
3200
0320
1030
0002
,  // measure 62
0203
2300
3010
0001
,  // measure 63
0100
2000
0001
3002
,  // measure 64
0010
0203
1000
0320
,  // measure 65
0001
0031
0100
1000
,  // measure 66
0100
0000
1001
0000
0010
1000
0101
0000
,  // measure 67
0010
0000
1100
0000
1100
0000
0010
0001
,  // measure 68
0010
0000
0101
0000
0010
0100
1100
0000
,  // measure 69
0001
0000
0101
0000
0101
0000
0010
1000
,  // measure 70
0010
0000
1100
0000
0001
1000
0101
0000
,  // measure 71
0100
0000
1001
0000
1001
0000
0100
0010
,  // measure 72
1000
0001
0100
0000
0010
0000
1000
0000
,  // measure 73
0001
0100
1000
0100
,  // measure 74
0001
1000
0001
0100
,  // measure 75
1000
0002
0000
2003
,  // measure 76
0000
3000
1001
0000
1001
0000
0100
0000
,  // measure 77
0010
1000
0001
0100
,  // measure 78
0001
1000
0010
0100
,  // measure 79
0010
0000
1000
0000
0100
0000
0001
0010
,  // measure 80
1000
0010
0001
0010
1000
0100
0110
0000
,  // measure 81
0100
0000
0010
0001
1000
0001
0100
0000
,  // measure 82
0010
1000
0000
1000
0100
0001
0010
0000
,  // measure 83
0010
0000
0001
0100
1000
0100
0001
0000
,  // measure 84
0010
0001
0000
0001
0100
1000
0011
0000
,  // measure 85
0110
0000
0100
0001
0100
0010
0100
0000
,  // measure 86
1000
0001
0000
0001
1000
0100
0011
0000
,  // measure 87
0101
0000
0010
0100
0010
1000
0100
0000
,  // measure 88
0001
1000
0000
1000
0010
0100
0010
0000
,  // measure 89
1000
0100
0001
1000
,  // measure 90
0001
0100
1000
0010
,  // measure 91
0001
0100
0001
1000
,  // measure 92
0001
1000
0100
0002
,  // measure 93
0000
0023
0000
0230
,  // measure 94
0000
0320
0000
2030
,  // measure 95
0000
3200
0000
0302
,  // measure 96
0000
0203
0000
0310
,  // measure 97
1000
0001
1000
0001
,  // measure 98
0100
1000
0100
0001
,  // measure 99
0010
1000
0001
0100
,  // measure 100
0001
0000
1000
0000
0100
0000
0010
0001
,  // measure 101
1000
0100
0001
1000
0001
0010
0001
0100
,  // measure 102
1000
0010
1000
0100
0001
1000
0001
0010
,  // measure 103
0001
0100
1000
0010
0100
1000
0100
0001
,  // measure 104
1000
0010
0001
0100
1000
0010
0002
0000
,  // measure 105
0000
0003
0000
0000
;
