#VERSION:0.83;
#TITLE:Healing Vision;
#SUBTITLE:;
#ARTIST:DE-SIRE;
#TITLETRANSLIT:;
#SUBTITLETRANSLIT:;
#ARTISTTRANSLIT:;
#GENRE:;
#ORIGIN:;
#CREDIT:;
#BANNER:Healing Vision (From Konamix).PNG;
#BACKGROUND:Healing Vision-bg.png;
#PREVIEWVID:;
#JACKET:;
#CDIMAGE:;
#DISCIMAGE:;
#LYRICSPATH:;
#CDTITLE:;
#MUSIC:Healing Vision.mp3;
#OFFSET:0.000000;
#SAMPLESTART:19.591999;
#SAMPLELENGTH:12.000000;
#SELECTABLE:YES;
#BPMS:0.000=98.000,
32.000=196.000,
200.000=49.000,
205.000=196.000,
271.000=98.000;
#STOPS:;
#DELAYS:;
#WARPS:;
#TIMESIGNATURES:0.000=4=4;
#TICKCOUNTS:0.000=4;
#COMBOS:0.000=1;
#SPEEDS:0.000=1.000=0.000=0;
#SCROLLS:0.000=1.000;
#FAKES:;
#LABELS:0.000=Song Start;
#BGCHANGES:;
#KEYSOUNDS:;
#ATTACKS:
;

//---------------dance-single - ----------------
#NOTEDATA:;
#CHARTNAME:;
#STEPSTYPE:dance-single;
#DESCRIPTION:;
#CHARTSTYLE:;
#DIFFICULTY:Beginner;
#METER:4;
#RADARVALUES:0.129645,0.169234,0.039457,0.157828,0.000000,92.000000,88.000000,4.000000,16.000000,0.000000,0.000000,0.000000,0.000000,0.000000,0.129645,0.169234,0.039457,0.157828,0.000000,92.000000,88.000000,4.000000,16.000000,0.000000,0.000000,0.000000,0.000000,0.000000;
#CREDIT:;
#NOTES:
// measure 0
0000
0000
0000
0000
,  // measure 1
0000
0000
0000
0000
,  // measure 2
0100
0000
0000
0000
,  // measure 3
1000
0000
0000
0000
,  // measure 4
0100
0000
0000
0000
,  // measure 5
0001
0000
0000
0000
,  // measure 6
0001
0000
0000
0000
,  // measure 7
1000
0000
0000
0000
,  // measure 8
0220
0000
0330
0000
,  // measure 9
1000
0000
0000
0000
,  // measure 10
0001
0000
0000
0000
,  // measure 11
0200
0000
0320
0000
,  // measure 12
0031
0000
0000
1000
,  // measure 13
0100
0000
0000
0000
,  // measure 14
0010
0000
0100
0000
,  // measure 15
0001
0000
0000
0000
,  // measure 16
1000
0000
0000
0000
,  // measure 17
0001
0000
0000
0000
,  // measure 18
1000
0000
0000
0000
,  // measure 19
0002
0000
0203
0000
,  // measure 20
0310
0000
0000
1000
,  // measure 21
0001
0000
0000
0000
,  // measure 22
1000
0000
0000
0000
,  // measure 23
0001
0000
0000
0000
,  // measure 24
1100
0000
0000
0000
,  // measure 25
0100
0000
0000
0000
,  // measure 26
0001
0000
0000
0000
,  // measure 27
2000
0000
3020
0000
,  // measure 28
0031
0000
0000
0100
,  // measure 29
1000
0000
0000
0000
,  // measure 30
0001
0000
0010
0000
,  // measure 31
0100
0000
0000
0000
,  // measure 32
0010
0000
0000
0000
,  // measure 33
1000
0000
0000
0000
,  // measure 34
0001
0000
0000
0000
,  // measure 35
0200
0000
2300
0000
,  // measure 36
3001
0000
0000
0010
,  // measure 37
0100
0000
0000
0000
,  // measure 38
1000
0000
0000
0000
,  // measure 39
0010
0000
0010
0000
,  // measure 40
0110
0000
0000
0000
,  // measure 41
0000
0000
0000
0000
,  // measure 42
1100
0000
0000
0000
,  // measure 43
1000
0000
0000
0000
,  // measure 44
0002
0000
0000
0000
,  // measure 45
0010
0000
0000
0000
,  // measure 46
0103
0000
0000
0000
,  // measure 47
0010
0000
0000
0000
,  // measure 48
1000
0000
0000
0000
,  // measure 49
0002
0000
0000
0000
,  // measure 50
0200
0000
0000
0000
,  // measure 51
0000
0000
0000
0000
0000
0000
0000
0303
1000
0000
0000
0000
0000
0000
0000
0000
0000
0000
0000
0000
0000
0000
0000
0000
0000
0000
0000
0000
0000
0000
0000
0000
,  // measure 52
0000
0100
0000
0000
,  // measure 53
0000
1000
0000
0000
,  // measure 54
0000
0002
0000
0023
,  // measure 55
0000
0130
0000
0000
,  // measure 56
0001
0100
0000
0000
,  // measure 57
0000
0010
0000
0001
,  // measure 58
0000
1000
0000
0000
,  // measure 59
0000
0100
0000
0100
,  // measure 60
0000
0010
0000
0010
,  // measure 61
0000
1000
0000
1000
,  // measure 62
0000
0001
0000
0001
,  // measure 63
0000
0010
0000
0010
,  // measure 64
0000
0001
0000
0100
,  // measure 65
0000
1000
0000
0100
,  // measure 66
0000
0001
0000
0010
,  // measure 67
0010
0000
0000
0200
,  // measure 68
0000
0000
0000
0000
0000
0300
0000
0000
;

//---------------dance-single - ----------------
#NOTEDATA:;
#CHARTNAME:;
#STEPSTYPE:dance-single;
#DESCRIPTION:;
#CHARTSTYLE:;
#DIFFICULTY:Hard;
#METER:12;
#RADARVALUES:0.549581,0.835380,0.187421,0.009864,0.128235,390.000000,371.000000,19.000000,1.000000,0.000000,0.000000,0.000000,0.000000,0.000000,0.549581,0.835380,0.187421,0.009864,0.128235,390.000000,371.000000,19.000000,1.000000,0.000000,0.000000,0.000000,0.000000,0.000000;
#CREDIT:;
#OFFSET:0.000000;
#BPMS:0.000000=98.000000
,32.000000=196.000000
,196.000000=49.000000
,201.000000=196.000000
,267.000000=98.000000
;
#STOPS:160.000000=1.224000
;
#DELAYS:;
#WARPS:;
#TIMESIGNATURES:0.000000=4=4
;
#TICKCOUNTS:0.000000=4
;
#COMBOS:0.000000=1
;
#SPEEDS:0.000000=1.000000=0.000000=0
;
#SCROLLS:0.000000=1.000000
;
#FAKES:;
#LABELS:0.000000=Song Start
;
#NOTES:
// measure 0
0000
0000
0000
0000
,  // measure 1
0000
0000
0000
0000
,  // measure 2
0001
0000
1000
0000
0100
0010
0001
0000
0100
1000
0000
0010
0000
1000
0000
0001
,  // measure 3
0100
0000
0000
0010
1000
0000
0000
0100
0010
0000
0000
0001
1000
0001
1000
0000
,  // measure 4
0010
0000
0100
0001
1000
0000
0010
0000
0100
0001
0000
1000
0000
0001
0000
0100
,  // measure 5
1000
0000
0001
0000
0100
0010
0100
0000
1000
0000
0100
0000
0001
0100
1000
0000
,  // measure 6
0010
0000
0100
0000
0010
1000
0010
0000
0100
0010
0000
1000
0000
0010
0000
0000
,  // measure 7
0100
0001
1000
0001
1000
0010
0100
0000
,  // measure 8
0001
0000
0001
0000
0001
0100
1000
0000
,  // measure 9
0010
0000
0010
0000
0010
0100
1000
0000
,  // measure 10
0100
0000
0100
0000
0001
1000
0010
0000
,  // measure 11
0001
0000
0001
0000
1000
0100
0100
0000
,  // measure 12
0001
0000
0001
0000
0010
0001
0010
0000
,  // measure 13
0100
0000
0001
0000
0001
1000
0100
0000
,  // measure 14
1000
0000
1000
0001
0000
0001
0000
0100
,  // measure 15
0010
0000
1000
0001
0100
0000
0010
0000
,  // measure 16
0100
0000
0100
0000
0001
1000
0001
0000
,  // measure 17
0100
0000
0010
0000
1000
0100
1000
0000
,  // measure 18
0010
0000
0001
0000
1000
0100
0001
0000
,  // measure 19
0010
0000
0100
0000
1000
0001
0100
0000
,  // measure 20
1000
0000
0001
0000
0010
1000
0001
0000
,  // measure 21
0100
0000
0001
0000
0010
0100
1000
0000
,  // measure 22
0001
0000
0100
1000
0000
1000
0000
0100
,  // measure 23
0001
0000
1000
0001
1000
0000
0010
0000
,  // measure 24
0110
0000
0100
0001
0000
0001
0000
1000
,  // measure 25
0010
0000
0100
0010
0000
0010
0000
1000
,  // measure 26
0100
0000
0001
0100
0000
0100
0000
0001
,  // measure 27
1000
0000
0100
1000
0000
0010
0000
0010
,  // measure 28
0001
0000
1000
0100
0000
0001
0000
0001
,  // measure 29
0100
0000
0001
0100
0000
0100
0000
1000
,  // measure 30
0010
0000
1000
0100
0000
0001
0000
1000
,  // measure 31
0100
0010
0001
0000
1000
0001
0100
0000
,  // measure 32
0010
0100
0001
0000
0010
0000
0001
0000
,  // measure 33
0100
0010
1000
0000
0100
0000
0001
0000
,  // measure 34
1000
0001
0010
0000
0100
0000
0010
0000
,  // measure 35
0001
1000
0100
0000
0001
0000
1000
0000
,  // measure 36
0001
0100
1000
0000
0100
0000
0001
0000
,  // measure 37
1000
0001
0010
0000
1000
0000
0100
0000
,  // measure 38
0001
0010
1000
0000
0001
0000
0100
0000
,  // measure 39
0001
0010
1000
0000
0100
0010
0100
0000
,  // measure 40
1001
1000
0001
1000
,  // measure 41
0001
0100
0001
0100
1000
0010
1000
0010
,  // measure 42
0100
1000
0100
1000
0001
0100
0001
0100
,  // measure 43
0010
0001
0010
0001
1000
0010
1000
0010
,  // measure 44
0200
0000
0000
0000
,  // measure 45
0310
1000
0010
1000
0100
0001
1000
0001
,  // measure 46
1000
0100
0001
1000
0010
0010
0010
0000
,  // measure 47
0100
0001
1000
0001
1000
0010
0001
0100
,  // measure 48
0001
0000
0000
0001
0000
0000
0001
0000
0000
0000
0000
0000
0000
0000
0000
0000
,  // measure 49
0110
0110
0000
0000
0000
0000
0011
0011
0000
1100
1100
0000
0000
0101
0101
0000
,  // measure 50
1001
1001
0000
0000
0010
0000
0000
0000
0100
0000
0000
0000
1000
0000
0001
0000
,  // measure 51
0010
0000
1000
0000
0001
0000
0001
0100
,  // measure 52
0100
0000
1000
0000
0010
0000
0100
1000
,  // measure 53
0010
0000
1000
0000
0001
0000
0100
0001
,  // measure 54
0001
0000
0010
0000
1000
0000
0001
0100
,  // measure 55
1000
0000
0001
0000
0001
0000
1000
0001
,  // measure 56
0100
0000
1000
0000
0001
0000
0100
0100
,  // measure 57
1000
0000
0010
0100
0001
1000
0100
1000
,  // measure 58
0001
0000
0110
0000
0100
0000
1000
0100
,  // measure 59
0001
0000
0101
0000
0010
0000
0100
1000
,  // measure 60
0001
0000
1001
0000
0100
0000
0001
0100
,  // measure 61
1000
0000
1100
0000
0010
0000
1000
0001
,  // measure 62
0100
0000
0110
0000
0001
0000
1000
1000
,  // measure 63
0001
0000
1100
0000
0010
0000
1000
0100
,  // measure 64
0010
0000
0101
0000
0100
0000
0001
0010
,  // measure 65
1000
0000
0010
0000
0001
1000
0100
0100
,  // measure 66
0100
0100
0000
0000
0000
0000
0001
0000
,  // measure 67
0100
1000
0100
0010
;

//---------------dance-single - ----------------
#NOTEDATA:;
#CHARTNAME:;
#STEPSTYPE:dance-single;
#DESCRIPTION:;
#CHARTSTYLE:;
#DIFFICULTY:Easy;
#METER:7;
#RADARVALUES:0.286064,0.339084,0.029593,0.069050,0.000000,203.000000,200.000000,3.000000,7.000000,0.000000,0.000000,0.000000,0.000000,0.000000,0.286064,0.339084,0.029593,0.069050,0.000000,203.000000,200.000000,3.000000,7.000000,0.000000,0.000000,0.000000,0.000000,0.000000;
#CREDIT:;
#NOTES:
// measure 0
0000
0000
0000
0000
,  // measure 1
0000
0000
0000
0000
,  // measure 2
0001
0000
0000
0000
,  // measure 3
0100
0100
0100
0100
,  // measure 4
0001
0000
0000
0000
,  // measure 5
0001
0000
0000
0000
,  // measure 6
1000
0000
0000
0000
,  // measure 7
0020
0000
0000
0000
,  // measure 8
1030
1000
1000
0000
,  // measure 9
0001
0001
0001
0000
,  // measure 10
0100
0100
0100
0000
,  // measure 11
0010
0010
1000
1000
,  // measure 12
0001
0001
0001
0000
,  // measure 13
0100
0100
0100
0000
,  // measure 14
0010
0010
0010
0000
,  // measure 15
1000
1000
0001
0001
,  // measure 16
0100
0100
0100
0000
,  // measure 17
0010
0010
0010
0001
,  // measure 18
0100
1000
0001
1000
,  // measure 19
0001
0000
0010
0000
,  // measure 20
0100
0001
1000
0001
,  // measure 21
1000
1000
1000
0000
,  // measure 22
0010
0010
0010
0000
,  // measure 23
0100
0100
0100
0000
,  // measure 24
0001
0001
0001
0000
,  // measure 25
0100
0100
0100
0000
,  // measure 26
0010
0010
0010
0000
,  // measure 27
1000
1000
0001
0001
,  // measure 28
0100
0100
0100
0000
,  // measure 29
0010
0010
0010
0000
,  // measure 30
1000
1000
1000
0000
,  // measure 31
0100
0100
0100
0100
,  // measure 32
0001
0001
0001
0000
,  // measure 33
0010
0010
0010
0000
,  // measure 34
0001
0001
0001
0000
,  // measure 35
0100
0100
0010
0010
,  // measure 36
1000
1000
1000
0000
,  // measure 37
0100
0100
0100
0000
,  // measure 38
0010
0010
1000
1000
,  // measure 39
0100
0100
0001
0001
,  // measure 40
1001
0000
0000
0000
,  // measure 41
0000
0000
0000
0000
,  // measure 42
0010
0010
0010
0010
,  // measure 43
0010
0010
0010
0010
,  // measure 44
0210
0010
0010
0010
,  // measure 45
0000
0000
0000
0000
,  // measure 46
1300
1000
1000
1000
,  // measure 47
0001
0001
0001
0001
,  // measure 48
0010
0010
0010
0010
,  // measure 49
0200
0000
0000
0320
0000
0000
0000
0000
,  // measure 50
2000
0000
0000
0000
,  // measure 51
0000
0000
0000
0000
0000
0000
0000
3030
0100
0000
0000
0000
0000
0000
0000
0000
0100
0000
0000
0000
0000
0000
0000
0000
0100
0000
0000
0000
0000
0000
0000
0000
,  // measure 52
0000
0001
0001
0001
,  // measure 53
0000
0010
0010
0010
,  // measure 54
0000
0100
0100
1000
,  // measure 55
1000
0010
0010
0010
,  // measure 56
0000
0100
0100
0100
,  // measure 57
0000
0001
0001
0001
,  // measure 58
0000
1000
1000
1000
,  // measure 59
0000
0010
0010
0100
,  // measure 60
1000
0100
0100
0001
,  // measure 61
1000
0001
0001
1000
,  // measure 62
0010
0001
0100
0001
,  // measure 63
1000
0010
0010
0010
,  // measure 64
1000
0100
0100
0100
,  // measure 65
0001
1000
1000
0001
,  // measure 66
1000
0001
1000
0010
,  // measure 67
0010
0000
0000
0220
,  // measure 68
0000
0000
0000
0330
;

//---------------dance-single - ----------------
#NOTEDATA:;
#CHARTNAME:;
#STEPSTYPE:dance-single;
#DESCRIPTION:;
#CHARTSTYLE:;
#DIFFICULTY:Challenge;
#METER:14;
#RADARVALUES:0.708818,0.902211,0.207150,0.009864,0.271267,503.000000,482.000000,21.000000,1.000000,0.000000,0.000000,0.000000,0.000000,0.000000,0.708818,0.902211,0.207150,0.009864,0.271267,503.000000,482.000000,21.000000,1.000000,0.000000,0.000000,0.000000,0.000000,0.000000;
#CREDIT:;
#OFFSET:0.000000;
#BPMS:0.000000=98.000000
,32.000000=196.000000
,196.000000=49.000000
,201.000000=196.000000
,267.000000=98.000000
;
#STOPS:160.000000=1.224000
;
#DELAYS:;
#WARPS:;
#TIMESIGNATURES:0.000000=4=4
;
#TICKCOUNTS:0.000000=4
;
#COMBOS:0.000000=1
;
#SPEEDS:0.000000=1.000000=0.000000=0
;
#SCROLLS:0.000000=1.000000
;
#FAKES:;
#LABELS:0.000000=Song Start
;
#NOTES:
// measure 0
0000
0000
0000
0000
,  // measure 1
0000
0000
0000
0000
,  // measure 2
0001
0010
0100
1000
0010
1000
0100
0000
0001
1000
0000
0100
0000
0010
0000
1000
,  // measure 3
0100
0000
0000
0010
0001
0000
0000
0100
0010
0000
0000
1000
0100
1000
0100
0000
,  // measure 4
1001
0000
0010
0100
0001
1000
0100
0000
0010
0001
0000
0100
0000
0001
0000
1000
,  // measure 5
0010
0000
0100
0000
1000
0001
0100
0000
0010
1000
0100
0001
1000
0100
0010
0000
,  // measure 6
0001
0000
0010
0000
1000
0000
0001
0000
0100
0000
0000
0000
0010
0000
1000
0000
0100
0000
0001
0000
0010
0000
0000
0100
0000
0000
0010
0000
0000
0000
1000
0000
,  // measure 7
0100
0000
0000
0001
0010
0000
0000
0010
0100
1000
0001
1000
0001
0000
0000
0000
,  // measure 8
0110
1000
0001
0100
0001
1000
0000
0000
,  // measure 9
0001
0100
1000
0100
0001
0010
0000
0000
,  // measure 10
0100
0010
1000
0100
0001
0100
0000
0000
,  // measure 11
0010
1000
0001
1000
0100
0001
0000
0000
,  // measure 12
0010
0001
0100
0001
0100
1000
0000
0000
,  // measure 13
0010
1000
0001
1000
0001
1000
0000
0000
,  // measure 14
0010
0001
1000
0100
0000
0100
0000
0000
,  // measure 15
0010
0100
0001
1000
0000
0010
0100
0000
,  // measure 16
1100
0001
1000
0001
1000
0010
0000
0000
,  // measure 17
0100
0001
1000
0001
1000
0100
0001
1000
,  // measure 18
0010
0001
0100
0001
1000
0010
0100
0010
,  // measure 19
0100
1000
0001
0100
1000
0100
1000
0000
,  // measure 20
0001
1000
0100
0001
0000
0010
1000
0100
,  // measure 21
0001
1000
0100
0001
1000
0100
0000
0000
,  // measure 22
0010
1000
0100
0001
1000
0001
0000
0000
,  // measure 23
0100
0001
0100
0001
1000
0010
0000
0000
,  // measure 24
1100
1000
0001
1000
0001
0100
0000
0000
,  // measure 25
0010
0010
1000
0100
0001
1000
0000
0000
,  // measure 26
0100
0001
1000
0001
1000
0010
0000
0000
,  // measure 27
0100
0001
1000
0010
0001
0100
0000
0000
,  // measure 28
0001
1000
0100
0001
1000
0010
0000
0000
,  // measure 29
0100
0001
1000
0001
1000
0010
0000
0000
,  // measure 30
0100
0001
1000
0010
0001
0100
0000
0000
,  // measure 31
0010
0100
0010
1000
0001
0100
1000
0001
,  // measure 32
0100
0010
0100
0010
1000
0100
0000
0000
,  // measure 33
0001
0100
0001
1000
0010
1000
0000
0000
,  // measure 34
0100
0001
1000
0010
1000
0100
0000
0000
,  // measure 35
0001
0100
0001
1000
0010
1000
0000
0000
,  // measure 36
0100
0001
1000
0001
1000
0100
0000
0000
,  // measure 37
0010
0100
0010
1000
0100
1000
0000
0000
,  // measure 38
0001
0100
0001
1000
0010
1000
0000
0000
,  // measure 39
1000
0000
0001
0000
0100
0000
1000
0000
0001
0000
0100
0000
1000
0001
1000
0000
,  // measure 40
0110
0000
0000
0000
0010
0100
0010
0100
0010
0100
0001
0000
1000
0000
0000
0000
,  // measure 41
1001
0000
0100
0000
0010
0000
0100
0000
0010
1000
0010
0000
0001
0000
0100
0000
,  // measure 42
0101
0000
1000
0000
0100
0000
1000
0000
0100
0001
0100
0000
1000
0000
0010
0000
,  // measure 43
1100
0000
0001
0000
0010
0000
1000
0001
0100
0001
1000
0000
0001
0000
0100
0000
,  // measure 44
0010
0010
0010
0010
0010
0010
0010
0010
,  // measure 45
1100
0000
0010
0000
0001
0100
0001
1000
0010
0000
0100
0000
0001
0000
1000
0000
,  // measure 46
0100
0010
0100
0000
1000
0001
1000
0000
0100
0001
0100
0010
0100
0000
0000
0000
,  // measure 47
0110
0000
0001
0000
1000
0000
0100
1000
0010
0100
0001
1000
0100
0000
0000
0000
,  // measure 48
0010
0000
0000
0010
0000
0000
0010
0000
0000
0000
0000
0000
0000
0000
0000
0000
,  // measure 49
0011
0011
0000
0000
0000
0000
1100
1100
0000
1010
1010
0000
0000
0101
0101
0000
,  // measure 50
1001
1001
0000
0000
0010
0000
0100
0000
0001
0000
1000
0000
0100
0000
0001
0000
,  // measure 51
0100
0000
0100
0001
1000
0001
1000
0100
,  // measure 52
0010
0000
0001
1000
0001
1000
0100
0010
,  // measure 53
0100
0000
0100
0001
1000
0010
0001
1000
,  // measure 54
0100
0000
0100
0001
1000
0001
1000
0100
,  // measure 55
0010
0000
1000
0100
0001
1000
0100
0001
,  // measure 56
0010
0000
0010
0001
0100
0010
0100
1000
,  // measure 57
0100
1000
0001
0100
0001
1000
0100
0010
,  // measure 58
0000
0000
0100
0001
1000
0010
0001
0100
,  // measure 59
0001
1000
0010
1000
0100
0001
1000
0001
,  // measure 60
1000
0010
0001
0100
0001
1000
0100
1000
,  // measure 61
0001
0100
0001
1000
0010
1000
0100
0001
,  // measure 62
1000
0010
0001
0100
0001
1000
0100
0001
,  // measure 63
1000
0010
0001
0100
0001
1000
0100
1000
,  // measure 64
0001
1000
0010
0001
0100
0001
1000
0010
,  // measure 65
0100
0001
1000
0010
0001
0100
0010
0010
,  // measure 66
0010
0010
0000
0000
0000
0000
2001
0000
,  // measure 67
0010
0001
0100
3010
;

//---------------dance-single - ----------------
#NOTEDATA:;
#CHARTNAME:;
#STEPSTYPE:dance-single;
#DESCRIPTION:;
#CHARTSTYLE:;
#DIFFICULTY:Medium;
#METER:10;
#RADARVALUES:0.391752,0.405421,0.128235,0.305792,0.004932,278.000000,265.000000,13.000000,31.000000,0.000000,0.000000,0.000000,0.000000,0.000000,0.391752,0.405421,0.128235,0.305792,0.004932,278.000000,265.000000,13.000000,31.000000,0.000000,0.000000,0.000000,0.000000,0.000000;
#CREDIT:;
#NOTES:
// measure 0
0000
0000
0000
0000
,  // measure 1
0000
0000
0000
0000
,  // measure 2
0100
0000
1000
0000
0001
0010
1000
0000
,  // measure 3
0100
0100
0010
0001
,  // measure 4
0101
0000
1000
0000
0010
1000
0010
0000
,  // measure 5
0100
0000
0010
0000
1000
0001
0001
0000
,  // measure 6
0100
0000
0001
0000
1000
0100
0010
0000
,  // measure 7
0001
0100
1000
0000
0010
1000
0100
0000
,  // measure 8
0020
0100
0100
0100
,  // measure 9
1030
0100
0001
1000
,  // measure 10
0001
1000
0001
0100
,  // measure 11
0002
0010
2003
0100
,  // measure 12
3200
1000
0001
0302
,  // measure 13
0010
1000
0010
1003
,  // measure 14
0100
0000
0010
1000
0000
1000
0000
0000
,  // measure 15
0100
0001
1000
0001
,  // measure 16
0102
1000
0100
1000
,  // measure 17
0103
0001
1000
0001
,  // measure 18
1000
0010
1000
0100
,  // measure 19
0020
0001
2030
0010
,  // measure 20
3002
1000
0100
0203
,  // measure 21
1000
0001
1000
0310
,  // measure 22
0010
0100
1000
0001
,  // measure 23
0100
0100
0100
0100
,  // measure 24
1020
0100
0001
1000
,  // measure 25
0230
0010
0001
1000
,  // measure 26
0302
0010
1000
0100
,  // measure 27
2003
0001
3200
0010
,  // measure 28
0302
1000
0100
0023
,  // measure 29
1000
0001
1000
0001
,  // measure 30
2030
0100
0010
0001
,  // measure 31
3100
0100
0100
0100
,  // measure 32
0102
0100
1000
0010
,  // measure 33
0023
1000
0100
1000
,  // measure 34
0032
0100
1000
0100
,  // measure 35
2003
0001
3200
0010
,  // measure 36
2300
0001
0100
3020
,  // measure 37
0001
0100
0001
1000
,  // measure 38
0130
0001
1000
0001
,  // measure 39
0100
1000
0001
1000
,  // measure 40
2002
0000
0000
0000
,  // measure 41
3003
0010
0010
0010
,  // measure 42
1000
0000
0001
0000
1000
0000
0001
0100
,  // measure 43
1000
0000
0001
0000
1000
0000
0001
0100
,  // measure 44
1000
0000
0001
0000
1000
0000
0001
0010
,  // measure 45
2000
0010
0010
0010
,  // measure 46
3100
0000
0010
0000
0100
0000
0010
0001
,  // measure 47
1000
0000
0100
0000
0001
0000
1000
0010
,  // measure 48
0001
1000
0001
0100
,  // measure 49
0010
0000
0000
0100
0000
0000
0100
0000
0000
0000
0000
0000
0000
0000
0000
0000
,  // measure 50
0220
0000
0000
0000
,  // measure 51
0000
0000
0000
0330
1000
0000
0000
0000
1000
0000
0000
0000
0001
0000
0000
0000
,  // measure 52
0100
0001
1000
0010
,  // measure 53
0001
0100
0001
1000
,  // measure 54
0001
1000
0100
0001
,  // measure 55
1000
0010
1000
0100
,  // measure 56
0001
1000
0001
1000
,  // measure 57
0010
0001
0100
0001
,  // measure 58
1000
0010
1000
0100
,  // measure 59
0000
0101
0001
0001
,  // measure 60
0010
1100
1000
1000
,  // measure 61
0100
0110
0010
0010
,  // measure 62
0001
1100
1000
1000
,  // measure 63
0010
0101
0100
0100
,  // measure 64
0001
1001
1000
0001
,  // measure 65
1000
0110
0100
0001
,  // measure 66
1000
0000
0010
0000
0100
0000
0001
1000
,  // measure 67
0001
1000
0000
0000
0000
0000
0020
0000
,  // measure 68
0000
0000
0030
0000
;
