#TITLE:Healing Vision ~Angelic Mix~;
#SUBTITLE:;
#ARTIST:2MB;
#TITLETRANSLIT:;
#SUBTITLETRANSLIT:;
#ARTISTTRANSLIT:;
#GENRE:;
#CREDIT:;
#BANNER:Healing Vision~Angelic mix~.png;
#BACKGROUND:Healing Vision~Angelic mix~-bg.png;
#LYRICSPATH:;
#CDTITLE:;
#MUSIC:Healing Vision~Angelic mix~.ogg;
#OFFSET:-4.893000;
#SAMPLESTART:-4.893000;
#SAMPLELENGTH:12.000000;
#SELECTABLE:YES;
#BPMS:0.000000=49.000000
,4.000000=196.000000
,292.000000=46.000000
;
#STOPS:
;
#BGCHANGES:;
#KEYSOUNDS:;
#ATTACKS:;

//---------------dance-single - ----------------
#NOTES:
     dance-single:
     :
     Beginner:
     3:
     0.198413,0.337963,0.120370,0.046296,0.000000,150.000000,137.000000,13.000000,5.000000,0.000000,0.000000,0.198413,0.337963,0.120370,0.046296,0.000000,150.000000,137.000000,13.000000,5.000000,0.000000,0.000000:
0000
0000
0000
0000
,
1001
0000
0000
0000
,
0010
0000
0000
0000
,
0100
0000
0000
0000
,
0010
0000
0000
0000
,
0100
0000
0000
0000
,
0001
0000
0000
0000
,
0010
0000
0000
0000
,
1000
0000
0000
0000
,
0110
0000
0010
0000
,
0001
0000
1000
0000
,
0001
0000
0100
0000
,
0001
0000
0010
0000
,
1000
0000
0100
0000
,
1000
0000
0001
0000
,
0100
0000
1000
0000
,
0010
0000
0100
0000
,
1001
0000
0010
0000
,
0100
0000
1000
0000
,
0001
0000
0100
0000
,
0010
0000
0100
0000
,
1001
0000
0000
0000
,
0110
0000
0000
0000
,
1001
0000
0000
0000
,
0010
0010
0010
0010
,
0101
0000
0010
0000
,
0100
0000
0001
0000
,
1000
0000
0010
0000
,
0001
0000
0100
0000
,
0001
0000
1000
0000
,
0100
0000
0010
0000
,
0100
0000
0100
0000
,
1000
0000
0001
0000
,
0110
0000
0010
0000
,
0010
0000
0100
0000
,
0100
0000
0001
0000
,
0001
0000
1000
0000
,
0010
0000
0010
0000
,
0010
0000
0100
0000
,
0001
0000
1000
0000
,
1000
0000
0001
0000
,
0101
0001
0001
0001
,
0100
0100
0100
0100
,
1000
1000
1000
1000
,
0010
0000
0000
0000
,
0010
0000
0010
0000
,
0100
0000
0100
0000
,
0001
0000
0001
0000
,
1000
0000
1000
0000
,
0101
0000
0000
0000
,
1001
0000
0000
0000
,
0110
0000
0000
0000
,
1100
0000
0000
0000
,
0010
0000
0010
0000
,
0100
0000
0100
0000
,
0001
0000
0001
0000
,
1000
0000
0002
0000
,
2003
0000
0100
0000
,
0010
0000
0001
0000
,
0100
0000
0001
0000
,
3010
0000
0010
0000
,
0020
0000
1000
0000
,
0100
0000
1000
0000
,
0100
0000
0001
0000
,
1030
0000
0010
0000
,
0002
0000
0100
0000
,
0100
0000
1000
0000
,
0010
0000
0100
0000
,
0013
0000
0010
0000
,
2000
0000
0010
0000
,
0001
0000
0100
0000
,
0001
0000
0010
0000
,
3100
0000
0001
0000
,
0010
0000
0000
0000
;

//---------------dance-single - ----------------
#NOTES:
     dance-single:
     :
     Easy:
     5:
     0.370370,0.371759,0.129630,0.009259,0.000000,280.000000,266.000000,14.000000,1.000000,0.000000,0.000000,0.370370,0.371759,0.129630,0.009259,0.000000,280.000000,266.000000,14.000000,1.000000,0.000000,0.000000:
0000
0000
0000
0000
,
1001
1000
1000
1000
,
0010
0010
0010
0010
,
0100
0100
0100
0100
,
0001
0001
1000
1000
,
0010
0010
0010
0010
,
0100
0100
0100
0100
,
0001
0001
0001
0001
,
1000
1000
0010
0010
,
0101
1000
1000
1000
,
0100
0100
0100
0100
,
0001
0001
0001
0001
,
0010
0010
0100
0100
,
0001
0001
0001
0001
,
1000
1000
1000
1000
,
0100
0100
0100
0100
,
0010
0010
1000
1000
,
1001
0100
0100
0100
,
0001
0001
0001
0001
,
0010
0010
0010
0010
,
0100
0100
0100
0100
,
0101
0000
0000
0000
,
1001
0000
0000
0000
,
1010
0000
0000
0000
,
0100
0100
0100
0100
,
0110
0010
0010
0010
,
0010
0010
0010
0010
,
0010
0010
0010
0010
,
1000
0100
0001
0010
,
1000
1000
1000
1000
,
1000
1000
1000
1000
,
0010
0001
0100
0001
,
1000
0010
0100
0010
,
0001
0001
0001
0001
,
0001
0001
0001
0001
,
0001
0001
0001
0001
,
0100
0010
1000
0010
,
0100
0100
0100
0100
,
0100
0100
0100
0100
,
0100
0100
0100
0100
,
0100
0100
0100
1001
,
1001
1000
1000
1000
,
0001
0001
0001
0001
,
0100
0100
0100
0100
,
1000
1000
1000
1000
,
0001
0001
0001
0001
,
0010
0010
0010
0010
,
0001
0001
0001
0001
,
0100
0100
0100
0000
,
0101
0000
0000
0000
,
1001
0000
0000
0000
,
0110
0000
0000
0000
,
1100
0000
0000
0000
,
0001
0001
0001
0001
,
1000
1000
1000
1000
,
0010
0010
0010
0010
,
0100
0100
1002
0000
,
0103
0100
0100
0100
,
0100
0100
0100
0100
,
0100
0100
0100
0100
,
0100
0100
0100
0100
,
0010
0010
0010
0010
,
0010
0010
0010
0010
,
0010
0010
0010
0010
,
0010
0010
0010
0010
,
0001
0001
0001
0001
,
0001
0001
0001
0001
,
0001
0001
0001
0001
,
0001
0001
0001
0001
,
1000
1000
1000
1000
,
1000
1000
1000
1000
,
1000
1000
1000
1000
,
1000
1000
1000
1000
,
0010
0000
0000
0000
;

//---------------dance-single - ----------------
#NOTES:
     dance-single:
     :
     Medium:
     1:
     0.119048,0.138889,0.092593,0.037037,0.000000,90.000000,80.000000,10.000000,4.000000,0.000000,0.000000,0.119048,0.138889,0.092593,0.037037,0.000000,90.000000,80.000000,10.000000,4.000000,0.000000,0.000000:
// measure 0
0000
0000
0000
0000
,  // measure 1
1001
1000
0010
0001
,  // measure 2
0100
0001
1000
0010
,  // measure 3
1000
0100
0001
1000
,  // measure 4
0001
1000
0020
1000
,  // measure 5
0130
0100
1000
0001
,  // measure 6
1000
0001
0100
0010
,  // measure 7
0001
0100
0001
1000
,  // measure 8
0010
0000
0000
0000
0100
0000
0000
0000
0002
0000
0000
0000
0010
0000
0000
0003
,  // measure 9
1001
0000
0000
0000
,  // measure 10
0000
0000
0000
0000
,  // measure 11
0000
0000
0000
0000
,  // measure 12
0000
0000
0020
0100
,  // measure 13
1030
0100
0100
0001
,  // measure 14
0100
0010
1000
0001
,  // measure 15
0100
0010
1000
0001
,  // measure 16
1000
0000
0000
0000
0001
0000
0000
0000
2000
0000
0000
0000
0100
0000
0000
3000
,  // measure 17
1001
0100
1000
0100
,  // measure 18
0001
1000
0001
1000
,  // measure 19
0010
0001
0100
0001
,  // measure 20
1000
0010
0100
0010
,  // measure 21
1001
0000
0000
1001
0000
0000
0000
0000
,  // measure 22
0110
0000
0000
0110
0000
0000
0000
0000
,  // measure 23
1001
0000
0000
1001
0000
0000
0000
0000
,  // measure 24
0010
0000
0100
0000
0001
1000
0001
1000
,  // measure 25
0101
0000
0000
0000
;
