#VERSION:0.83;
#TITLE:Healing Vision ~Angelic Mix~ (From Nonstop Megamix);
#SUBTITLE:;
#ARTIST:2MB;
#TITLETRANSLIT:;
#SUBTITLETRANSLIT:;
#ARTISTTRANSLIT:;
#GENRE:;
#ORIGIN:;
#CREDIT:;
#BANNER:banner.png;
#BACKGROUND:background.png;
#PREVIEWVID:;
#JACKET:jacket.png;
#CDIMAGE:;
#DISCIMAGE:;
#LYRICSPATH:;
#CDTITLE:;
#MUSIC:Healing_Vision_-Angelic_mix-_(From_Nonstop_Megamix)__2MB_(Remixed_by_Kotaro_Chuganji).mp3;
#OFFSET:-3.214000;
#SAMPLESTART:62.296001;
#SAMPLELENGTH:12.000000;
#SELECTABLE:YES;
#DISPLAYBPM:46.000000:196.000000;
#BPMS:0.000=49.000,
11.500=196.000,
363.500=49.000;
#STOPS:;
#DELAYS:;
#WARPS:;
#TIMESIGNATURES:1.000=4=4;
#TICKCOUNTS:1.000=4;
#COMBOS:1.000=1;
#SPEEDS:1.000=1.000=0.000=0;
#SCROLLS:1.000=1.000;
#FAKES:;
#LABELS:1.000=Song Start;
#BGCHANGES:;
#KEYSOUNDS:;
#ATTACKS:
;

//---------------dance-single - ----------------
#NOTEDATA:;
#CHARTNAME:;
#STEPSTYPE:dance-single;
#DESCRIPTION:;
#CHARTSTYLE:;
#DIFFICULTY:Beginner;
#METER:5;
#RADARVALUES:0.200091,0.354094,0.141637,0.165244,0.000000,178.000000,160.000000,18.000000,21.000000,0.000000,0.000000,0.000000,0.000000,0.000000,0.200091,0.354094,0.141637,0.165244,0.000000,178.000000,160.000000,18.000000,21.000000,0.000000,0.000000,0.000000,0.000000,0.000000;
#CREDIT:;
#OFFSET:-3.214000;
#BPMS:0.000000=49.000000
,8.000000=196.000000
,360.000000=49.000000
;
#STOPS:;
#DELAYS:;
#WARPS:;
#TIMESIGNATURES:0.000000=4=4
;
#TICKCOUNTS:0.000000=4
;
#COMBOS:0.000000=1
;
#SPEEDS:0.000000=1.000000=0.000000=0
;
#SCROLLS:0.000000=1.000000
;
#FAKES:;
#LABELS:0.000000=Song Start
;
#DISPLAYBPM:46.000000:196.000000;
#NOTES:
// measure 0
0000
0000
0000
0000
,  // measure 1
0000
0000
0000
0000
,  // measure 2
1001
0000
0000
0000
,  // measure 3
0010
0000
0000
0000
,  // measure 4
0100
0000
0000
0000
,  // measure 5
0010
0000
0000
0000
,  // measure 6
0100
0000
0000
0000
,  // measure 7
0001
0000
0000
0000
,  // measure 8
0010
0000
0000
0000
,  // measure 9
1000
0000
0000
0000
,  // measure 10
0110
0000
0010
0000
,  // measure 11
0001
0000
1000
0000
,  // measure 12
0001
0000
0100
0000
,  // measure 13
0001
0000
0010
0000
,  // measure 14
1000
0000
0100
0000
,  // measure 15
1000
0000
0001
0000
,  // measure 16
0100
0000
1000
0000
,  // measure 17
0010
0000
0100
0000
,  // measure 18
1001
0000
0010
0000
,  // measure 19
0100
0000
1000
0000
,  // measure 20
0001
0000
0100
0000
,  // measure 21
0010
0000
0100
0000
,  // measure 22
1001
0000
0000
0000
,  // measure 23
0110
0000
0000
0000
,  // measure 24
1001
0000
0000
0000
,  // measure 25
0010
0010
0010
0010
,  // measure 26
0101
0000
0010
0000
,  // measure 27
0100
0000
0001
0000
,  // measure 28
1000
0000
0010
0000
,  // measure 29
0001
0000
0100
0000
,  // measure 30
0001
0000
1000
0000
,  // measure 31
0100
0000
0010
0000
,  // measure 32
0100
0000
0100
0000
,  // measure 33
1000
0000
0001
0000
,  // measure 34
0110
0000
0010
0000
,  // measure 35
0010
0000
0100
0000
,  // measure 36
0100
0000
0001
0000
,  // measure 37
0001
0000
1000
0000
,  // measure 38
0010
0000
0010
0000
,  // measure 39
0010
0000
0100
0000
,  // measure 40
0001
0000
1000
0000
,  // measure 41
1000
0000
0001
0000
,  // measure 42
0101
0001
0001
0001
,  // measure 43
0100
0100
0100
0100
,  // measure 44
1000
1000
1000
1000
,  // measure 45
0010
0000
0000
0000
,  // measure 46
0010
0000
0010
0000
,  // measure 47
0100
0000
0100
0000
,  // measure 48
0001
0000
0001
0000
,  // measure 49
1000
0000
1000
0000
,  // measure 50
0102
0000
0003
0000
,  // measure 51
2001
0000
3000
0000
,  // measure 52
0210
0000
0300
0000
,  // measure 53
2100
0000
3000
0000
,  // measure 54
0120
0000
0030
0000
,  // measure 55
0201
0000
0300
0000
,  // measure 56
0012
0000
0003
0000
,  // measure 57
0210
0000
0302
0000
,  // measure 58
0103
0000
0100
0000
,  // measure 59
0001
0000
0001
0000
,  // measure 60
1000
0000
1000
0000
,  // measure 61
0010
0000
0010
0000
,  // measure 62
0100
0000
0100
0000
,  // measure 63
1000
0000
1000
0000
,  // measure 64
0001
0000
0001
0000
,  // measure 65
0010
0010
0010
0010
,  // measure 66
2000
0000
0100
0000
,  // measure 67
0010
0000
0001
0000
,  // measure 68
0100
0000
0001
0000
,  // measure 69
3010
0000
0010
0000
,  // measure 70
0020
0000
1000
0000
,  // measure 71
0100
0000
1000
0000
,  // measure 72
0100
0000
0001
0000
,  // measure 73
1030
0000
0010
0000
,  // measure 74
0002
0000
0100
0000
,  // measure 75
0100
0000
1000
0000
,  // measure 76
0010
0000
0100
0000
,  // measure 77
0013
0000
0010
0000
,  // measure 78
2000
0000
0010
0000
,  // measure 79
0001
0000
0100
0000
,  // measure 80
0001
0000
0010
0000
,  // measure 81
3100
0000
0001
0000
,  // measure 82
0020
0000
0030
0000
,  // measure 83
2000
0000
3000
0000
,  // measure 84
0200
0000
0300
0000
,  // measure 85
0002
0000
0003
0000
,  // measure 86
2000
0000
3000
0000
,  // measure 87
0200
0000
0300
0000
,  // measure 88
2000
0000
3000
0000
,  // measure 89
0200
0000
0300
0000
,  // measure 90
0110
0000
0000
0000
;

//---------------dance-single - ----------------
#NOTEDATA:;
#CHARTNAME:;
#STEPSTYPE:dance-single;
#DESCRIPTION:;
#CHARTSTYLE:;
#DIFFICULTY:Easy;
#METER:8;
#RADARVALUES:0.350721,0.389503,0.212456,0.125900,0.000000,312.000000,285.000000,27.000000,16.000000,0.000000,0.000000,0.000000,0.000000,0.000000,0.350721,0.389503,0.212456,0.125900,0.000000,312.000000,285.000000,27.000000,16.000000,0.000000,0.000000,0.000000,0.000000,0.000000;
#CREDIT:;
#OFFSET:-3.214000;
#BPMS:0.000000=49.000000
,8.000000=196.000000
,360.000000=49.000000
;
#STOPS:;
#DELAYS:;
#WARPS:;
#TIMESIGNATURES:0.000000=4=4
;
#TICKCOUNTS:0.000000=4
;
#COMBOS:0.000000=1
;
#SPEEDS:0.000000=1.000000=0.000000=0
;
#SCROLLS:0.000000=1.000000
;
#FAKES:;
#LABELS:0.000000=Song Start
;
#DISPLAYBPM:46.000000:196.000000;
#NOTES:
// measure 0
0000
0000
0000
0000
,  // measure 1
0000
0000
0000
0000
,  // measure 2
1001
1000
1000
1000
,  // measure 3
0010
0010
0010
0010
,  // measure 4
0100
0100
0100
0100
,  // measure 5
0001
0001
1000
1000
,  // measure 6
0010
0010
0010
0010
,  // measure 7
0100
0100
0100
0100
,  // measure 8
0001
0001
0001
0001
,  // measure 9
1000
1000
0010
0010
,  // measure 10
0101
1000
1000
1000
,  // measure 11
0100
0100
0100
0100
,  // measure 12
0001
0001
0001
0001
,  // measure 13
0010
0010
0100
0100
,  // measure 14
0001
0001
0001
0001
,  // measure 15
1000
1000
1000
1000
,  // measure 16
0100
0100
0100
0100
,  // measure 17
0010
0010
1000
1000
,  // measure 18
1001
0100
0100
0100
,  // measure 19
0001
0001
0001
0001
,  // measure 20
0010
0010
0010
0010
,  // measure 21
0100
0100
0100
0100
,  // measure 22
0101
0000
0000
0000
,  // measure 23
1001
0000
0000
0000
,  // measure 24
1010
0000
0000
0000
,  // measure 25
0100
0100
0100
0100
,  // measure 26
0110
0000
0010
0000
,  // measure 27
1000
0000
0010
0000
,  // measure 28
0001
0000
0010
0000
,  // measure 29
1000
0100
0001
0010
,  // measure 30
1000
0000
1000
0000
,  // measure 31
0001
0000
0010
0000
,  // measure 32
0010
0001
0100
0000
,  // measure 33
1000
0000
0100
0100
,  // measure 34
0001
0000
0001
0000
,  // measure 35
0010
0000
0001
0000
,  // measure 36
1000
0000
0001
0000
,  // measure 37
0100
0010
1000
0010
,  // measure 38
0100
0000
0010
0000
,  // measure 39
0001
0000
1000
0000
,  // measure 40
0001
0000
0010
0000
,  // measure 41
0100
0010
0100
1001
,  // measure 42
1001
1000
1000
1000
,  // measure 43
0001
0001
0001
0001
,  // measure 44
0100
0100
0100
0100
,  // measure 45
1000
1000
1000
1000
,  // measure 46
0001
0001
0001
0001
,  // measure 47
0010
0010
0010
0010
,  // measure 48
0001
0001
0001
0001
,  // measure 49
0100
0100
0100
0000
,  // measure 50
0102
0000
0000
0003
0000
0000
0010
0000
,  // measure 51
2001
0000
0000
3000
0000
0000
0100
0000
,  // measure 52
0120
0000
0000
0030
0000
0000
0100
0000
,  // measure 53
2100
0000
0000
3000
0000
0000
0010
0000
,  // measure 54
0120
0000
0000
0030
0000
0000
0001
0000
,  // measure 55
0201
0000
0000
0300
0000
0000
0010
0000
,  // measure 56
2010
0000
0000
3000
0000
0000
0000
0000
,  // measure 57
0100
0100
1002
0000
,  // measure 58
1003
0100
0001
1000
,  // measure 59
0001
1000
0001
0100
,  // measure 60
0010
0001
1000
0001
,  // measure 61
1000
0100
0001
1000
,  // measure 62
0001
0100
0001
1000
,  // measure 63
0001
1000
0100
0001
,  // measure 64
1000
0010
1000
0100
,  // measure 65
0010
0000
0010
0000
,  // measure 66
1100
0100
0100
0100
,  // measure 67
0100
0100
0100
0100
,  // measure 68
0100
0100
0100
0100
,  // measure 69
0100
0100
0100
0100
,  // measure 70
0010
0010
0010
0010
,  // measure 71
0010
0010
0010
0010
,  // measure 72
0010
0010
0010
0010
,  // measure 73
0010
0010
0010
0010
,  // measure 74
0001
0001
0001
0001
,  // measure 75
0001
0001
0001
0001
,  // measure 76
0001
0001
0001
0001
,  // measure 77
0001
0001
0001
0001
,  // measure 78
1000
1000
1000
1000
,  // measure 79
1000
1000
1000
1000
,  // measure 80
1000
1000
1000
1000
,  // measure 81
1000
1000
1000
1000
,  // measure 82
0120
0000
0000
0030
0000
0000
0001
0000
,  // measure 83
0201
0000
0000
0300
0000
0000
1000
0000
,  // measure 84
1200
0000
0000
0300
0000
0000
0010
0000
,  // measure 85
0210
0000
0000
0300
0000
0000
0001
0000
,  // measure 86
0201
0000
0000
0300
0000
0000
1000
0000
,  // measure 87
1020
0000
0000
0030
0000
0000
0100
0000
,  // measure 88
0120
0000
0000
0030
0000
0000
0001
0000
,  // measure 89
0201
0000
0000
0300
0000
0000
0010
0000
,  // measure 90
0110
0000
0000
0000
;

//---------------dance-single - ----------------
#NOTEDATA:;
#CHARTNAME:;
#STEPSTYPE:dance-single;
#DESCRIPTION:;
#CHARTSTYLE:;
#DIFFICULTY:Medium;
#METER:10;
#RADARVALUES:0.417044,0.494698,0.299012,0.157375,0.000000,371.000000,333.000000,38.000000,20.000000,0.000000,0.000000,0.000000,0.000000,0.000000,0.417044,0.494698,0.299012,0.157375,0.000000,371.000000,333.000000,38.000000,20.000000,0.000000,0.000000,0.000000,0.000000,0.000000;
#CREDIT:;
#OFFSET:-3.214000;
#BPMS:0.000000=49.000000
,8.000000=196.000000
,359.000000=49.000000
;
#STOPS:230.000000=0.306000
;
#DELAYS:;
#WARPS:;
#TIMESIGNATURES:0.000000=4=4
;
#TICKCOUNTS:0.000000=4
;
#COMBOS:0.000000=1
;
#SPEEDS:0.000000=1.000000=0.000000=0
;
#SCROLLS:0.000000=1.000000
;
#FAKES:;
#LABELS:0.000000=Song Start
;
#DISPLAYBPM:46.000000:196.000000;
#NOTES:
// measure 0
0000
0000
0000
0000
,  // measure 1
0000
0000
0000
0000
,  // measure 2
1001
1000
0010
0001
,  // measure 3
0100
0001
1000
0010
,  // measure 4
1000
0100
0001
1000
,  // measure 5
0001
1000
0020
1000
,  // measure 6
0130
0100
1000
0001
,  // measure 7
1000
0001
0100
0010
,  // measure 8
0001
0100
0001
1000
,  // measure 9
0010
0000
0000
0000
0100
0000
0000
0000
0002
0000
0000
0000
0010
0000
0000
0003
,  // measure 10
1001
0001
1000
0001
,  // measure 11
0100
1000
0010
1000
,  // measure 12
0001
1000
0001
0100
,  // measure 13
0001
1000
0020
0100
,  // measure 14
1030
0100
0100
0001
,  // measure 15
0100
0010
1000
0001
,  // measure 16
0100
0010
1000
0001
,  // measure 17
1000
0000
0000
0000
0001
0000
0000
0000
2000
0000
0000
0000
0100
0000
0000
3000
,  // measure 18
1001
0100
1000
0100
,  // measure 19
0001
1000
0001
1000
,  // measure 20
0010
0001
0100
0001
,  // measure 21
1000
0010
0100
0010
,  // measure 22
1001
0000
0000
1001
0000
0000
0000
0000
,  // measure 23
0110
0000
0000
0110
0000
0000
0000
0000
,  // measure 24
1001
0000
0000
1001
0000
0000
0000
0000
,  // measure 25
0010
0000
0100
0000
0001
1000
0001
1000
,  // measure 26
0210
0000
0010
0000
,  // measure 27
0301
0020
1000
0000
,  // measure 28
0032
0000
0100
0000
,  // measure 29
0103
0100
0010
0010
,  // measure 30
2000
0000
0010
3002
,  // measure 31
0100
0000
0100
0000
,  // measure 32
1003
0001
0100
0000
,  // measure 33
0100
0000
0100
0000
1000
0000
0001
0001
,  // measure 34
2000
0000
0001
3000
,  // measure 35
0100
0020
0001
0000
,  // measure 36
0032
0000
1000
0000
,  // measure 37
1003
0010
0100
1000
,  // measure 38
0020
0001
1000
0100
,  // measure 39
2030
0010
0100
0001
,  // measure 40
3200
1000
0001
0010
,  // measure 41
0302
0000
0000
0000
0100
0000
0000
0000
1000
0000
0000
0000
0010
0000
0000
0003
,  // measure 42
1001
1000
0001
1000
,  // measure 43
0010
0100
0010
0100
,  // measure 44
1000
0100
1000
0100
,  // measure 45
0002
0100
0100
0100
,  // measure 46
0103
0010
0100
0010
,  // measure 47
0001
0100
0001
0100
,  // measure 48
0001
1000
0001
1000
,  // measure 49
0010
0000
0100
0000
0010
0100
0000
0100
,  // measure 50
0101
0000
0000
0101
0000
0000
0001
1000
,  // measure 51
1001
0000
0000
1001
0000
0000
0010
0100
,  // measure 52
0110
0000
0000
0110
0000
0000
0100
1000
,  // measure 53
1100
0000
0000
1100
0000
0000
0010
0000
,  // measure 54
0110
0000
0000
0110
0000
0000
0001
0010
,  // measure 55
0011
0000
0000
0011
0000
0000
0001
0100
,  // measure 56
0101
0000
0000
0101
0000
0000
0000
0000
,  // measure 57
0010
0100
1001
1000
,  // measure 58
0001
0100
0001
1000
,  // measure 59
0001
1000
0100
0001
,  // measure 60
1000
0001
1000
0010
,  // measure 61
0001
0100
0001
0010
,  // measure 62
1000
0100
0001
1000
,  // measure 63
0001
1000
0100
0001
,  // measure 64
1000
0010
1000
0100
,  // measure 65
0001
0000
0000
0100
0000
0100
0010
0000
,  // measure 66
0100
0001
1000
0001
,  // measure 67
1000
0010
0001
0100
,  // measure 68
0001
1000
0010
0100
,  // measure 69
0010
1000
0100
0001
,  // measure 70
1000
0001
1000
0010
,  // measure 71
0100
0010
1000
0100
,  // measure 72
0001
1000
0001
1000
,  // measure 73
0001
0100
0010
2000
,  // measure 74
0100
0100
0100
0010
,  // measure 75
0100
0001
0010
0001
,  // measure 76
0100
0001
0100
3010
,  // measure 77
0001
1000
0100
0002
,  // measure 78
0100
1000
0100
1000
,  // measure 79
0010
0010
0010
1000
,  // measure 80
0100
1000
0100
1003
,  // measure 81
1000
0001
0010
0110
,  // measure 82
1000
0100
0001
0101
,  // measure 83
0001
1000
0001
0101
,  // measure 84
0001
1000
0001
0110
,  // measure 85
1000
0100
0001
1010
,  // measure 86
0000
1010
0000
0000
0001
0100
0101
0000
,  // measure 87
0000
0101
0000
0000
0100
0010
0110
0000
,  // measure 88
0000
0110
0000
0000
0100
1000
1100
0000
,  // measure 89
0000
0000
1100
0000
0000
0000
0000
0000
0100
0000
0100
0000
0200
0300
0000
0000
;

//---------------dance-single - ----------------
#NOTEDATA:;
#CHARTNAME:;
#STEPSTYPE:dance-single;
#DESCRIPTION:;
#CHARTSTYLE:;
#DIFFICULTY:Challenge;
#METER:17;
#RADARVALUES:0.827343,1.289221,0.361962,0.511469,0.389503,736.000000,690.000000,46.000000,65.000000,0.000000,22.000000,0.000000,0.000000,0.000000,0.827343,1.289221,0.361962,0.511469,0.389503,736.000000,690.000000,46.000000,65.000000,0.000000,22.000000,0.000000,0.000000,0.000000;
#CREDIT:;
#OFFSET:-3.214000;
#BPMS:0.000000=49.000000
,8.000000=196.000000
,104.000000=98.000000
,136.000000=196.000000
,167.000000=392.000000
,170.000000=196.000000
,172.500000=392.000000
,175.500000=196.000000
,178.000000=392.000000
,181.000000=196.000000
,183.500000=392.000000
,186.500000=196.000000
,189.000000=392.000000
,192.000000=196.000000
,194.500000=392.000000
,197.500000=196.000000
,200.000000=392.000000
,203.000000=196.000000
,205.500000=392.000000
,209.500000=196.000000
,306.000000=392.000000
,309.000000=196.000000
,311.500000=392.000000
,314.500000=196.000000
,317.000000=392.000000
,320.000000=196.000000
,322.500000=392.000000
,325.500000=196.000000
,328.000000=392.000000
,331.000000=196.000000
,333.500000=392.000000
,336.500000=196.000000
,339.000000=392.000000
,342.000000=196.000000
,344.500000=392.000000
,347.500000=196.000000
,350.000000=49.000000
;
#STOPS:166.000000=0.077000
,166.250000=0.076000
,166.500000=0.077000
,166.750000=0.076000
,209.500000=0.459000
;
#DELAYS:;
#WARPS:;
#TIMESIGNATURES:0.000000=4=4
;
#TICKCOUNTS:0.000000=4
;
#COMBOS:0.000000=1
;
#SPEEDS:0.000000=1.000000=0.000000=0
;
#SCROLLS:0.000000=1.000000
;
#FAKES:;
#LABELS:0.000000=Song Start
;
#DISPLAYBPM:46.000000:196.000000;
#NOTES:
// measure 0
2000
0000
0100
0000
0010
0000
0001
0100
0000
0100
0001
0000
0010
0000
0010
0000
0010
0000
0100
0000
0001
0000
0100
0010
0000
0010
0100
0000
3020
0000
0100
0000
,  // measure 1
0032
0000
1000
0000
0100
0000
1000
0010
0000
0010
1000
0000
0100
0000
0010
0000
1000
0000
0100
0000
1000
0100
0000
0100
1000
0000
0100
0000
1023
0000
0000
0000
,  // measure 2
0031
1000
0100
0001
1000
0001
1000
0010
,  // measure 3
0001
0100
0001
1000
0010
1000
0100
0001
,  // measure 4
1000
0001
1000
0010
0001
0100
0001
1000
,  // measure 5
0010
1000
0100
0001
2000
0010
0100
0010
,  // measure 6
3001
0100
0001
1000
0010
0100
0001
1000
,  // measure 7
0001
1000
0010
0001
0100
0001
1000
0010
,  // measure 8
1000
0100
0001
1000
0001
1000
0010
0001
,  // measure 9
0100
1000
0010
0100
0020
0001
0100
1000
,  // measure 10
1130
1000
0001
1000
0001
1000
0010
0001
,  // measure 11
0100
0001
1000
0010
1000
0100
0010
1000
,  // measure 12
0100
0001
1000
0001
1000
0010
0001
0100
,  // measure 13
0001
1000
0001
1000
0020
0100
0100
0001
,  // measure 14
0031
1000
0001
0100
1000
0010
1000
0100
,  // measure 15
0001
1000
0001
0100
0010
0001
0100
0001
,  // measure 16
1000
0010
0100
0100
1000
0100
0001
1000
,  // measure 17
0001
1000
0010
0001
0200
1000
0010
1000
,  // measure 18
1301
0010
1000
0100
0001
1000
0001
1000
,  // measure 19
0001
1000
0010
0001
0100
0001
1000
0010
,  // measure 20
1000
0100
0001
1000
0001
0100
0010
1000
,  // measure 21
0100
0001
1000
0010
0001
0100
0010
1000
,  // measure 22
0202
0000
0000
1313
0000
0000
0010
1000
,  // measure 23
2020
0000
0000
3131
0000
0000
0001
1000
,  // measure 24
2002
0000
0000
3113
0000
0000
0010
0100
,  // measure 25
0010
0000
0100
0000
0001
0000
1000
0000
0100
0000
0001
0000
1000
0001
1000
0001
,  // measure 26
0110
0000
0100
0000
1000
0000
1000
0000
0001
1000
0020
1000
0001
1000
0100
1000
,  // measure 27
0032
0010
0100
0010
1000
0100
1000
0010
0203
2300
3002
2003
3002
1003
0001
1000
,  // measure 28
0101
1000
0100
0001
1000
0001
1000
0010
0100
1000
0001
0100
0001
1000
0100
1000
,  // measure 29
0100
0000
0000
0000
0000
0000
0001
0000
0000
0000
0000
0000
0010
0000
0000
0000
0000
0000
0100
0000
0000
0000
0000
0000
0001
0000
0000
0000
0001
1000
0001
1000
,  // measure 30
0001
0010
0100
1000
0001
1000
0001
0100
0010
1000
0001
1000
0001
1000
0100
1000
,  // measure 31
0100
0010
1000
0001
1000
0001
0100
0001
2000
3002
0203
2300
3020
0130
0010
0100
,  // measure 32
0001
1000
0001
1000
0001
0100
1000
0010
1000
0001
0100
0001
0010
1000
0001
1000
,  // measure 33
0001
0000
0100
0000
1000
0000
0010
0000
0100
0000
0001
0000
1000
0000
0100
0000
0100
0000
1000
0000
0001
0000
1000
0000
0001
0000
0100
0000
0010
0100
0010
0100
,  // measure 34
0010
0000
0100
0000
0001
0000
1000
0000
0001
0000
1000
0000
0010
0001
1000
0000
,  // measure 35
0100
0000
0001
0000
1000
0000
0001
0000
1000
0000
0010
0000
0100
0000
1000
0100
,  // measure 36
0001
0000
0010
0000
0001
0000
0100
0000
1000
0000
0010
0000
1000
0000
0100
0001
,  // measure 37
0020
0000
0100
0100
0100
0100
0100
0100
,  // measure 38
0130
0000
1000
0000
0001
0000
1000
0000
0001
0000
1000
0000
0010
0000
0100
0001
,  // measure 39
0010
0000
1000
0000
0100
0000
0001
0000
1000
0100
0001
0100
1000
0000
0000
0000
,  // measure 40
0001
0000
0100
0000
0010
0000
1000
0000
0100
0000
1000
0000
0100
0000
0001
0010
,  // measure 41
1000
0000
0001
0000
1000
0000
0010
0000
2000
3200
0320
0032
2023
0000
0000
0000
,  // measure 42
0000
0000
0000
0000
3131
0000
0000
0001
,  // measure 43
0100
0202
0000
0000
0000
0000
0000
1313
,  // measure 44
0000
0000
0001
1000
2002
0000
0000
0000
,  // measure 45
0000
0000
3113
0000
0000
0100
0010
0220
,  // measure 46
0000
0000
0000
0000
0000
1331
0000
1000
,  // measure 47
0010
0100
0220
0000
0000
0000
0000
0000
,  // measure 48
1331
0000
0000
0100
0100
0202
0000
0000
,  // measure 49
0000
0000
0000
1313
0000
0000
1000
0010
,  // measure 50
0220
0000
0000
0000
0000
0000
1331
0010
,  // measure 51
0100
1000
0001
0200
0000
0001
0000
2300
,  // measure 52
0000
0000
0001
0000
0000
0000
3020
0030
0010
0000
1000
0000
0010
0000
1000
0000
,  // measure 53
0001
1000
0001
0100
1000
0100
1000
0001
,  // measure 54
0100
1000
0010
1000
0100
0001
0010
0001
,  // measure 55
1000
0001
0100
1000
0001
1000
0001
0100
,  // measure 56
1000
0001
1000
0001
0100
1000
0001
0100
,  // measure 57
0001
0100
0001
0010
0001
0100
1000
0001
,  // measure 58
1000
0001
0100
1000
0100
1000
0001
0100
,  // measure 59
0001
1000
0001
0100
0001
0000
0010
0000
,  // measure 60
0001
1100
0000
1100
0110
0001
0100
1000
,  // measure 61
0001
1000
0001
1000
0010
0100
0010
1000
,  // measure 62
0100
0001
1000
0001
1000
0001
1000
0010
,  // measure 63
0001
0100
0001
1000
0010
1000
0100
0001
,  // measure 64
1000
0001
1000
0010
1000
0100
0001
1000
,  // measure 65
0001
1000
0010
0001
0100
0001
1000
0010
,  // measure 66
1000
0100
0001
1000
0001
1000
0010
0100
,  // measure 67
0001
1000
0001
1000
0010
0001
0100
0001
,  // measure 68
1000
0100
0001
0010
0110
1000
0001
1000
,  // measure 69
0001
1000
0010
0001
0100
0001
1000
0010
,  // measure 70
0001
0100
1000
0010
1000
0100
0001
1000
,  // measure 71
0010
0001
0100
0001
1000
0010
1000
0100
,  // measure 72
0001
0100
0010
1000
0100
0010
0001
0100
,  // measure 73
1000
0001
1000
0010
0001
0100
0001
1000
,  // measure 74
0010
0100
0010
1000
0100
0001
1000
0010
,  // measure 75
1000
0100
0001
1000
0001
0010
0001
0100
,  // measure 76
1000
0001
1000
0010
2020
0000
0000
0000
,  // measure 77
0000
0000
3131
1000
0010
0001
0100
0202
,  // measure 78
0000
0000
0000
0000
0000
1313
0001
0100
,  // measure 79
0001
1000
2002
0000
0000
0000
0000
0000
,  // measure 80
3113
1000
0100
0001
1000
0220
0000
0000
,  // measure 81
0000
0000
0000
1331
0010
0100
0010
1000
,  // measure 82
0202
0000
0000
0000
0000
0000
1313
1000
,  // measure 83
0001
0100
0001
2002
0000
0000
0000
0000
,  // measure 84
0000
3113
0001
1000
0001
1000
0220
0000
,  // measure 85
0000
0000
0000
0000
1331
0100
0001
1000
,  // measure 86
0100
2200
0000
0000
0000
0000
0000
3311
,  // measure 87
0100
0000
0010
0000
0001
1000
0001
1000
0120
0100
0000
0000
0000
0000
0100
0100
,  // measure 88
0000
0100
0100
0000
0000
0100
0100
0000
0100
0130
0000
0000
0000
0000
0000
0000
;

//---------------dance-single - ----------------
#NOTEDATA:;
#CHARTNAME:;
#STEPSTYPE:dance-single;
#DESCRIPTION:;
#CHARTSTYLE:;
#DIFFICULTY:Hard;
#METER:13;
#RADARVALUES:0.646362,0.934143,0.330487,0.165244,0.066884,575.000000,533.000000,42.000000,21.000000,0.000000,0.000000,0.000000,0.000000,0.000000,0.646362,0.934143,0.330487,0.165244,0.066884,575.000000,533.000000,42.000000,21.000000,0.000000,0.000000,0.000000,0.000000,0.000000;
#CREDIT:;
#OFFSET:-3.214000;
#BPMS:0.000000=49.000000
,8.000000=196.000000
,104.000000=98.000000
,136.000000=196.000000
,168.000000=392.000000
,171.000000=196.000000
,173.500000=392.000000
,176.500000=196.000000
,179.000000=392.000000
,182.000000=196.000000
,184.500000=392.000000
,187.500000=196.000000
,190.000000=392.000000
,193.000000=196.000000
,195.500000=392.000000
,198.500000=196.000000
,201.000000=392.000000
,204.000000=196.000000
,206.500000=392.000000
,210.500000=196.000000
,307.500000=392.000000
,310.500000=196.000000
,313.000000=392.000000
,316.000000=196.000000
,318.500000=392.000000
,321.500000=196.000000
,324.000000=392.000000
,327.000000=196.000000
,329.500000=392.000000
,332.500000=196.000000
,335.000000=392.000000
,338.000000=196.000000
,340.500000=392.000000
,343.500000=196.000000
,346.000000=392.000000
,349.000000=196.000000
,351.500000=49.000000
;
#STOPS:210.500000=0.306000
;
#DELAYS:;
#WARPS:;
#TIMESIGNATURES:0.000000=4=4
;
#TICKCOUNTS:0.000000=4
;
#COMBOS:0.000000=1
;
#SPEEDS:0.000000=1.000000=0.000000=0
;
#SCROLLS:0.000000=1.000000
;
#FAKES:;
#LABELS:0.000000=Song Start
;
#DISPLAYBPM:46.000000:196.000000;
#NOTES:
// measure 0
0020
0000
0000
0000
0000
0000
0000
0032
,  // measure 1
2000
0000
0000
3003
,  // measure 2
0011
0000
1000
0001
1000
0000
0010
0100
,  // measure 3
0010
0000
1000
0001
0100
1000
0001
1000
,  // measure 4
0010
0000
0100
0010
0100
0000
0001
1000
,  // measure 5
0001
0000
0100
0001
1000
0010
0100
0010
,  // measure 6
1000
0000
0100
0001
0100
0000
0010
1000
,  // measure 7
0010
0000
0100
0001
1000
0010
0001
0100
,  // measure 8
0001
0000
0010
1000
0010
0000
0100
0100
,  // measure 9
0010
0000
0001
1000
0001
1000
0010
0100
,  // measure 10
1000
0000
0100
0001
0100
0000
0010
1000
,  // measure 11
0010
0000
1000
0100
0001
1000
0001
1000
,  // measure 12
0010
0000
0100
0001
0100
0000
1000
0001
,  // measure 13
1000
0000
0010
0100
0010
1000
0100
0001
,  // measure 14
1000
0000
0001
0100
0001
0000
0010
1000
,  // measure 15
0010
0000
0100
1000
0100
0001
1000
0001
,  // measure 16
0010
0000
0100
1000
0100
0000
0010
0100
,  // measure 17
0010
0000
1000
0001
0100
0010
0001
1000
,  // measure 18
0110
0000
0100
0001
0100
0000
0010
1000
,  // measure 19
0010
0000
0100
0001
1000
0010
0001
0100
,  // measure 20
0001
0000
1000
0010
0100
0000
0010
0100
,  // measure 21
0010
0000
1000
0001
1000
0001
1000
0010
,  // measure 22
1001
0000
0000
1001
0000
0000
0001
1000
,  // measure 23
1100
0000
0000
1100
0000
0000
0010
0001
,  // measure 24
0011
0000
0000
0011
0000
0000
1000
0100
,  // measure 25
0010
0100
0010
0100
0010
0100
0010
0000
,  // measure 26
0102
0000
0100
0000
0013
2000
0010
0001
,  // measure 27
3020
0000
0001
0000
1000
0000
0001
0000
0130
0010
1000
0010
0001
0000
0100
0000
,  // measure 28
0020
0000
0100
0032
1000
0100
1000
0013
,  // measure 29
1000
0000
0000
0100
0000
0000
0010
0000
0000
0100
0000
0000
0010
1000
0100
1000
,  // measure 30
0020
0000
0130
0010
0100
0002
0100
2003
,  // measure 31
0010
0000
3100
0010
0001
0010
1000
0000
0001
0010
0100
0010
0001
0100
1000
0001
,  // measure 32
0010
1000
0100
0001
0010
0100
1000
0001
0100
0000
0001
0000
1000
0000
0001
0000
,  // measure 33
2000
0000
0000
0000
0001
0000
0000
0000
0010
0000
0000
0000
0100
0000
0000
0000
3002
0000
0000
0000
1000
0000
0000
0000
0100
0000
0000
0000
0010
0000
0000
0003
,  // measure 34
0110
1000
0001
1000
0010
0100
0001
1000
,  // measure 35
0010
0001
0100
0001
1000
0010
1000
0100
,  // measure 36
0001
1000
0001
1000
0010
0100
0010
0001
,  // measure 37
0020
0000
0100
0001
0000
0001
0100
0000
,  // measure 38
1030
0100
1000
0001
1000
0001
0100
1000
,  // measure 39
0010
1000
0001
0100
0001
1000
0010
0000
,  // measure 40
0100
0001
1000
0001
1000
0010
0001
0100
,  // measure 41
0001
0000
0000
0000
1000
0000
0000
0000
0010
0000
0000
0000
0100
0000
0000
0000
2000
0000
0000
0000
3002
0000
0000
0000
2003
0000
0000
0000
3002
0000
0000
0003
,  // measure 42
0101
0000
0000
0101
,  // measure 43
0000
0001
1000
0110
0000
0000
0000
0000
,  // measure 44
0000
0110
0000
0000
1000
0010
1100
0000
,  // measure 45
0000
0000
0000
0000
1100
0000
0000
0001
,  // measure 46
0100
1001
0000
0000
0000
0000
0000
1001
,  // measure 47
0000
0000
0100
0010
0110
0000
0000
0000
,  // measure 48
0000
0000
0110
0000
0000
1000
0010
0101
,  // measure 49
0000
0000
0000
0000
0000
0101
0000
0000
,  // measure 50
0010
0001
0101
0000
0000
0000
0000
0000
,  // measure 51
0101
0000
0000
0100
0001
0200
0000
1000
,  // measure 52
0000
0302
0000
0100
0000
0023
0000
0130
,  // measure 53
0001
0100
1000
0000
1000
0001
1000
0010
,  // measure 54
0100
0010
1000
0100
0001
1000
0001
1000
,  // measure 55
0001
1000
0010
0000
0100
0001
1000
0010
,  // measure 56
1000
0100
0001
1000
0001
1000
0010
1000
,  // measure 57
0100
0001
1000
0000
1000
0010
0001
0100
,  // measure 58
0001
1000
0010
1000
0100
0001
1000
0001
,  // measure 59
1000
0010
0100
0000
1000
0001
1000
0010
,  // measure 60
0000
0100
0000
1000
0100
0001
0010
0110
,  // measure 61
1000
0001
0100
0001
1000
0010
0000
0001
,  // measure 62
1000
0001
1000
0100
0001
1000
0000
1000
,  // measure 63
0010
0001
0100
0001
1000
0010
0000
0100
,  // measure 64
0001
1000
0100
0001
1000
0100
0000
0100
,  // measure 65
0010
0001
1000
0001
1000
0100
0000
0010
,  // measure 66
0001
0100
1000
0001
1000
0001
0100
1000
,  // measure 67
0001
0100
0001
1000
0001
1000
0001
0010
,  // measure 68
0100
1000
0001
0100
0001
1000
0000
0101
,  // measure 69
1000
0001
1000
0001
1000
0010
0001
0100
,  // measure 70
0001
1000
0010
0001
0100
1000
0010
1000
,  // measure 71
0100
0001
1000
0010
0001
0100
0001
1000
,  // measure 72
0010
1000
0100
0001
0100
0010
1000
0100
,  // measure 73
0010
0001
0100
1000
0001
1000
0010
0001
,  // measure 74
0100
0001
1000
0010
0100
0010
1000
0100
,  // measure 75
0001
1000
0010
1000
0100
0001
1000
0001
,  // measure 76
0010
0001
0100
1000
0001
1000
0010
1010
,  // measure 77
0000
0000
0000
0000
0000
1010
0000
0000
,  // measure 78
0100
0001
0101
0000
0000
0000
0000
0000
,  // measure 79
0101
0000
0000
0010
0001
0011
0000
0000
,  // measure 80
0000
0000
0000
0011
0000
0000
0010
0100
,  // measure 81
0110
0000
0000
0110
,  // measure 82
0000
1000
0001
1100
0000
0000
0000
0000
,  // measure 83
0000
1100
0000
0000
1000
0100
0101
0000
,  // measure 84
0000
0000
0000
0000
0101
0000
0000
0100
,  // measure 85
0010
0101
0000
0000
0000
0000
0000
0101
,  // measure 86
0000
0000
0001
1000
1001
0000
0000
0000
,  // measure 87
0000
0000
0000
0000
1001
0000
0001
0000
1000
0000
0100
0000
0100
0000
0010
0010
;
