#TITLE:GRADIUSIC CYBER (AMD G5 MIX);
#SUBTITLE:;
#ARTIST:Unknown artist;
#TITLETRANSLIT:;
#SUBTITLETRANSLIT:;
#ARTISTTRANSLIT:;
#GENRE:;
#CREDIT:;
#BANNER:GRADIUSIC CYBER (AMD G5 MIX).png;
#BACKGROUND:GRADIUSIC CYBER (AMD G5 MIX)-bg.png;
#LYRICSPATH:;
#CDTITLE:;
#MUSIC:GRADIUSIC CYBER (AMD G5 MIX).mp3;
#OFFSET:-0.035000;
#SAMPLESTART:37.535000;
#SAMPLELENGTH:12.000000;
#SELECTABLE:YES;
#DISPLAYBPM:160.000000;
#BPMS:0.000000=120.000000
,12.000000=160.000000
;
#STOPS:
;
#BGCHANGES:;
#KEYSOUNDS:;
#ATTACKS:;

//---------------dance-single - ----------------
#NOTES:
     dance-single:
     :
     Beginner:
     2:
     0.120786,0.221945,0.150983,0.000000,0.000000,84.000000,69.000000,15.000000,0.000000,0.000000,0.000000,0.120786,0.221945,0.150983,0.000000,0.000000,84.000000,69.000000,15.000000,0.000000,0.000000,0.000000:
0000
0000
0000
0000
,
0000
0000
0000
0000
,
0000
0000
0000
0000
,
0100
0000
0000
0000
,
0001
0000
0000
0000
,
1000
0000
0000
0000
,
0010
0000
0000
0000
,
0000
1001
0000
0000
0000
0000
0000
0000
,
0100
0000
0000
0000
,
0010
0000
0000
0000
,
0100
0000
0000
0000
,
0001
0000
0000
0000
,
1000
0000
0100
0010
,
0100
0000
0001
0010
,
0010
0000
1000
0100
,
0001
0000
0000
0000
0000
0000
0000
0010
,
0000
0000
0000
0000
0000
0000
0000
0100
,
0000
0000
0000
0000
0000
0000
0000
1000
,
0000
0000
0000
0000
,
0001
0000
0000
0000
,
0010
0000
0000
0000
,
0001
0000
0000
0000
,
0100
0000
0000
0000
,
1000
0000
0000
0000
,
0101
0000
0000
0000
,
1000
0000
0000
0000
,
0110
0000
0000
0000
,
0001
0000
0000
0000
,
1001
0000
0000
0000
,
1000
0000
0000
0000
,
0101
0000
0000
0000
,
0100
0000
0000
0000
,
0110
0000
0000
0000
,
1000
0000
0000
0000
,
1001
0000
0000
0000
,
0010
0000
0000
0000
,
0110
0000
0000
0000
,
0001
0000
0000
0000
,
1100
0000
0000
0000
,
0010
0000
0000
0001
,
0000
0000
0000
0000
,
0100
0000
0000
0000
,
0001
0000
0000
0000
,
0010
0000
0000
0100
,
0000
0000
0000
0000
,
1000
0000
0000
0000
,
0010
0010
0010
0000
,
0100
0000
0000
0000
,
0001
0000
0000
0000
,
0010
0000
0000
0000
,
0100
0000
0000
0000
,
0101
0000
0000
0000
,
0010
0000
0000
0000
,
0001
0000
0000
0000
,
0010
0000
0000
0000
,
1100
0000
0000
0000
,
0001
0000
0000
0000
,
0101
0000
0000
0000
,
0010
0000
0000
0000
,
1001
0000
0000
0000
,
0100
0000
0000
0000
,
1010
0000
0000
0000
,
0100
0000
0000
0000
,
1001
0000
0000
0000
;

//---------------dance-single - ----------------
#NOTES:
     dance-single:
     :
     Easy:
     3:
     0.251638,0.317064,0.161048,0.181179,0.000000,175.000000,159.000000,16.000000,18.000000,0.000000,0.000000,0.251638,0.317064,0.161048,0.181179,0.000000,175.000000,159.000000,16.000000,18.000000,0.000000,0.000000:
// measure 0
0000
0000
0000
0000
,  // measure 1
0000
0000
0000
0000
,  // measure 2
0000
0000
0000
0000
,  // measure 3
0010
0100
0010
0000
,  // measure 4
1000
0001
1000
0000
,  // measure 5
0100
0001
0010
0000
,  // measure 6
0001
0100
1000
0010
,  // measure 7
0000
0220
0000
0000
0000
0000
0000
0330
,  // measure 8
1001
0100
1000
0000
,  // measure 9
0010
0001
0100
0000
,  // measure 10
0001
0010
1000
0000
,  // measure 11
0100
1000
0001
0000
,  // measure 12
1000
0100
0010
0010
,  // measure 13
0001
1000
0001
0001
,  // measure 14
0100
0010
1000
1000
,  // measure 15
0200
0000
0000
0000
,  // measure 16
0301
0010
0001
0000
,  // measure 17
1000
0010
0100
0000
,  // measure 18
1000
0100
0001
0000
,  // measure 19
0010
0100
0100
0000
,  // measure 20
0001
1000
1000
0000
,  // measure 21
0100
0001
1000
0000
,  // measure 22
0010
0100
0010
0000
,  // measure 23
0100
0100
1000
0001
,  // measure 24
0012
0000
0000
0000
,  // measure 25
1003
0100
0001
0010
,  // measure 26
2000
0000
0000
0000
,  // measure 27
3010
1000
0100
0001
,  // measure 28
0020
0000
0000
0000
,  // measure 29
0130
0000
0001
0000
1000
0000
0000
0002
,  // measure 30
2000
0000
0000
0000
,  // measure 31
3003
0000
0000
0000
,  // measure 32
0012
0000
0000
0000
,  // measure 33
0013
0100
1000
0100
,  // measure 34
2000
0000
0000
0000
,  // measure 35
3010
0010
0001
0100
,  // measure 36
0020
0000
0000
0000
,  // measure 37
1030
0000
0001
0000
0100
0000
0000
0020
,  // measure 38
0200
0000
0000
0330
,  // measure 39
1000
0001
0100
1001
,  // measure 40
0000
0101
0000
1010
,  // measure 41
0100
0100
0100
0000
,  // measure 42
0001
0001
0001
0000
,  // measure 43
1000
1000
1000
0101
,  // measure 44
0000
1010
0000
0110
,  // measure 45
0001
0001
0001
0000
,  // measure 46
0010
0010
0010
0000
,  // measure 47
1100
0000
0100
0000
,  // measure 48
0101
0000
0100
0000
,  // measure 49
0110
0000
0010
0000
,  // measure 50
0011
0000
0001
0000
,  // measure 51
0100
0001
0010
0000
,  // measure 52
1000
0001
1000
0000
,  // measure 53
0100
0010
0100
0000
,  // measure 54
0001
0010
0000
0001
,  // measure 55
2001
0000
0000
0000
,  // measure 56
3010
0001
0100
1000
,  // measure 57
0200
0000
0000
0000
,  // measure 58
0310
1000
0100
0001
,  // measure 59
0002
0000
0000
0000
,  // measure 60
0013
0000
1000
0000
0010
0000
0000
0002
,  // measure 61
2000
0000
0000
0000
,  // measure 62
3003
0000
0010
0010
,  // measure 63
1001
0000
0000
0000
;
